osu file format v12

[General]
AudioFilename: Kanata ni mau wa sakura no ritsu be.mp3
AudioLeadIn: 0
PreviewTime: 62770
Countdown: 0
SampleSet: Normal
StackLeniency: 0.7
Mode: 1
LetterboxInBreaks: 0
WidescreenStoryboard: 1

[Editor]
DistanceSpacing: 1.4
BeatDivisor: 4
GridSize: 4

[Metadata]
Title:Kanata ni Mau wa Sakura no Shirabe
TitleUnicode:彼方に舞うは桜の律べ
Artist:Rohi
ArtistUnicode:ろひ
Creator:mintong89
Version:Taiko Kantan
Source:
Tags:Vocaloid Kagamine Rin Flower ぽかぽん ナツメ神楽
BeatmapID:291774
BeatmapSetID:111635

[Difficulty]
HPDrainRate:3
CircleSize:5
OverallDifficulty:3
ApproachRate:5
SliderMultiplier:1.2
SliderTickRate:1

[Events]
//Background and Video events
0,0,"BG.jpg",0,100
//Break Periods
//Storyboard Layer 0 (Background)
//Storyboard Layer 1 (Fail)
//Storyboard Layer 2 (Pass)
//Storyboard Layer 3 (Foreground)
//Storyboard Sound Samples
//Background Colour Transformations
3,100,163,162,255

[TimingPoints]
14478,375,6,1,0,85,1,0
14478,-80,6,1,0,85,0,0
14665,342.857142857143,6,1,0,85,1,8
14836,300,6,1,0,85,1,8
15436,300,6,1,0,85,1,0
16336,300,6,1,0,85,1,0
28936,300,4,1,0,85,1,0
48136,300,6,1,0,85,1,0
62536,-100,6,1,0,85,0,0
63136,300,4,1,0,85,1,1
82336,-100,4,1,0,85,0,0
120736,-100,4,1,0,85,0,1
139936,-100,4,1,0,85,0,0

[HitObjects]
296,200,14478,1,4,0:0:0:0:
236,248,15136,1,8,0:0:0:0:
220,160,16036,1,0,0:0:0:0:
184,224,16336,1,0,0:0:0:0:
256,316,16936,1,8,0:0:0:0:
296,244,17836,1,0,0:0:0:0:
296,244,18136,1,0,0:0:0:0:
360,164,18736,1,8,0:0:0:0:
384,300,19636,1,0,0:0:0:0:
384,300,19936,1,0,0:0:0:0:
284,236,20536,1,8,0:0:0:0:
312,176,21436,1,0,0:0:0:0:
312,176,21736,1,4,0:0:0:0:
324,272,22336,1,8,0:0:0:0:
256,240,23236,1,0,0:0:0:0:
256,240,23536,1,0,0:0:0:0:
320,184,24136,1,8,0:0:0:0:
392,184,25036,1,0,0:0:0:0:
392,184,25336,1,0,0:0:0:0:
280,192,25936,1,8,0:0:0:0:
292,104,26836,1,0,0:0:0:0:
292,104,27136,1,0,0:0:0:0:
200,180,27736,1,8,0:0:0:0:
292,188,28636,1,0,0:0:0:0:
292,188,28936,1,4,0:0:0:0:
308,296,29536,1,8,0:0:0:0:
440,312,30136,1,0,0:0:0:0:
440,312,30436,1,0,0:0:0:0:
440,312,30736,1,0,0:0:0:0:
208,212,31336,1,0,0:0:0:0:
264,272,31936,1,8,0:0:0:0:
320,192,32536,1,0,0:0:0:0:
348,248,33136,1,8,0:0:0:0:
264,188,33736,1,0,0:0:0:0:
204,196,34336,1,8,0:0:0:0:
284,144,34936,1,0,0:0:0:0:
284,144,35236,1,0,0:0:0:0:
284,144,35536,1,0,0:0:0:0:
340,200,36136,1,8,0:0:0:0:
352,268,36736,1,0,0:0:0:0:
324,340,37336,1,8,0:0:0:0:
248,360,37936,1,0,0:0:0:0:
292,188,38536,1,4,0:0:0:0:
308,296,39136,1,8,0:0:0:0:
440,312,39736,1,0,0:0:0:0:
440,312,40036,1,0,0:0:0:0:
440,312,40336,1,0,0:0:0:0:
208,212,40936,1,0,0:0:0:0:
264,272,41536,1,8,0:0:0:0:
320,192,42136,1,0,0:0:0:0:
348,248,42736,1,8,0:0:0:0:
264,188,43336,1,0,0:0:0:0:
204,196,43936,1,8,0:0:0:0:
284,144,44536,1,0,0:0:0:0:
284,144,44836,1,0,0:0:0:0:
284,144,45136,1,0,0:0:0:0:
340,200,45736,1,8,0:0:0:0:
352,268,46336,1,0,0:0:0:0:
324,340,46936,1,8,0:0:0:0:
248,360,47536,1,0,0:0:0:0:
204,208,48136,1,4,0:0:0:0:
160,168,49336,1,8,0:0:0:0:
296,192,49936,1,0,0:0:0:0:
256,240,50836,1,8,0:0:0:0:
224,160,51736,1,0,0:0:0:0:
328,112,52936,1,8,0:0:0:0:
368,208,53536,1,0,0:0:0:0:
240,264,54436,1,8,0:0:0:0:
272,184,55336,1,4,0:0:0:0:
312,256,56536,1,8,0:0:0:0:
312,352,57136,1,0,0:0:0:0:
264,308,58036,1,8,0:0:0:0:
244,208,58936,1,0,0:0:0:0:
288,164,60136,1,8,0:0:0:0:
332,236,60736,1,0,0:0:0:0:
292,304,61636,1,8,0:0:0:0:
224,240,63136,1,4,0:0:0:0:
280,184,63736,1,8,0:0:0:0:
352,168,64336,1,0,0:0:0:0:
352,168,64636,1,0,0:0:0:0:
352,168,64936,1,0,0:0:0:0:
380,264,65536,1,0,0:0:0:0:
352,312,66136,1,8,0:0:0:0:
240,240,66736,1,4,0:0:0:0:
268,336,67936,1,0,0:0:0:0:
272,256,68536,1,8,0:0:0:0:
344,184,69136,1,0,0:0:0:0:
380,252,69736,1,8,0:0:0:0:
356,328,70336,1,0,0:0:0:0:
288,352,70936,1,8,0:0:0:0:
52,268,71536,2,0,P|144:220|116:88,1,240
252,184,72736,1,4,0:0:0:0:
324,192,73336,1,8,0:0:0:0:
324,248,73936,1,0,0:0:0:0:
324,248,74236,1,0,0:0:0:0:
324,248,74536,1,0,0:0:0:0:
312,344,75136,1,0,0:0:0:0:
232,356,75736,1,8,0:0:0:0:
232,292,76336,1,4,0:0:0:0:
268,220,77536,1,0,0:0:0:0:
360,192,78136,1,8,0:0:0:0:
384,276,78736,1,0,0:0:0:0:
304,332,79336,1,8,0:0:0:0:
204,316,79936,1,0,0:0:0:0:
232,224,80536,1,8,0:0:0:0:
68,172,81136,2,0,P|116:192|260:84,1,240
316,240,82336,1,4,0:0:0:0:
224,304,82936,1,8,0:0:0:0:
272,236,83536,1,0,0:0:0:0:
252,172,83836,1,0,0:0:0:0:
324,184,84136,1,0,0:0:0:0:
340,256,84736,1,0,0:0:0:0:
340,308,85336,1,8,0:0:0:0:
268,360,85936,1,4,0:0:0:0:
168,280,86536,1,4,0:0:0:0:
232,184,87436,1,6,0:0:0:0:
272,264,88336,1,0,0:0:0:0:
148,196,88636,1,0,0:0:0:0:
372,208,88936,1,0,0:0:0:0:
228,264,89536,1,0,0:0:0:0:
252,216,90136,1,8,0:0:0:0:
292,176,90736,1,4,0:0:0:0:
304,232,91936,1,4,0:0:0:0:
296,312,92536,1,8,0:0:0:0:
372,320,93136,1,0,0:0:0:0:
216,256,93436,1,0,0:0:0:0:
420,256,93736,1,0,0:0:0:0:
392,252,94336,1,0,0:0:0:0:
296,208,94936,1,8,0:0:0:0:
344,176,95536,1,0,0:0:0:0:
344,176,95836,1,0,0:0:0:0:
344,176,96136,1,0,0:0:0:0:
344,176,96436,1,0,0:0:0:0:
344,176,96736,1,0,0:0:0:0:
144,248,97336,1,8,0:0:0:0:
240,196,97936,1,0,0:0:0:0:
240,196,98236,1,0,0:0:0:0:
240,196,98536,1,0,0:0:0:0:
248,320,99136,1,0,0:0:0:0:
320,264,99736,1,8,0:0:0:0:
200,196,100336,1,0,0:0:0:0:
200,196,100636,1,0,0:0:0:0:
200,196,100936,1,0,0:0:0:0:
448,284,101236,1,0,0:0:0:0:
280,200,101536,1,4,0:0:0:0:
376,184,102136,1,8,0:0:0:0:
364,260,102736,1,0,0:0:0:0:
312,328,103936,1,0,0:0:0:0:
168,320,104536,1,8,0:0:0:0:
184,252,105136,1,0,0:0:0:0:
272,200,106336,1,4,0:0:0:0:
236,272,108736,1,4,0:0:0:0:
232,192,111136,1,8,0:0:0:0:
232,192,113536,1,8,0:0:0:0:
232,192,115936,1,8,0:0:0:0:
232,192,118336,1,8,0:0:0:0:
336,296,119536,1,8,0:0:0:0:
336,296,119836,1,8,0:0:0:0:
336,296,120136,1,8,0:0:0:0:
224,240,120736,1,4,0:0:0:0:
280,184,121336,1,8,0:0:0:0:
352,168,121936,1,0,0:0:0:0:
352,168,122236,1,0,0:0:0:0:
352,168,122536,1,0,0:0:0:0:
380,264,123136,1,0,0:0:0:0:
352,312,123736,1,8,0:0:0:0:
240,240,124336,1,4,0:0:0:0:
268,336,125536,1,0,0:0:0:0:
272,256,126136,1,8,0:0:0:0:
344,184,126736,1,0,0:0:0:0:
380,252,127336,1,8,0:0:0:0:
356,328,127936,1,0,0:0:0:0:
288,352,128536,1,8,0:0:0:0:
52,268,129136,2,0,P|144:220|120:88,1,240
252,184,130336,1,4,0:0:0:0:
324,192,130936,1,8,0:0:0:0:
324,248,131536,1,0,0:0:0:0:
324,248,131836,1,0,0:0:0:0:
324,248,132136,1,0,0:0:0:0:
312,344,132736,1,0,0:0:0:0:
232,356,133336,1,8,0:0:0:0:
232,292,133936,1,4,0:0:0:0:
268,220,135136,1,0,0:0:0:0:
360,192,135736,1,8,0:0:0:0:
384,276,136336,1,0,0:0:0:0:
304,332,136936,1,8,0:0:0:0:
204,316,137536,1,0,0:0:0:0:
232,224,138136,1,8,0:0:0:0:
68,172,138736,2,0,P|116:192|260:80,1,240
316,240,139936,1,4,0:0:0:0:
224,304,140536,1,8,0:0:0:0:
272,236,141136,1,0,0:0:0:0:
252,172,141436,1,0,0:0:0:0:
324,184,141736,1,0,0:0:0:0:
340,256,142336,1,0,0:0:0:0:
340,308,142936,1,8,0:0:0:0:
268,360,143536,1,4,0:0:0:0:
168,280,144136,1,4,0:0:0:0:
232,184,145036,1,6,0:0:0:0:
272,264,145936,1,0,0:0:0:0:
148,196,146236,1,0,0:0:0:0:
372,208,146536,1,0,0:0:0:0:
228,264,147136,1,0,0:0:0:0:
252,216,147736,1,8,0:0:0:0:
292,176,148336,1,4,0:0:0:0:
316,240,149536,1,4,0:0:0:0:
224,304,150136,1,8,0:0:0:0:
272,236,150736,1,0,0:0:0:0:
252,172,151036,1,0,0:0:0:0:
324,184,151336,1,0,0:0:0:0:
340,256,151936,1,0,0:0:0:0:
340,308,152536,1,8,0:0:0:0:
268,360,153136,1,4,0:0:0:0:
168,280,153736,1,4,0:0:0:0:
232,184,154636,1,6,0:0:0:0:
272,264,155536,1,0,0:0:0:0:
148,196,155836,1,0,0:0:0:0:
372,208,156136,1,0,0:0:0:0:
228,264,156736,1,0,0:0:0:0:
252,216,157336,1,8,0:0:0:0:
292,176,157936,1,4,0:0:0:0:
364,252,158536,1,4,0:0:0:0:
