osu file format v12

[General]
AudioFilename: Kanata ni mau wa sakura no ritsu be.mp3
AudioLeadIn: 0
PreviewTime: 62770
Countdown: 0
SampleSet: Normal
StackLeniency: 0.7
Mode: 1
LetterboxInBreaks: 0
WidescreenStoryboard: 1

[Editor]
DistanceSpacing: 1.4
BeatDivisor: 4
GridSize: 4

[Metadata]
Title:Kanata ni Mau wa Sakura no Shirabe
TitleUnicode:彼方に舞うは桜の律べ
Artist:Rohi
ArtistUnicode:ろひ
Creator:mintong89
Version:Taiko Futsuu
Source:
Tags:Vocaloid Kagamine Rin Flower ぽかぽん ナツメ神楽
BeatmapID:291196
BeatmapSetID:111635

[Difficulty]
HPDrainRate:4
CircleSize:5
OverallDifficulty:4
ApproachRate:5
SliderMultiplier:1.2
SliderTickRate:1

[Events]
//Background and Video events
0,0,"BG.jpg",0,100
//Break Periods
//Storyboard Layer 0 (Background)
//Storyboard Layer 1 (Fail)
//Storyboard Layer 2 (Pass)
//Storyboard Layer 3 (Foreground)
//Storyboard Sound Samples
//Background Colour Transformations
3,100,163,162,255

[TimingPoints]
14478,375,6,1,0,85,1,0
14478,-80,6,1,0,85,0,0
14665,342.857142857143,6,1,0,85,1,8
14836,300,6,1,0,85,1,8
15436,300,6,1,0,85,1,0
16336,300,6,1,0,85,1,0
28936,300,4,1,0,85,1,0
48136,300,6,1,0,85,1,0
63136,300,4,1,0,85,1,1
82336,-100,4,1,0,85,0,0
120736,-100,4,1,0,85,0,1
139936,-100,4,1,0,85,0,0

[HitObjects]
260,236,14478,1,4,0:0:0:0:
260,236,14836,1,0,0:0:0:0:
260,236,14986,1,0,0:0:0:0:
260,236,15136,1,0,0:0:0:0:
336,200,15436,1,0,0:0:0:0:
308,296,16036,1,0,0:0:0:0:
196,232,16336,1,0,0:0:0:0:
228,312,16636,1,0,0:0:0:0:
228,312,16786,1,0,0:0:0:0:
228,312,16936,1,0,0:0:0:0:
240,176,17236,1,8,0:0:0:0:
328,180,17836,1,8,0:0:0:0:
400,264,18136,1,0,0:0:0:0:
400,264,18436,1,0,0:0:0:0:
400,264,18586,1,0,0:0:0:0:
400,264,18736,1,0,0:0:0:0:
308,288,19036,1,0,0:0:0:0:
232,312,19636,1,0,0:0:0:0:
300,144,19936,1,0,0:0:0:0:
300,144,20236,1,0,0:0:0:0:
300,144,20386,1,0,0:0:0:0:
300,144,20536,1,0,0:0:0:0:
328,228,20836,1,8,0:0:0:0:
328,228,21436,1,8,0:0:0:0:
400,264,21736,1,4,0:0:0:0:
400,264,22036,1,0,0:0:0:0:
400,264,22186,1,0,0:0:0:0:
400,264,22336,1,0,0:0:0:0:
308,288,22636,1,0,0:0:0:0:
232,312,23236,1,0,0:0:0:0:
300,144,23536,1,0,0:0:0:0:
300,144,23836,1,0,0:0:0:0:
300,144,23986,1,0,0:0:0:0:
300,144,24136,1,0,0:0:0:0:
328,228,24436,1,8,0:0:0:0:
328,228,25036,1,8,0:0:0:0:
400,264,25336,1,0,0:0:0:0:
400,264,25636,1,0,0:0:0:0:
400,264,25786,1,0,0:0:0:0:
400,264,25936,1,0,0:0:0:0:
308,288,26236,1,0,0:0:0:0:
232,312,26836,1,0,0:0:0:0:
300,144,27136,1,0,0:0:0:0:
300,144,27436,1,0,0:0:0:0:
300,144,27586,1,0,0:0:0:0:
300,144,27736,1,0,0:0:0:0:
328,228,28036,1,8,0:0:0:0:
328,228,28636,1,8,0:0:0:0:
192,196,28936,1,4,0:0:0:0:
252,284,29236,1,8,0:0:0:0:
340,328,29836,1,8,0:0:0:0:
408,304,30136,1,0,0:0:0:0:
400,352,30436,1,8,0:0:0:0:
340,328,30736,1,0,0:0:0:0:
340,328,31036,1,8,0:0:0:0:
420,248,31336,1,0,0:0:0:0:
420,248,31636,1,0,0:0:0:0:
420,248,31786,1,0,0:0:0:0:
420,248,31936,1,0,0:0:0:0:
200,228,32236,1,8,0:0:0:0:
304,252,32536,1,0,0:0:0:0:
304,176,32836,1,0,0:0:0:0:
304,176,32986,1,0,0:0:0:0:
304,176,33136,1,0,0:0:0:0:
320,208,33436,1,8,0:0:0:0:
416,156,33736,1,0,0:0:0:0:
432,256,34036,1,8,0:0:0:0:
344,284,34636,1,8,0:0:0:0:
308,312,34936,1,0,0:0:0:0:
212,308,35236,1,8,0:0:0:0:
292,152,35536,1,0,0:0:0:0:
260,216,35836,1,8,0:0:0:0:
380,180,36136,1,0,0:0:0:0:
396,240,36436,1,0,0:0:0:0:
396,240,36586,1,0,0:0:0:0:
396,240,36736,1,0,0:0:0:0:
352,296,37036,1,8,0:0:0:0:
260,264,37336,1,0,0:0:0:0:
256,212,37636,1,8,0:0:0:0:
256,212,37786,1,8,0:0:0:0:
256,212,37936,1,8,0:0:0:0:
340,168,38236,1,8,0:0:0:0:
192,196,38536,1,4,0:0:0:0:
252,284,38836,1,8,0:0:0:0:
340,328,39436,1,8,0:0:0:0:
408,304,39736,1,0,0:0:0:0:
400,352,40036,1,8,0:0:0:0:
340,328,40336,1,0,0:0:0:0:
340,328,40636,1,8,0:0:0:0:
420,248,40936,1,0,0:0:0:0:
420,248,41236,1,0,0:0:0:0:
420,248,41386,1,0,0:0:0:0:
420,248,41536,1,0,0:0:0:0:
200,228,41836,1,8,0:0:0:0:
304,252,42136,1,0,0:0:0:0:
304,176,42436,1,0,0:0:0:0:
304,176,42586,1,0,0:0:0:0:
304,176,42736,1,0,0:0:0:0:
320,208,43036,1,8,0:0:0:0:
416,156,43336,1,0,0:0:0:0:
432,256,43636,1,8,0:0:0:0:
344,284,44236,1,8,0:0:0:0:
308,312,44536,1,0,0:0:0:0:
212,308,44836,1,8,0:0:0:0:
292,152,45136,1,0,0:0:0:0:
260,216,45436,1,8,0:0:0:0:
380,180,45736,1,0,0:0:0:0:
396,240,46036,1,0,0:0:0:0:
396,240,46186,1,0,0:0:0:0:
396,240,46336,1,0,0:0:0:0:
352,296,46636,1,8,0:0:0:0:
260,264,46936,1,0,0:0:0:0:
256,212,47236,1,8,0:0:0:0:
256,212,47386,1,8,0:0:0:0:
256,212,47536,1,8,0:0:0:0:
340,168,47836,1,8,0:0:0:0:
248,136,48136,1,4,0:0:0:0:
160,264,48586,1,0,0:0:0:0:
440,292,49036,1,0,0:0:0:0:
312,312,49336,1,8,0:0:0:0:
352,296,49636,1,0,0:0:0:0:
368,320,49936,1,0,0:0:0:0:
372,200,50386,1,0,0:0:0:0:
372,200,50836,1,0,0:0:0:0:
236,184,51136,1,0,0:0:0:0:
264,260,51436,1,8,0:0:0:0:
260,320,51736,1,0,0:0:0:0:
336,296,52186,1,0,0:0:0:0:
336,296,52636,1,0,0:0:0:0:
184,288,52936,1,8,0:0:0:0:
184,288,53236,1,8,0:0:0:0:
268,220,53536,1,0,0:0:0:0:
344,212,53986,1,8,0:0:0:0:
344,212,54436,1,8,0:0:0:0:
352,352,54736,1,0,0:0:0:0:
368,296,55036,1,8,0:0:0:0:
248,136,55336,1,4,0:0:0:0:
160,264,55786,1,0,0:0:0:0:
160,264,56236,1,0,0:0:0:0:
312,312,56536,1,8,0:0:0:0:
352,296,56836,1,0,0:0:0:0:
368,320,57136,1,0,0:0:0:0:
372,200,57586,1,0,0:0:0:0:
372,200,58036,1,0,0:0:0:0:
236,184,58336,1,0,0:0:0:0:
264,260,58636,1,8,0:0:0:0:
260,320,58936,1,0,0:0:0:0:
336,296,59386,1,0,0:0:0:0:
336,296,59836,1,0,0:0:0:0:
184,288,60136,1,8,0:0:0:0:
184,288,60436,1,8,0:0:0:0:
268,220,60736,1,0,0:0:0:0:
344,212,61186,1,8,0:0:0:0:
244,124,61636,1,0,0:0:0:0:
364,144,61936,1,0,0:0:0:0:
240,172,62236,1,8,0:0:0:0:
240,172,62836,1,8,0:0:0:0:
276,344,63136,1,4,0:0:0:0:
248,280,63436,1,8,0:0:0:0:
276,204,63736,1,0,0:0:0:0:
344,220,64036,1,8,0:0:0:0:
336,276,64336,1,0,0:0:0:0:
396,336,64636,1,8,0:0:0:0:
416,256,64936,1,0,0:0:0:0:
416,256,65086,1,0,0:0:0:0:
416,256,65236,1,0,0:0:0:0:
340,108,65536,1,0,0:0:0:0:
316,176,65836,1,8,0:0:0:0:
276,240,66136,1,0,0:0:0:0:
232,268,66436,1,8,0:0:0:0:
192,168,66736,1,4,0:0:0:0:
192,168,67336,1,4,0:0:0:0:
248,148,67936,1,0,0:0:0:0:
356,196,68236,1,8,0:0:0:0:
276,264,68536,1,0,0:0:0:0:
288,308,69136,1,0,0:0:0:0:
252,324,69436,1,8,0:0:0:0:
420,256,69736,1,0,0:0:0:0:
340,228,70336,1,0,0:0:0:0:
380,268,70636,1,8,0:0:0:0:
256,184,70936,1,0,0:0:0:0:
364,136,71236,1,8,0:0:0:0:
396,340,71536,1,4,0:0:0:0:
396,340,71836,1,4,0:0:0:0:
396,340,72136,1,4,0:0:0:0:
276,344,72736,1,4,0:0:0:0:
248,280,73036,1,8,0:0:0:0:
276,204,73336,1,0,0:0:0:0:
344,220,73636,1,8,0:0:0:0:
336,276,73936,1,0,0:0:0:0:
396,336,74236,1,8,0:0:0:0:
416,256,74536,1,0,0:0:0:0:
416,256,74686,1,0,0:0:0:0:
416,256,74836,1,0,0:0:0:0:
340,108,75136,1,0,0:0:0:0:
316,176,75436,1,8,0:0:0:0:
276,240,75736,1,0,0:0:0:0:
232,268,76036,1,8,0:0:0:0:
192,168,76336,1,4,0:0:0:0:
192,168,76936,1,4,0:0:0:0:
248,148,77536,1,0,0:0:0:0:
356,196,77836,1,8,0:0:0:0:
160,252,78136,1,0,0:0:0:0:
268,252,78736,1,0,0:0:0:0:
252,324,79036,1,8,0:0:0:0:
424,260,79336,1,0,0:0:0:0:
340,228,79936,1,0,0:0:0:0:
380,268,80236,1,8,0:0:0:0:
260,184,80536,1,0,0:0:0:0:
472,252,80836,1,8,0:0:0:0:
396,340,81136,1,4,0:0:0:0:
396,340,81436,1,4,0:0:0:0:
396,340,81736,1,4,0:0:0:0:
268,184,82336,1,4,0:0:0:0:
308,192,82636,1,8,0:0:0:0:
344,152,82936,1,0,0:0:0:0:
400,236,83236,1,8,0:0:0:0:
316,296,83536,1,0,0:0:0:0:
316,296,83836,1,0,0:0:0:0:
316,296,83986,1,0,0:0:0:0:
316,296,84136,1,0,0:0:0:0:
216,232,84736,1,0,0:0:0:0:
268,164,85036,1,8,0:0:0:0:
364,152,85336,1,0,0:0:0:0:
384,248,85636,1,8,0:0:0:0:
192,156,85936,1,4,0:0:0:0:
192,156,86536,1,4,0:0:0:0:
320,136,87436,1,6,0:0:0:0:
276,200,87736,1,0,0:0:0:0:
276,252,88036,1,8,0:0:0:0:
204,264,88336,1,0,0:0:0:0:
204,264,88636,1,0,0:0:0:0:
204,264,88786,1,0,0:0:0:0:
204,264,88936,1,0,0:0:0:0:
276,252,89536,1,0,0:0:0:0:
348,248,89836,1,8,0:0:0:0:
360,316,90136,1,0,0:0:0:0:
288,352,90436,1,8,0:0:0:0:
168,304,90736,2,0,B|100:292|52:120|72:196|188:172,1,240
312,168,91936,1,4,0:0:0:0:
372,208,92236,1,8,0:0:0:0:
372,268,92836,1,8,0:0:0:0:
352,316,93136,1,0,0:0:0:0:
288,344,93436,1,8,0:0:0:0:
268,268,94036,1,8,0:0:0:0:
280,200,94336,1,0,0:0:0:0:
352,200,94636,1,8,0:0:0:0:
240,208,95236,1,8,0:0:0:0:
284,152,95536,1,4,0:0:0:0:
352,200,96136,1,4,0:0:0:0:
356,308,96736,1,0,0:0:0:0:
304,328,97036,1,8,0:0:0:0:
256,304,97636,1,8,0:0:0:0:
272,256,97936,1,0,0:0:0:0:
324,208,98236,1,8,0:0:0:0:
321,169,98836,1,8,0:0:0:0:
364,224,99136,1,0,0:0:0:0:
216,196,99436,1,8,0:0:0:0:
264,236,100036,1,8,0:0:0:0:
368,192,100336,1,4,0:0:0:0:
368,192,100936,1,4,0:0:0:0:
288,264,101536,1,4,0:0:0:0:
364,256,102136,1,8,0:0:0:0:
320,320,102736,1,0,0:0:0:0:
320,320,103036,1,0,0:0:0:0:
312,72,103336,1,8,0:0:0:0:
228,160,103936,1,0,0:0:0:0:
288,200,104536,1,8,0:0:0:0:
344,200,105136,1,0,0:0:0:0:
276,216,106336,1,4,0:0:0:0:
224,252,108736,1,4,0:0:0:0:
284,160,111136,1,8,0:0:0:0:
284,160,112336,1,8,0:0:0:0:
284,160,113536,1,8,0:0:0:0:
284,160,114736,1,8,0:0:0:0:
284,160,115336,1,8,0:0:0:0:
284,160,115936,1,8,0:0:0:0:
308,228,117136,1,8,0:0:0:0:
328,304,118336,1,8,0:0:0:0:
380,240,119536,1,8,0:0:0:0:
380,240,119836,1,8,0:0:0:0:
380,240,120136,1,8,0:0:0:0:
276,344,120736,1,4,0:0:0:0:
248,280,121036,1,8,0:0:0:0:
276,204,121336,1,0,0:0:0:0:
344,220,121636,1,8,0:0:0:0:
336,276,121936,1,0,0:0:0:0:
396,336,122236,1,8,0:0:0:0:
416,256,122536,1,0,0:0:0:0:
416,256,122686,1,0,0:0:0:0:
416,256,122836,1,0,0:0:0:0:
340,108,123136,1,0,0:0:0:0:
316,176,123436,1,8,0:0:0:0:
276,240,123736,1,0,0:0:0:0:
232,268,124036,1,8,0:0:0:0:
192,168,124336,1,4,0:0:0:0:
192,168,124936,1,4,0:0:0:0:
248,148,125536,1,0,0:0:0:0:
356,196,125836,1,8,0:0:0:0:
276,264,126136,1,0,0:0:0:0:
288,308,126736,1,0,0:0:0:0:
252,324,127036,1,8,0:0:0:0:
408,296,127336,1,0,0:0:0:0:
340,228,127936,1,0,0:0:0:0:
380,268,128236,1,8,0:0:0:0:
256,184,128536,1,0,0:0:0:0:
472,252,128836,1,8,0:0:0:0:
396,340,129136,1,4,0:0:0:0:
396,340,129436,1,4,0:0:0:0:
396,340,129736,1,4,0:0:0:0:
276,344,130336,1,4,0:0:0:0:
248,280,130636,1,8,0:0:0:0:
276,204,130936,1,0,0:0:0:0:
344,220,131236,1,8,0:0:0:0:
336,276,131536,1,0,0:0:0:0:
396,336,131836,1,8,0:0:0:0:
416,256,132136,1,8,0:0:0:0:
416,256,132286,1,8,0:0:0:0:
416,256,132436,1,8,0:0:0:0:
340,108,132736,1,0,0:0:0:0:
316,176,133036,1,8,0:0:0:0:
276,240,133336,1,0,0:0:0:0:
232,268,133636,1,8,0:0:0:0:
192,168,133936,1,4,0:0:0:0:
192,168,134536,1,4,0:0:0:0:
248,148,135136,1,0,0:0:0:0:
356,196,135436,1,8,0:0:0:0:
160,252,135736,1,0,0:0:0:0:
268,252,136336,1,0,0:0:0:0:
252,324,136636,1,8,0:0:0:0:
416,176,136936,1,0,0:0:0:0:
340,228,137536,1,0,0:0:0:0:
380,268,137836,1,8,0:0:0:0:
260,184,138136,1,0,0:0:0:0:
472,252,138436,1,8,0:0:0:0:
396,340,138736,1,4,0:0:0:0:
396,340,139036,1,4,0:0:0:0:
396,340,139336,1,4,0:0:0:0:
268,184,139936,1,4,0:0:0:0:
308,192,140236,1,8,0:0:0:0:
344,152,140536,1,0,0:0:0:0:
400,236,140836,1,8,0:0:0:0:
316,296,141136,1,0,0:0:0:0:
316,296,141436,1,0,0:0:0:0:
316,296,141586,1,0,0:0:0:0:
316,296,141736,1,0,0:0:0:0:
216,232,142336,1,0,0:0:0:0:
268,164,142636,1,8,0:0:0:0:
364,152,142936,1,0,0:0:0:0:
384,248,143236,1,8,0:0:0:0:
192,156,143536,1,4,0:0:0:0:
192,156,144136,1,4,0:0:0:0:
320,136,145036,1,6,0:0:0:0:
276,200,145336,1,0,0:0:0:0:
276,252,145636,1,8,0:0:0:0:
204,264,145936,1,0,0:0:0:0:
204,264,146236,1,0,0:0:0:0:
204,264,146386,1,0,0:0:0:0:
204,264,146536,1,0,0:0:0:0:
276,252,147136,1,0,0:0:0:0:
348,248,147436,1,8,0:0:0:0:
360,316,147736,1,0,0:0:0:0:
288,352,148036,1,8,0:0:0:0:
200,288,148336,2,0,B|132:276|104:172|104:172|104:180|172:216|176:196,1,240
268,184,149536,1,4,0:0:0:0:
308,192,149836,1,8,0:0:0:0:
344,152,150136,1,0,0:0:0:0:
400,236,150436,1,8,0:0:0:0:
316,296,150736,1,0,0:0:0:0:
316,296,151036,1,0,0:0:0:0:
316,296,151186,1,0,0:0:0:0:
316,296,151336,1,0,0:0:0:0:
216,232,151936,1,0,0:0:0:0:
268,164,152236,1,8,0:0:0:0:
364,152,152536,1,0,0:0:0:0:
384,248,152836,1,8,0:0:0:0:
192,156,153136,1,4,0:0:0:0:
192,156,153736,1,4,0:0:0:0:
320,136,154636,1,6,0:0:0:0:
276,200,154936,1,0,0:0:0:0:
276,252,155236,1,8,0:0:0:0:
204,264,155536,1,0,0:0:0:0:
204,264,155836,1,0,0:0:0:0:
204,264,155986,1,0,0:0:0:0:
204,264,156136,1,0,0:0:0:0:
276,252,156736,1,0,0:0:0:0:
348,248,157036,1,8,0:0:0:0:
360,316,157336,1,0,0:0:0:0:
288,352,157636,1,8,0:0:0:0:
176,348,157936,1,4,0:0:0:0:
176,348,158536,1,4,0:0:0:0:
