osu file format v12

[General]
AudioFilename: Kanata ni mau wa sakura no ritsu be.mp3
AudioLeadIn: 0
PreviewTime: 62770
Countdown: 0
SampleSet: Normal
StackLeniency: 0.7
Mode: 1
LetterboxInBreaks: 0
WidescreenStoryboard: 1

[Editor]
DistanceSpacing: 1.4
BeatDivisor: 3
GridSize: 32

[Metadata]
Title:Kanata ni Mau wa Sakura no Shirabe
TitleUnicode:彼方に舞うは桜の律べ
Artist:Rohi
ArtistUnicode:ろひ
Creator:mintong89
Version:Taiko Flower
Source:
Tags:Vocaloid Kagamine Rin Flower ぽかぽん ナツメ神楽
BeatmapID:291133
BeatmapSetID:111635

[Difficulty]
HPDrainRate:6
CircleSize:5
OverallDifficulty:5
ApproachRate:5
SliderMultiplier:1.4
SliderTickRate:1

[Events]
//Background and Video events
0,0,"BG.jpg",0,100
//Break Periods
//Storyboard Layer 0 (Background)
//Storyboard Layer 1 (Fail)
//Storyboard Layer 2 (Pass)
//Storyboard Layer 3 (Foreground)
//Storyboard Sound Samples
//Background Colour Transformations
3,100,163,162,255

[TimingPoints]
14478,375,6,1,0,85,1,0
14478,-80,6,1,0,85,0,0
14665,342.857142857143,6,1,0,85,1,8
14665,-87.719298245614,6,1,0,85,0,0
14836,300,6,1,0,85,1,8
15436,300,6,1,0,85,1,0
16336,300,6,1,0,85,1,0
28936,300,4,1,0,85,1,0
48136,300,6,1,0,85,1,0
48211,-133.333333333333,6,1,0,85,0,0
62836,-100,6,1,0,85,0,0
63136,300,4,1,0,85,1,1
82336,-100,4,1,0,85,0,0
111136,-133.333333333333,4,1,0,85,0,0
119536,-100,4,1,0,85,0,0
120736,-100,4,1,0,85,0,1
120811,-83.3333333333333,4,1,0,85,0,1
139936,-83.3333333333333,4,1,0,85,0,0

[HitObjects]
256,192,14478,1,0,0:0:0:0:
256,192,14571,1,0,0:0:0:0:
256,192,14665,1,0,0:0:0:0:
256,192,14836,1,0,0:0:0:0:
256,192,14986,1,8,0:0:0:0:
256,192,15136,1,0,0:0:0:0:
256,192,15286,1,8,0:0:0:0:
256,192,15436,1,0,0:0:0:0:
256,192,15511,1,8,0:0:0:0:
256,192,15586,1,0,0:0:0:0:
256,192,15736,1,0,0:0:0:0:
256,192,15886,1,8,0:0:0:0:
256,192,16036,1,0,0:0:0:0:
256,192,16336,1,0,0:0:0:0:
256,192,16411,1,0,0:0:0:0:
256,192,16486,1,0,0:0:0:0:
256,192,16636,1,0,0:0:0:0:
256,192,16786,1,8,0:0:0:0:
256,192,16936,1,0,0:0:0:0:
256,192,17086,1,8,0:0:0:0:
256,192,17236,1,0,0:0:0:0:
256,192,17311,1,8,0:0:0:0:
256,192,17386,1,0,0:0:0:0:
256,192,17536,1,0,0:0:0:0:
256,192,17686,1,8,0:0:0:0:
256,192,17836,1,0,0:0:0:0:
256,192,17986,1,8,0:0:0:0:
256,192,18061,1,8,0:0:0:0:
256,192,18136,1,0,0:0:0:0:
256,192,18211,1,0,0:0:0:0:
256,192,18286,1,0,0:0:0:0:
256,192,18436,1,0,0:0:0:0:
256,192,18586,1,8,0:0:0:0:
256,192,18736,1,0,0:0:0:0:
256,192,18886,1,8,0:0:0:0:
256,192,19036,1,0,0:0:0:0:
256,192,19111,1,8,0:0:0:0:
256,192,19186,1,0,0:0:0:0:
256,192,19336,1,0,0:0:0:0:
256,192,19486,1,8,0:0:0:0:
256,192,19636,1,0,0:0:0:0:
256,192,19936,1,0,0:0:0:0:
256,192,20011,1,0,0:0:0:0:
256,192,20086,1,0,0:0:0:0:
256,192,20236,1,0,0:0:0:0:
256,192,20386,1,8,0:0:0:0:
256,192,20536,1,0,0:0:0:0:
256,192,20686,1,8,0:0:0:0:
256,192,20836,1,0,0:0:0:0:
256,192,20911,1,8,0:0:0:0:
256,192,20986,1,0,0:0:0:0:
256,192,21061,1,8,0:0:0:0:
256,192,21136,1,0,0:0:0:0:
256,192,21211,1,0,0:0:0:0:
256,192,21286,1,8,0:0:0:0:
256,192,21436,1,4,0:0:0:0:
256,192,21586,1,12,0:0:0:0:
256,192,21736,1,4,0:0:0:0:
256,192,21886,1,0,0:0:0:0:
256,192,21961,1,0,0:0:0:0:
256,192,22036,1,0,0:0:0:0:
256,192,22186,1,8,0:0:0:0:
256,192,22336,1,0,0:0:0:0:
256,192,22411,1,8,0:0:0:0:
256,192,22486,1,0,0:0:0:0:
256,192,22636,1,0,0:0:0:0:
256,192,22711,1,8,0:0:0:0:
256,192,22786,1,8,0:0:0:0:
256,192,22936,1,0,0:0:0:0:
256,192,23086,1,8,0:0:0:0:
256,192,23161,1,8,0:0:0:0:
256,192,23236,1,0,0:0:0:0:
256,192,23386,1,0,0:0:0:0:
256,192,23536,1,0,0:0:0:0:
256,192,23686,1,8,0:0:0:0:
256,192,23761,1,0,0:0:0:0:
256,192,23836,1,0,0:0:0:0:
256,192,23986,1,8,0:0:0:0:
256,192,24136,1,0,0:0:0:0:
256,192,24211,1,0,0:0:0:0:
256,192,24286,1,0,0:0:0:0:
256,192,24436,1,0,0:0:0:0:
256,192,24511,1,0,0:0:0:0:
256,192,24586,1,8,0:0:0:0:
256,192,24661,1,0,0:0:0:0:
256,192,24736,1,0,0:0:0:0:
256,192,24886,1,8,0:0:0:0:
256,192,25036,1,0,0:0:0:0:
256,192,25111,1,0,0:0:0:0:
256,192,25186,1,8,0:0:0:0:
256,192,25261,1,0,0:0:0:0:
256,192,25336,1,0,0:0:0:0:
256,192,25411,1,0,0:0:0:0:
256,192,25486,1,0,0:0:0:0:
256,192,25636,1,8,0:0:0:0:
256,192,25786,1,8,0:0:0:0:
256,192,25936,1,0,0:0:0:0:
256,192,26011,1,0,0:0:0:0:
256,192,26086,1,0,0:0:0:0:
256,192,26236,1,0,0:0:0:0:
256,192,26386,1,8,0:0:0:0:
256,192,26536,1,0,0:0:0:0:
256,192,26611,1,0,0:0:0:0:
256,192,26686,1,8,0:0:0:0:
256,192,26836,1,0,0:0:0:0:
256,192,27136,1,0,0:0:0:0:
256,192,27211,1,0,0:0:0:0:
256,192,27286,1,0,0:0:0:0:
256,192,27436,1,0,0:0:0:0:
256,192,27586,1,8,0:0:0:0:
256,192,27736,1,0,0:0:0:0:
256,192,27811,1,8,0:0:0:0:
256,192,27886,1,0,0:0:0:0:
256,192,28036,1,0,0:0:0:0:
256,192,28111,1,8,0:0:0:0:
256,192,28186,1,0,0:0:0:0:
256,192,28336,1,4,0:0:0:0:
256,192,28486,1,4,0:0:0:0:
256,192,28636,1,12,0:0:0:0:
256,192,28786,1,12,0:0:0:0:
256,192,28936,1,0,0:0:0:0:
256,192,29011,1,0,0:0:0:0:
256,192,29086,1,8,0:0:0:0:
256,192,29236,1,0,0:0:0:0:
256,192,29386,1,8,0:0:0:0:
256,192,29461,1,0,0:0:0:0:
256,192,29611,1,0,0:0:0:0:
256,192,29686,1,8,0:0:0:0:
256,192,29836,1,0,0:0:0:0:
256,192,29986,1,8,0:0:0:0:
256,192,30136,1,0,0:0:0:0:
256,192,30211,1,0,0:0:0:0:
256,192,30286,1,8,0:0:0:0:
256,192,30436,1,0,0:0:0:0:
256,192,30586,1,8,0:0:0:0:
256,192,30661,1,8,0:0:0:0:
256,192,30736,1,0,0:0:0:0:
256,192,30886,1,8,0:0:0:0:
256,192,31036,1,0,0:0:0:0:
256,192,31111,1,0,0:0:0:0:
256,192,31186,1,8,0:0:0:0:
256,192,31261,1,8,0:0:0:0:
256,192,31336,1,0,0:0:0:0:
256,192,31411,1,0,0:0:0:0:
256,192,31486,1,0,0:0:0:0:
256,192,31636,1,8,0:0:0:0:
256,192,31786,1,0,0:0:0:0:
256,192,31861,1,0,0:0:0:0:
256,192,32011,1,0,0:0:0:0:
256,192,32086,1,8,0:0:0:0:
256,192,32236,1,0,0:0:0:0:
256,192,32386,1,0,0:0:0:0:
256,192,32461,1,8,0:0:0:0:
256,192,32536,1,0,0:0:0:0:
256,192,32611,1,0,0:0:0:0:
256,192,32686,1,0,0:0:0:0:
256,192,32836,1,0,0:0:0:0:
256,192,32986,1,8,0:0:0:0:
256,192,33136,1,0,0:0:0:0:
256,192,33211,1,8,0:0:0:0:
256,192,33286,1,0,0:0:0:0:
256,192,33436,1,6,0:0:0:0:
256,192,33736,1,0,0:0:0:0:
256,192,33811,1,0,0:0:0:0:
256,192,33886,1,8,0:0:0:0:
256,192,34036,1,0,0:0:0:0:
256,192,34186,1,8,0:0:0:0:
256,192,34261,1,0,0:0:0:0:
256,192,34411,1,0,0:0:0:0:
256,192,34486,1,8,0:0:0:0:
256,192,34636,1,0,0:0:0:0:
256,192,34786,1,8,0:0:0:0:
256,192,34936,1,0,0:0:0:0:
256,192,35011,1,0,0:0:0:0:
256,192,35086,1,8,0:0:0:0:
256,192,35236,1,0,0:0:0:0:
256,192,35386,1,8,0:0:0:0:
256,192,35461,1,8,0:0:0:0:
256,192,35536,1,0,0:0:0:0:
256,192,35611,1,0,0:0:0:0:
256,192,35686,1,0,0:0:0:0:
256,192,35836,1,8,0:0:0:0:
256,192,35911,1,8,0:0:0:0:
256,192,35986,1,0,0:0:0:0:
256,192,36061,1,8,0:0:0:0:
256,192,36136,1,0,0:0:0:0:
256,192,36286,1,0,0:0:0:0:
256,192,36436,1,8,0:0:0:0:
256,192,36586,1,0,0:0:0:0:
256,192,36661,1,0,0:0:0:0:
256,192,36811,1,0,0:0:0:0:
256,192,36886,1,8,0:0:0:0:
256,192,37036,1,0,0:0:0:0:
256,192,37186,1,0,0:0:0:0:
256,192,37261,1,8,0:0:0:0:
256,192,37336,1,0,0:0:0:0:
256,192,37411,1,0,0:0:0:0:
256,192,37486,1,0,0:0:0:0:
256,192,37636,1,0,0:0:0:0:
256,192,37786,1,8,0:0:0:0:
256,192,37936,1,0,0:0:0:0:
256,192,38011,1,8,0:0:0:0:
256,192,38086,1,0,0:0:0:0:
256,192,38236,1,6,0:0:0:0:
256,192,38536,1,0,0:0:0:0:
256,192,38611,1,0,0:0:0:0:
256,192,38686,1,8,0:0:0:0:
256,192,38836,1,0,0:0:0:0:
256,192,38986,1,8,0:0:0:0:
256,192,39061,1,0,0:0:0:0:
256,192,39211,1,0,0:0:0:0:
256,192,39286,1,8,0:0:0:0:
256,192,39436,1,0,0:0:0:0:
256,192,39586,1,8,0:0:0:0:
256,192,39736,1,0,0:0:0:0:
256,192,39811,1,0,0:0:0:0:
256,192,39886,1,8,0:0:0:0:
256,192,40036,1,0,0:0:0:0:
256,192,40186,1,8,0:0:0:0:
256,192,40261,1,8,0:0:0:0:
256,192,40336,1,0,0:0:0:0:
256,192,40486,1,8,0:0:0:0:
256,192,40636,1,0,0:0:0:0:
256,192,40711,1,0,0:0:0:0:
256,192,40786,1,8,0:0:0:0:
256,192,40861,1,8,0:0:0:0:
256,192,40936,1,0,0:0:0:0:
256,192,41011,1,0,0:0:0:0:
256,192,41086,1,0,0:0:0:0:
256,192,41236,1,8,0:0:0:0:
256,192,41386,1,0,0:0:0:0:
256,192,41461,1,0,0:0:0:0:
256,192,41611,1,0,0:0:0:0:
256,192,41686,1,8,0:0:0:0:
256,192,41836,1,0,0:0:0:0:
256,192,41986,1,0,0:0:0:0:
256,192,42061,1,8,0:0:0:0:
256,192,42136,1,0,0:0:0:0:
256,192,42211,1,0,0:0:0:0:
256,192,42286,1,0,0:0:0:0:
256,192,42436,1,0,0:0:0:0:
256,192,42586,1,8,0:0:0:0:
256,192,42736,1,0,0:0:0:0:
256,192,42811,1,8,0:0:0:0:
256,192,42886,1,0,0:0:0:0:
256,192,43036,1,6,0:0:0:0:
256,192,43336,1,0,0:0:0:0:
256,192,43411,1,0,0:0:0:0:
256,192,43486,1,8,0:0:0:0:
256,192,43636,1,0,0:0:0:0:
256,192,43786,1,8,0:0:0:0:
256,192,43861,1,0,0:0:0:0:
256,192,44011,1,0,0:0:0:0:
256,192,44086,1,8,0:0:0:0:
256,192,44236,1,0,0:0:0:0:
256,192,44386,1,8,0:0:0:0:
256,192,44536,1,8,0:0:0:0:
256,192,44611,1,8,0:0:0:0:
256,192,44686,1,0,0:0:0:0:
256,192,44761,1,8,0:0:0:0:
256,192,44836,1,0,0:0:0:0:
256,192,44986,1,8,0:0:0:0:
256,192,45061,1,8,0:0:0:0:
256,192,45136,1,0,0:0:0:0:
256,192,45286,1,8,0:0:0:0:
256,192,45436,1,8,0:0:0:0:
256,192,45511,1,8,0:0:0:0:
256,192,45586,1,0,0:0:0:0:
256,192,45661,1,0,0:0:0:0:
256,192,45736,1,0,0:0:0:0:
256,192,45886,1,0,0:0:0:0:
256,192,46036,1,8,0:0:0:0:
256,192,46186,1,0,0:0:0:0:
256,192,46261,1,0,0:0:0:0:
256,192,46411,1,0,0:0:0:0:
256,192,46486,1,8,0:0:0:0:
256,192,46636,1,0,0:0:0:0:
256,192,46786,1,0,0:0:0:0:
256,192,46861,1,8,0:0:0:0:
256,192,46936,1,0,0:0:0:0:
256,192,47011,1,0,0:0:0:0:
256,192,47086,1,0,0:0:0:0:
256,192,47236,1,0,0:0:0:0:
256,192,47386,1,8,0:0:0:0:
256,192,47461,1,8,0:0:0:0:
256,192,47536,1,0,0:0:0:0:
256,192,47611,1,8,0:0:0:0:
256,192,47686,1,0,0:0:0:0:
256,192,47836,1,6,0:0:0:0:
256,192,48136,1,0,0:0:0:0:
256,192,48586,1,0,0:0:0:0:
256,192,49036,1,0,0:0:0:0:
256,192,49186,1,0,0:0:0:0:
256,192,49261,1,0,0:0:0:0:
256,192,49336,1,0,0:0:0:0:
256,192,49486,1,8,0:0:0:0:
256,192,49636,1,0,0:0:0:0:
256,192,49786,1,8,0:0:0:0:
256,192,49936,1,0,0:0:0:0:
256,192,50386,1,0,0:0:0:0:
256,192,50836,1,0,0:0:0:0:
256,192,51136,1,0,0:0:0:0:
256,192,51211,1,0,0:0:0:0:
256,192,51286,1,0,0:0:0:0:
256,192,51436,1,8,0:0:0:0:
256,192,51586,1,8,0:0:0:0:
256,192,51736,1,0,0:0:0:0:
256,192,51886,1,8,0:0:0:0:
256,192,52036,1,8,0:0:0:0:
256,192,52186,1,0,0:0:0:0:
256,192,52336,1,8,0:0:0:0:
256,192,52486,1,8,0:0:0:0:
256,192,52636,1,0,0:0:0:0:
256,192,52936,1,0,0:0:0:0:
256,192,53011,1,0,0:0:0:0:
256,192,53086,1,0,0:0:0:0:
256,192,53236,1,8,0:0:0:0:
256,192,53386,1,0,0:0:0:0:
256,192,53536,1,0,0:0:0:0:
256,192,53986,1,0,0:0:0:0:
256,192,54436,1,0,0:0:0:0:
256,192,54886,1,0,0:0:0:0:
256,192,55336,1,0,0:0:0:0:
256,192,55411,1,0,0:0:0:0:
256,192,55486,1,0,0:0:0:0:
256,192,55636,1,8,0:0:0:0:
256,192,55786,1,8,0:0:0:0:
256,192,55936,1,0,0:0:0:0:
256,192,56086,1,0,0:0:0:0:
256,192,56236,1,8,0:0:0:0:
256,192,56386,1,0,0:0:0:0:
256,192,56461,1,0,0:0:0:0:
256,192,56536,1,0,0:0:0:0:
256,192,56686,1,0,0:0:0:0:
256,192,56836,1,8,0:0:0:0:
256,192,56986,1,8,0:0:0:0:
256,192,57136,1,0,0:0:0:0:
256,192,57586,1,0,0:0:0:0:
256,192,58036,1,0,0:0:0:0:
256,192,58336,1,0,0:0:0:0:
256,192,58486,1,8,0:0:0:0:
256,192,58561,1,8,0:0:0:0:
256,192,58636,1,8,0:0:0:0:
256,192,58786,1,8,0:0:0:0:
256,192,58936,1,0,0:0:0:0:
256,192,59086,1,8,0:0:0:0:
256,192,59236,1,8,0:0:0:0:
256,192,59386,1,0,0:0:0:0:
256,192,59536,1,8,0:0:0:0:
256,192,59686,1,8,0:0:0:0:
256,192,59836,1,0,0:0:0:0:
256,192,59986,1,0,0:0:0:0:
256,192,60061,1,0,0:0:0:0:
256,192,60136,1,0,0:0:0:0:
256,192,60286,1,0,0:0:0:0:
256,192,60436,1,8,0:0:0:0:
256,192,60586,1,8,0:0:0:0:
256,192,60736,1,0,0:0:0:0:
256,192,61036,1,0,0:0:0:0:
256,192,61186,1,8,0:0:0:0:
256,192,61486,1,8,0:0:0:0:
256,192,61636,1,0,0:0:0:0:
256,192,61786,1,8,0:0:0:0:
256,192,61936,1,8,0:0:0:0:
256,192,62086,1,0,0:0:0:0:
256,192,62236,1,8,0:0:0:0:
256,192,62386,1,8,0:0:0:0:
256,192,62536,1,0,0:0:0:0:
256,192,62686,1,0,0:0:0:0:
256,192,62836,1,8,0:0:0:0:
256,192,62986,1,8,0:0:0:0:
256,192,63136,1,4,0:0:0:0:
256,192,63286,1,0,0:0:0:0:
256,192,63361,1,0,0:0:0:0:
256,192,63436,1,8,0:0:0:0:
256,192,63511,1,0,0:0:0:0:
256,192,63586,1,8,0:0:0:0:
256,192,63736,1,8,0:0:0:0:
256,192,63811,1,8,0:0:0:0:
256,192,63961,1,0,0:0:0:0:
256,192,64036,1,8,0:0:0:0:
256,192,64186,1,8,0:0:0:0:
256,192,64261,1,8,0:0:0:0:
256,192,64336,1,0,0:0:0:0:
256,192,64486,1,0,0:0:0:0:
256,192,64561,1,0,0:0:0:0:
256,192,64636,1,0,0:0:0:0:
256,192,64786,1,8,0:0:0:0:
256,192,64936,1,8,0:0:0:0:
256,192,65011,1,8,0:0:0:0:
256,192,65086,1,0,0:0:0:0:
256,192,65236,1,8,0:0:0:0:
256,192,65386,1,0,0:0:0:0:
256,192,65461,1,0,0:0:0:0:
256,192,65536,1,0,0:0:0:0:
256,192,65686,1,0,0:0:0:0:
256,192,65761,1,0,0:0:0:0:
256,192,65836,1,8,0:0:0:0:
256,192,65911,1,0,0:0:0:0:
256,192,65986,1,8,0:0:0:0:
256,192,66136,1,0,0:0:0:0:
256,192,66211,1,0,0:0:0:0:
256,192,66361,1,0,0:0:0:0:
256,192,66436,1,8,0:0:0:0:
256,192,66586,1,8,0:0:0:0:
256,192,66736,1,4,0:0:0:0:
256,192,66961,1,4,0:0:0:0:
256,192,67186,1,4,0:0:0:0:
256,192,67336,1,4,0:0:0:0:
256,192,67486,1,0,0:0:0:0:
256,192,67561,1,0,0:0:0:0:
256,192,67636,1,0,0:0:0:0:
256,192,67711,1,0,0:0:0:0:
256,192,67786,1,0,0:0:0:0:
256,192,67936,1,8,0:0:0:0:
256,192,68011,1,0,0:0:0:0:
256,192,68086,1,8,0:0:0:0:
256,192,68161,1,0,0:0:0:0:
256,192,68236,1,0,0:0:0:0:
256,192,68386,1,0,0:0:0:0:
256,192,68536,1,8,0:0:0:0:
256,192,68611,1,0,0:0:0:0:
256,192,68686,1,8,0:0:0:0:
256,192,68761,1,0,0:0:0:0:
256,192,68836,1,0,0:0:0:0:
256,192,68986,1,0,0:0:0:0:
256,192,69136,1,8,0:0:0:0:
256,192,69211,1,0,0:0:0:0:
256,192,69286,1,8,0:0:0:0:
256,192,69361,1,0,0:0:0:0:
256,192,69436,1,8,0:0:0:0:
256,192,69586,1,8,0:0:0:0:
256,192,69661,1,8,0:0:0:0:
256,192,69736,1,0,0:0:0:0:
256,192,69886,1,0,0:0:0:0:
256,192,69961,1,8,0:0:0:0:
256,192,70036,1,8,0:0:0:0:
256,192,70111,1,0,0:0:0:0:
256,192,70186,1,8,0:0:0:0:
256,192,70336,1,0,0:0:0:0:
256,192,70411,1,0,0:0:0:0:
256,192,70561,1,0,0:0:0:0:
256,192,70636,1,0,0:0:0:0:
256,192,70786,1,8,0:0:0:0:
256,192,70861,1,0,0:0:0:0:
256,192,70936,1,0,0:0:0:0:
256,192,71011,1,0,0:0:0:0:
256,192,71086,1,8,0:0:0:0:
256,192,71161,1,0,0:0:0:0:
256,192,71236,1,8,0:0:0:0:
256,192,71386,1,8,0:0:0:0:
256,192,71461,1,8,0:0:0:0:
256,192,71536,1,0,0:0:0:0:
256,192,71686,1,8,0:0:0:0:
256,192,71736,1,8,0:0:0:0:
256,192,71786,1,8,0:0:0:0:
256,192,71836,1,0,0:0:0:0:
256,192,71986,1,8,0:0:0:0:
256,192,72036,1,8,0:0:0:0:
256,192,72086,1,8,0:0:0:0:
256,192,72136,1,0,0:0:0:0:
256,192,72436,1,0,0:0:0:0:
256,192,72586,1,0,0:0:0:0:
256,192,72736,1,4,0:0:0:0:
256,192,72886,1,0,0:0:0:0:
256,192,72961,1,0,0:0:0:0:
256,192,73036,1,8,0:0:0:0:
256,192,73111,1,0,0:0:0:0:
256,192,73186,1,8,0:0:0:0:
256,192,73336,1,0,0:0:0:0:
256,192,73411,1,8,0:0:0:0:
256,192,73561,1,8,0:0:0:0:
256,192,73636,1,0,0:0:0:0:
256,192,73786,1,8,0:0:0:0:
256,192,73861,1,8,0:0:0:0:
256,192,73936,1,0,0:0:0:0:
256,192,74086,1,0,0:0:0:0:
256,192,74161,1,8,0:0:0:0:
256,192,74236,1,0,0:0:0:0:
256,192,74386,1,8,0:0:0:0:
256,192,74536,1,0,0:0:0:0:
256,192,74611,1,8,0:0:0:0:
256,192,74686,1,8,0:0:0:0:
256,192,74836,1,0,0:0:0:0:
256,192,74986,1,0,0:0:0:0:
256,192,75061,1,0,0:0:0:0:
256,192,75136,1,0,0:0:0:0:
256,192,75286,1,8,0:0:0:0:
256,192,75361,1,8,0:0:0:0:
256,192,75436,1,0,0:0:0:0:
256,192,75511,1,8,0:0:0:0:
256,192,75586,1,0,0:0:0:0:
256,192,75736,1,8,0:0:0:0:
256,192,75811,1,8,0:0:0:0:
256,192,75961,1,0,0:0:0:0:
256,192,76036,1,8,0:0:0:0:
256,192,76186,1,8,0:0:0:0:
256,192,76336,1,12,0:0:0:0:
256,192,76561,1,12,0:0:0:0:
256,192,76786,1,12,0:0:0:0:
256,192,76936,1,12,0:0:0:0:
256,192,77086,1,0,0:0:0:0:
256,192,77136,1,0,0:0:0:0:
256,192,77186,1,0,0:0:0:0:
256,192,77236,1,0,0:0:0:0:
256,192,77386,1,8,0:0:0:0:
256,192,77536,1,0,0:0:0:0:
256,192,77611,1,0,0:0:0:0:
256,192,77686,1,8,0:0:0:0:
256,192,77761,1,0,0:0:0:0:
256,192,77836,1,8,0:0:0:0:
256,192,77986,1,8,0:0:0:0:
256,192,78136,1,0,0:0:0:0:
256,192,78211,1,0,0:0:0:0:
256,192,78286,1,8,0:0:0:0:
256,192,78361,1,0,0:0:0:0:
256,192,78436,1,8,0:0:0:0:
256,192,78586,1,8,0:0:0:0:
256,192,78736,1,8,0:0:0:0:
256,192,78811,1,8,0:0:0:0:
256,192,78886,1,0,0:0:0:0:
256,192,78961,1,0,0:0:0:0:
256,192,79036,1,8,0:0:0:0:
256,192,79186,1,8,0:0:0:0:
256,192,79261,1,0,0:0:0:0:
256,192,79336,1,0,0:0:0:0:
256,192,79486,1,0,0:0:0:0:
256,192,79561,1,8,0:0:0:0:
256,192,79636,1,8,0:0:0:0:
256,192,79711,1,0,0:0:0:0:
256,192,79786,1,8,0:0:0:0:
256,192,79936,1,0,0:0:0:0:
256,192,80011,1,0,0:0:0:0:
256,192,80161,1,0,0:0:0:0:
256,192,80236,1,0,0:0:0:0:
256,192,80386,1,8,0:0:0:0:
256,192,80461,1,8,0:0:0:0:
256,192,80536,1,0,0:0:0:0:
256,192,80611,1,8,0:0:0:0:
256,192,80686,1,0,0:0:0:0:
256,192,80761,1,0,0:0:0:0:
256,192,80836,1,8,0:0:0:0:
256,192,80986,1,0,0:0:0:0:
256,192,81061,1,0,0:0:0:0:
256,192,81136,1,8,0:0:0:0:
256,192,81286,1,0,0:0:0:0:
256,192,81336,1,0,0:0:0:0:
256,192,81386,1,0,0:0:0:0:
256,192,81436,1,8,0:0:0:0:
256,192,81586,1,0,0:0:0:0:
256,192,81636,1,0,0:0:0:0:
256,192,81686,1,0,0:0:0:0:
256,192,81736,1,8,0:0:0:0:
256,192,82036,1,8,0:0:0:0:
256,192,82186,1,8,0:0:0:0:
256,192,82336,1,4,0:0:0:0:
256,192,82486,1,0,0:0:0:0:
256,192,82636,1,8,0:0:0:0:
256,192,82786,1,8,0:0:0:0:
256,192,82861,1,0,0:0:0:0:
256,192,82936,1,0,0:0:0:0:
256,192,83086,1,8,0:0:0:0:
256,192,83161,1,8,0:0:0:0:
256,192,83236,1,0,0:0:0:0:
256,192,83386,1,8,0:0:0:0:
256,192,83536,1,0,0:0:0:0:
256,192,83686,1,0,0:0:0:0:
256,192,83761,1,0,0:0:0:0:
256,192,83836,1,8,0:0:0:0:
256,192,83986,1,8,0:0:0:0:
256,192,84136,1,0,0:0:0:0:
256,192,84211,1,8,0:0:0:0:
256,192,84286,1,0,0:0:0:0:
256,192,84436,1,0,0:0:0:0:
256,192,84586,1,8,0:0:0:0:
256,192,84736,1,0,0:0:0:0:
256,192,84811,1,8,0:0:0:0:
256,192,84886,1,0,0:0:0:0:
256,192,85036,1,8,0:0:0:0:
256,192,85111,1,0,0:0:0:0:
256,192,85186,1,8,0:0:0:0:
256,192,85336,1,0,0:0:0:0:
256,192,85411,1,8,0:0:0:0:
256,192,85486,1,8,0:0:0:0:
256,192,85561,1,8,0:0:0:0:
256,192,85636,1,0,0:0:0:0:
256,192,85786,1,8,0:0:0:0:
256,192,85936,1,4,0:0:0:0:
256,192,86136,1,4,0:0:0:0:
256,192,86336,1,12,0:0:0:0:
256,192,86536,1,0,0:0:0:0:
256,192,86636,1,0,0:0:0:0:
256,192,86736,1,8,0:0:0:0:
256,192,86836,1,8,0:0:0:0:
256,192,86936,1,0,0:0:0:0:
256,192,87036,1,0,0:0:0:0:
256,192,87136,1,0,0:0:0:0:
256,192,87286,1,0,0:0:0:0:
256,192,87361,1,0,0:0:0:0:
256,192,87436,1,8,0:0:0:0:
256,192,87586,1,8,0:0:0:0:
256,192,87661,1,8,0:0:0:0:
256,192,87736,1,0,0:0:0:0:
256,192,87886,1,0,0:0:0:0:
256,192,87961,1,8,0:0:0:0:
256,192,88036,1,0,0:0:0:0:
256,192,88186,1,8,0:0:0:0:
256,192,88336,1,0,0:0:0:0:
256,192,88411,1,0,0:0:0:0:
256,192,88486,1,8,0:0:0:0:
256,192,88636,1,0,0:0:0:0:
256,192,88786,1,0,0:0:0:0:
256,192,88861,1,0,0:0:0:0:
256,192,88936,1,0,0:0:0:0:
256,192,89086,1,8,0:0:0:0:
256,192,89236,1,0,0:0:0:0:
256,192,89311,1,0,0:0:0:0:
256,192,89386,1,8,0:0:0:0:
256,192,89536,1,0,0:0:0:0:
256,192,89611,1,8,0:0:0:0:
256,192,89761,1,0,0:0:0:0:
256,192,89836,1,0,0:0:0:0:
256,192,89986,1,8,0:0:0:0:
256,192,90136,1,0,0:0:0:0:
256,192,90211,1,8,0:0:0:0:
256,192,90286,1,8,0:0:0:0:
256,192,90361,1,8,0:0:0:0:
256,192,90436,1,0,0:0:0:0:
256,192,90586,1,8,0:0:0:0:
256,192,90736,1,0,0:0:0:0:
256,192,90811,1,8,0:0:0:0:
256,192,90886,1,8,0:0:0:0:
256,192,90961,1,0,0:0:0:0:
256,192,91036,1,0,0:0:0:0:
256,192,91111,1,0,0:0:0:0:
256,192,91186,1,8,0:0:0:0:
256,192,91261,1,8,0:0:0:0:
256,192,91336,1,0,0:0:0:0:
256,192,91636,1,0,0:0:0:0:
256,192,91711,1,0,0:0:0:0:
256,192,91786,1,0,0:0:0:0:
256,192,91861,1,0,0:0:0:0:
256,192,91936,1,0,0:0:0:0:
256,192,92236,1,8,0:0:0:0:
256,192,92686,1,0,0:0:0:0:
256,192,92836,1,8,0:0:0:0:
256,192,92986,1,0,0:0:0:0:
256,192,93136,1,0,0:0:0:0:
256,192,93436,1,8,0:0:0:0:
256,192,93886,1,0,0:0:0:0:
256,192,94036,1,8,0:0:0:0:
256,192,94186,1,0,0:0:0:0:
256,192,94336,1,0,0:0:0:0:
256,192,94636,1,8,0:0:0:0:
256,192,95086,1,0,0:0:0:0:
256,192,95236,1,8,0:0:0:0:
256,192,95386,1,0,0:0:0:0:
256,192,95536,1,0,0:0:0:0:
256,192,95836,1,8,0:0:0:0:
256,192,96136,1,0,0:0:0:0:
256,192,96436,1,8,0:0:0:0:
256,192,96586,1,8,0:0:0:0:
256,192,96736,1,0,0:0:0:0:
256,192,97036,1,8,0:0:0:0:
256,192,97486,1,0,0:0:0:0:
256,192,97636,1,8,0:0:0:0:
256,192,97786,1,0,0:0:0:0:
256,192,97936,1,0,0:0:0:0:
256,192,98236,1,8,0:0:0:0:
256,192,98686,1,0,0:0:0:0:
256,192,98836,1,8,0:0:0:0:
256,192,98986,1,0,0:0:0:0:
256,192,99136,1,0,0:0:0:0:
256,192,99436,1,8,0:0:0:0:
235,194,99886,1,0,0:0:0:0:
256,192,100036,1,8,0:0:0:0:
256,192,100186,1,0,0:0:0:0:
256,192,100261,1,0,0:0:0:0:
256,192,100336,1,0,0:0:0:0:
256,192,100486,1,8,0:0:0:0:
256,192,100561,1,8,0:0:0:0:
256,192,100636,1,0,0:0:0:0:
256,192,100786,1,8,0:0:0:0:
256,192,100936,1,0,0:0:0:0:
256,192,101011,1,8,0:0:0:0:
256,192,101086,1,8,0:0:0:0:
256,192,101161,1,8,0:0:0:0:
256,192,101236,1,0,0:0:0:0:
256,192,101386,1,8,0:0:0:0:
256,192,101536,1,4,0:0:0:0:
256,192,102136,1,8,0:0:0:0:
256,192,103336,1,8,0:0:0:0:
256,192,104536,1,8,0:0:0:0:
256,192,105286,1,8,0:0:0:0:
256,192,105736,1,8,0:0:0:0:
256,192,106036,1,0,0:0:0:0:
256,192,106186,1,0,0:0:0:0:
256,192,106336,1,0,0:0:0:0:
256,192,106786,1,0,0:0:0:0:
256,192,106861,1,0,0:0:0:0:
256,192,106936,1,0,0:0:0:0:
256,192,107536,1,0,0:0:0:0:
256,192,107986,1,0,0:0:0:0:
256,192,108061,1,0,0:0:0:0:
256,192,108136,1,0,0:0:0:0:
256,192,108736,12,0,110536,0:0:0:0:
256,192,111136,5,0,0:0:0:0:
256,192,112336,1,0,0:0:0:0:
256,192,113536,1,0,0:0:0:0:
256,192,114136,1,0,0:0:0:0:
256,192,114736,1,0,0:0:0:0:
256,192,114961,1,0,0:0:0:0:
256,192,115186,1,0,0:0:0:0:
256,192,115336,1,0,0:0:0:0:
256,192,115636,1,0,0:0:0:0:
256,192,115786,1,0,0:0:0:0:
256,192,115936,1,0,0:0:0:0:
256,192,116236,1,8,0:0:0:0:
256,192,116386,1,8,0:0:0:0:
256,192,116536,1,8,0:0:0:0:
256,192,116836,1,0,0:0:0:0:
256,192,116986,1,0,0:0:0:0:
256,192,117136,1,0,0:0:0:0:
256,192,117436,1,8,0:0:0:0:
256,192,117586,1,8,0:0:0:0:
256,192,117736,1,8,0:0:0:0:
256,192,118036,1,0,0:0:0:0:
256,192,118186,1,0,0:0:0:0:
256,192,118336,1,0,0:0:0:0:
256,192,118636,1,0,0:0:0:0:
256,192,118786,1,8,0:0:0:0:
256,192,118861,1,0,0:0:0:0:
256,192,118936,1,0,0:0:0:0:
256,192,119086,1,8,0:0:0:0:
256,192,119161,1,0,0:0:0:0:
256,192,119236,1,0,0:0:0:0:
256,192,119386,1,8,0:0:0:0:
256,192,119536,1,0,0:0:0:0:
256,192,119611,1,8,0:0:0:0:
256,192,119686,1,8,0:0:0:0:
256,192,119761,1,8,0:0:0:0:
256,192,119836,1,0,0:0:0:0:
256,192,119911,1,0,0:0:0:0:
256,192,119986,1,8,0:0:0:0:
256,192,120061,1,8,0:0:0:0:
256,192,120136,1,0,0:0:0:0:
256,192,120211,1,0,0:0:0:0:
256,192,120286,1,0,0:0:0:0:
256,192,120361,1,0,0:0:0:0:
256,192,120436,1,8,0:0:0:0:
256,192,120511,1,8,0:0:0:0:
256,192,120586,1,8,0:0:0:0:
256,192,120661,1,8,0:0:0:0:
256,192,120736,1,0,0:0:0:0:
256,192,120886,1,0,0:0:0:0:
256,192,120961,1,0,0:0:0:0:
256,192,121036,1,8,0:0:0:0:
256,192,121186,1,8,0:0:0:0:
256,192,121261,1,8,0:0:0:0:
256,192,121336,1,0,0:0:0:0:
256,192,121486,1,0,0:0:0:0:
256,192,121561,1,8,0:0:0:0:
256,192,121636,1,0,0:0:0:0:
256,192,121786,1,8,0:0:0:0:
256,192,121936,1,0,0:0:0:0:
256,192,122011,1,0,0:0:0:0:
256,192,122086,1,0,0:0:0:0:
256,192,122236,1,8,0:0:0:0:
256,192,122386,1,8,0:0:0:0:
256,192,122461,1,8,0:0:0:0:
256,192,122536,1,0,0:0:0:0:
256,192,122611,1,8,0:0:0:0:
256,192,122761,1,8,0:0:0:0:
256,192,122836,1,0,0:0:0:0:
256,192,122986,1,0,0:0:0:0:
256,192,123061,1,0,0:0:0:0:
256,192,123136,1,0,0:0:0:0:
256,192,123286,1,0,0:0:0:0:
256,192,123361,1,0,0:0:0:0:
256,192,123436,1,8,0:0:0:0:
256,192,123511,1,0,0:0:0:0:
256,192,123586,1,8,0:0:0:0:
256,192,123736,1,0,0:0:0:0:
256,192,123811,1,8,0:0:0:0:
256,192,123886,1,0,0:0:0:0:
256,192,124036,1,0,0:0:0:0:
256,192,124186,1,8,0:0:0:0:
256,192,124336,1,4,0:0:0:0:
256,192,124561,1,4,0:0:0:0:
256,192,124786,1,4,0:0:0:0:
256,192,124936,1,4,0:0:0:0:
256,192,125086,1,0,0:0:0:0:
256,192,125136,1,0,0:0:0:0:
256,192,125186,1,0,0:0:0:0:
256,192,125236,1,0,0:0:0:0:
256,192,125386,1,0,0:0:0:0:
256,192,125536,1,8,0:0:0:0:
256,192,125611,1,8,0:0:0:0:
256,192,125686,1,0,0:0:0:0:
256,192,125761,1,8,0:0:0:0:
256,192,125836,1,0,0:0:0:0:
256,192,125986,1,0,0:0:0:0:
256,192,126136,1,0,0:0:0:0:
256,192,126211,1,8,0:0:0:0:
256,192,126286,1,0,0:0:0:0:
256,192,126361,1,0,0:0:0:0:
256,192,126436,1,8,0:0:0:0:
256,192,126586,1,8,0:0:0:0:
256,192,126736,1,8,0:0:0:0:
256,192,126811,1,8,0:0:0:0:
256,192,126886,1,0,0:0:0:0:
256,192,126961,1,8,0:0:0:0:
256,192,127036,1,0,0:0:0:0:
256,192,127186,1,0,0:0:0:0:
256,192,127261,1,8,0:0:0:0:
256,192,127336,1,0,0:0:0:0:
256,192,127486,1,0,0:0:0:0:
256,192,127561,1,0,0:0:0:0:
256,192,127636,1,8,0:0:0:0:
256,192,127711,1,0,0:0:0:0:
256,192,127786,1,8,0:0:0:0:
256,192,127936,1,0,0:0:0:0:
256,192,128011,1,0,0:0:0:0:
256,192,128161,1,0,0:0:0:0:
256,192,128236,1,8,0:0:0:0:
256,192,128311,1,0,0:0:0:0:
256,192,128386,1,8,0:0:0:0:
256,192,128536,1,0,0:0:0:0:
256,192,128686,1,0,0:0:0:0:
256,192,128761,1,8,0:0:0:0:
256,192,128836,1,0,0:0:0:0:
256,192,128986,1,8,0:0:0:0:
256,192,129061,1,8,0:0:0:0:
256,192,129136,1,0,0:0:0:0:
256,192,129286,1,8,0:0:0:0:
256,192,129336,1,8,0:0:0:0:
256,192,129386,1,8,0:0:0:0:
256,192,129436,1,0,0:0:0:0:
256,192,129586,1,8,0:0:0:0:
256,192,129636,1,8,0:0:0:0:
256,192,129686,1,8,0:0:0:0:
256,192,129736,1,0,0:0:0:0:
256,192,130036,1,8,0:0:0:0:
256,192,130111,1,8,0:0:0:0:
256,192,130186,1,8,0:0:0:0:
256,192,130261,1,8,0:0:0:0:
256,192,130336,1,0,0:0:0:0:
256,192,130486,1,8,0:0:0:0:
256,192,130561,1,8,0:0:0:0:
256,192,130636,1,0,0:0:0:0:
256,192,130786,1,0,0:0:0:0:
256,192,130861,1,8,0:0:0:0:
256,192,130936,1,0,0:0:0:0:
256,192,131086,1,8,0:0:0:0:
256,192,131161,1,8,0:0:0:0:
256,192,131236,1,0,0:0:0:0:
256,192,131386,1,8,0:0:0:0:
256,192,131536,1,0,0:0:0:0:
256,192,131611,1,0,0:0:0:0:
256,192,131686,1,8,0:0:0:0:
256,192,131836,1,8,0:0:0:0:
256,192,131986,1,0,0:0:0:0:
256,192,132061,1,0,0:0:0:0:
256,192,132136,1,0,0:0:0:0:
256,192,132211,1,8,0:0:0:0:
256,192,132361,1,0,0:0:0:0:
256,192,132436,1,8,0:0:0:0:
256,192,132586,1,8,0:0:0:0:
256,192,132661,1,8,0:0:0:0:
256,192,132736,1,0,0:0:0:0:
256,192,132886,1,8,0:0:0:0:
256,192,132961,1,8,0:0:0:0:
256,192,133036,1,0,0:0:0:0:
256,192,133111,1,8,0:0:0:0:
256,192,133186,1,0,0:0:0:0:
256,192,133336,1,0,0:0:0:0:
256,192,133411,1,8,0:0:0:0:
256,192,133486,1,8,0:0:0:0:
256,192,133636,1,0,0:0:0:0:
256,192,133786,1,0,0:0:0:0:
256,192,133936,1,12,0:0:0:0:
256,192,134161,1,12,0:0:0:0:
256,192,134386,1,12,0:0:0:0:
256,192,134536,1,4,0:0:0:0:
256,192,134686,1,8,0:0:0:0:
256,192,134736,1,8,0:0:0:0:
256,192,134786,1,8,0:0:0:0:
256,192,134836,1,8,0:0:0:0:
256,192,134986,1,0,0:0:0:0:
256,192,135136,1,0,0:0:0:0:
256,192,135211,1,0,0:0:0:0:
256,192,135286,1,8,0:0:0:0:
256,192,135361,1,0,0:0:0:0:
256,192,135436,1,8,0:0:0:0:
256,192,135586,1,8,0:0:0:0:
256,192,135736,1,8,0:0:0:0:
256,192,135811,1,0,0:0:0:0:
256,192,135886,1,0,0:0:0:0:
256,192,135961,1,8,0:0:0:0:
256,192,136036,1,0,0:0:0:0:
256,192,136186,1,0,0:0:0:0:
256,192,136336,1,8,0:0:0:0:
256,192,136411,1,0,0:0:0:0:
256,192,136486,1,0,0:0:0:0:
256,192,136561,1,8,0:0:0:0:
256,192,136636,1,8,0:0:0:0:
256,192,136786,1,8,0:0:0:0:
256,192,136861,1,8,0:0:0:0:
256,192,136936,1,0,0:0:0:0:
256,192,137086,1,0,0:0:0:0:
256,192,137161,1,0,0:0:0:0:
256,192,137236,1,8,0:0:0:0:
256,192,137311,1,0,0:0:0:0:
256,192,137386,1,0,0:0:0:0:
256,192,137536,1,0,0:0:0:0:
256,192,137611,1,8,0:0:0:0:
256,192,137761,1,0,0:0:0:0:
256,192,137836,1,8,0:0:0:0:
256,192,137911,1,0,0:0:0:0:
256,192,137986,1,0,0:0:0:0:
256,192,138136,1,8,0:0:0:0:
256,192,138286,1,8,0:0:0:0:
256,192,138361,1,0,0:0:0:0:
256,192,138436,1,0,0:0:0:0:
256,192,138586,1,0,0:0:0:0:
256,192,138661,1,0,0:0:0:0:
256,192,138736,1,8,0:0:0:0:
256,192,138886,1,0,0:0:0:0:
256,192,138936,1,0,0:0:0:0:
256,192,138986,1,0,0:0:0:0:
256,192,139036,1,8,0:0:0:0:
256,192,139186,1,0,0:0:0:0:
256,192,139236,1,0,0:0:0:0:
256,192,139286,1,0,0:0:0:0:
256,192,139336,1,8,0:0:0:0:
256,192,139636,1,8,0:0:0:0:
256,192,139936,1,4,0:0:0:0:
256,192,140086,1,0,0:0:0:0:
256,192,140236,1,8,0:0:0:0:
256,192,140386,1,8,0:0:0:0:
256,192,140461,1,0,0:0:0:0:
256,192,140536,1,0,0:0:0:0:
256,192,140686,1,8,0:0:0:0:
256,192,140761,1,8,0:0:0:0:
256,192,140836,1,0,0:0:0:0:
256,192,140986,1,8,0:0:0:0:
256,192,141136,1,0,0:0:0:0:
256,192,141286,1,0,0:0:0:0:
256,192,141361,1,0,0:0:0:0:
256,192,141436,1,8,0:0:0:0:
256,192,141586,1,8,0:0:0:0:
256,192,141736,1,0,0:0:0:0:
256,192,141886,1,0,0:0:0:0:
256,192,141961,1,8,0:0:0:0:
256,192,142036,1,0,0:0:0:0:
256,192,142111,1,0,0:0:0:0:
256,192,142186,1,8,0:0:0:0:
256,192,142336,1,0,0:0:0:0:
256,192,142486,1,0,0:0:0:0:
256,192,142636,1,8,0:0:0:0:
256,192,142786,1,8,0:0:0:0:
256,192,142861,1,8,0:0:0:0:
256,192,142936,1,0,0:0:0:0:
256,192,143011,1,8,0:0:0:0:
256,192,143161,1,8,0:0:0:0:
256,192,143236,1,0,0:0:0:0:
256,192,143386,1,8,0:0:0:0:
256,192,143536,1,4,0:0:0:0:
256,192,143736,1,4,0:0:0:0:
256,192,143936,1,12,0:0:0:0:
256,192,144136,1,0,0:0:0:0:
256,192,144236,1,0,0:0:0:0:
256,192,144336,1,8,0:0:0:0:
256,192,144436,1,8,0:0:0:0:
256,192,144536,1,0,0:0:0:0:
256,192,144636,1,0,0:0:0:0:
256,192,144736,1,0,0:0:0:0:
256,192,144886,1,0,0:0:0:0:
256,192,144961,1,0,0:0:0:0:
256,192,145036,1,8,0:0:0:0:
256,192,145186,1,8,0:0:0:0:
256,192,145261,1,8,0:0:0:0:
256,192,145336,1,0,0:0:0:0:
256,192,145486,1,0,0:0:0:0:
256,192,145561,1,8,0:0:0:0:
256,192,145636,1,0,0:0:0:0:
256,192,145786,1,8,0:0:0:0:
256,192,145936,1,0,0:0:0:0:
256,192,146086,1,8,0:0:0:0:
256,192,146236,1,0,0:0:0:0:
256,192,146386,1,0,0:0:0:0:
256,192,146461,1,0,0:0:0:0:
256,192,146536,1,0,0:0:0:0:
256,192,146686,1,8,0:0:0:0:
256,192,146836,1,0,0:0:0:0:
256,192,146911,1,0,0:0:0:0:
256,192,146986,1,8,0:0:0:0:
256,192,147136,1,0,0:0:0:0:
256,192,147211,1,8,0:0:0:0:
256,192,147361,1,0,0:0:0:0:
256,192,147436,1,0,0:0:0:0:
256,192,147586,1,8,0:0:0:0:
256,192,147736,1,0,0:0:0:0:
256,192,147811,1,8,0:0:0:0:
256,192,147886,1,8,0:0:0:0:
256,192,147961,1,8,0:0:0:0:
256,192,148036,1,0,0:0:0:0:
256,192,148186,1,8,0:0:0:0:
256,192,148336,1,0,0:0:0:0:
256,192,148411,1,8,0:0:0:0:
256,192,148486,1,8,0:0:0:0:
256,192,148561,1,0,0:0:0:0:
256,192,148636,1,0,0:0:0:0:
256,192,148711,1,0,0:0:0:0:
256,192,148786,1,8,0:0:0:0:
256,192,148861,1,8,0:0:0:0:
256,192,148936,1,0,0:0:0:0:
256,192,149236,1,0,0:0:0:0:
256,192,149386,1,0,0:0:0:0:
256,192,149536,1,4,0:0:0:0:
256,192,149686,1,0,0:0:0:0:
256,192,149761,1,0,0:0:0:0:
256,192,149836,1,8,0:0:0:0:
256,192,149986,1,8,0:0:0:0:
256,192,150061,1,0,0:0:0:0:
256,192,150136,1,0,0:0:0:0:
256,192,150211,1,8,0:0:0:0:
256,192,150361,1,8,0:0:0:0:
256,192,150436,1,0,0:0:0:0:
256,192,150586,1,8,0:0:0:0:
256,192,150736,1,0,0:0:0:0:
256,192,150886,1,0,0:0:0:0:
256,192,150961,1,0,0:0:0:0:
256,192,151036,1,8,0:0:0:0:
256,192,151186,1,0,0:0:0:0:
256,192,151336,1,0,0:0:0:0:
256,192,151411,1,8,0:0:0:0:
256,192,151486,1,8,0:0:0:0:
256,192,151636,1,0,0:0:0:0:
256,192,151786,1,8,0:0:0:0:
256,192,151936,1,0,0:0:0:0:
256,192,152086,1,0,0:0:0:0:
256,192,152161,1,0,0:0:0:0:
256,192,152236,1,8,0:0:0:0:
256,192,152311,1,0,0:0:0:0:
256,192,152386,1,8,0:0:0:0:
256,192,152536,1,0,0:0:0:0:
256,192,152611,1,8,0:0:0:0:
256,192,152686,1,8,0:0:0:0:
256,192,152761,1,8,0:0:0:0:
256,192,152836,1,0,0:0:0:0:
256,192,152986,1,8,0:0:0:0:
256,192,153136,1,4,0:0:0:0:
256,192,153336,1,4,0:0:0:0:
256,192,153536,1,12,0:0:0:0:
256,192,153736,1,0,0:0:0:0:
256,192,153836,1,0,0:0:0:0:
256,192,153936,1,8,0:0:0:0:
256,192,154036,1,8,0:0:0:0:
256,192,154136,1,0,0:0:0:0:
256,192,154236,1,0,0:0:0:0:
256,192,154336,1,0,0:0:0:0:
256,192,154486,1,0,0:0:0:0:
256,192,154561,1,0,0:0:0:0:
256,192,154636,1,8,0:0:0:0:
256,192,154786,1,8,0:0:0:0:
256,192,154861,1,8,0:0:0:0:
256,192,154936,1,0,0:0:0:0:
256,192,155011,1,0,0:0:0:0:
256,192,155086,1,8,0:0:0:0:
256,192,155161,1,8,0:0:0:0:
256,192,155236,1,0,0:0:0:0:
256,192,155386,1,8,0:0:0:0:
256,192,155536,1,0,0:0:0:0:
256,192,155611,1,0,0:0:0:0:
256,192,155686,1,8,0:0:0:0:
256,192,155836,1,0,0:0:0:0:
256,192,155911,1,0,0:0:0:0:
256,192,155986,1,8,0:0:0:0:
256,192,156061,1,8,0:0:0:0:
256,192,156136,1,8,0:0:0:0:
256,192,156211,1,0,0:0:0:0:
256,192,156286,1,8,0:0:0:0:
256,192,156436,1,8,0:0:0:0:
256,192,156511,1,0,0:0:0:0:
256,192,156586,1,0,0:0:0:0:
256,192,156736,1,0,0:0:0:0:
256,192,156811,1,8,0:0:0:0:
256,192,156961,1,0,0:0:0:0:
256,192,157036,1,0,0:0:0:0:
256,192,157186,1,8,0:0:0:0:
256,192,157336,1,0,0:0:0:0:
256,192,157411,1,8,0:0:0:0:
256,192,157486,1,8,0:0:0:0:
256,192,157561,1,8,0:0:0:0:
256,192,157636,1,0,0:0:0:0:
256,192,157786,1,8,0:0:0:0:
256,192,157936,1,0,0:0:0:0:
256,192,158086,1,8,0:0:0:0:
256,192,158136,1,8,0:0:0:0:
256,192,158186,1,8,0:0:0:0:
256,192,158236,1,0,0:0:0:0:
256,192,158386,1,8,0:0:0:0:
256,192,158536,1,4,0:0:0:0:
