osu file format v12

[General]
AudioFilename: Kanata ni Mau ha Sakura no Senritsu.mp3
AudioLeadIn: 0
PreviewTime: 62759
Countdown: 0
SampleSet: Normal
StackLeniency: 0.5
Mode: 0
LetterboxInBreaks: 0
WidescreenStoryboard: 0

[Editor]
DistanceSpacing: 0.8
BeatDivisor: 4
GridSize: 8

[Metadata]
Title:Kanata ni Mau wa Sakura no Shirabe
TitleUnicode:彼方に舞うは桜の律べ
Artist:Rohi
ArtistUnicode:ろひ
Creator:NatsumeRin
Version:Normal
Source:
Tags:Vocaloid Kagamine Rin hs714 RLC nouk pieguy1372 Nyquill Amamiya Yuko
BeatmapID:360645
BeatmapSetID:93555

[Difficulty]
HPDrainRate:4
CircleSize:3
OverallDifficulty:5
ApproachRate:5
SliderMultiplier:1.28
SliderTickRate:1

[Events]
//Background and Video events
0,0,"BG.JPG",0,0
Video,0,"PV.flv"
//Break Periods
2,82459,90359
//Storyboard Layer 0 (Background)
//Storyboard Layer 1 (Fail)
//Storyboard Layer 2 (Pass)
//Storyboard Layer 3 (Foreground)
//Storyboard Sound Samples
//Background Colour Transformations
3,100,163,162,255

[TimingPoints]
14406,375,6,1,3,50,1,0
14593,333.333333333333,6,1,3,50,1,0
14909,285.714285714286,6,1,3,50,1,0
15051,300,6,1,3,50,1,0
15359,300,6,1,3,50,1,0
17909,-100,6,2,0,20,0,0
18059,-100,6,1,3,50,0,0
21659,-100,6,1,3,50,0,0
23309,-100,6,2,3,30,0,0
23459,-100,6,1,3,50,0,0
25109,-100,6,2,3,20,0,0
25259,-100,6,1,3,50,0,0
26909,-100,6,2,3,20,0,0
27059,-100,6,1,3,40,0,0
27359,-100,6,1,3,50,0,0
27959,-100,6,1,3,40,0,0
28259,-100,6,1,3,50,0,0
28859,300,4,2,3,70,1,0
31259,-100,4,1,3,40,0,0
32309,-100,4,2,3,20,0,0
32459,-100,4,1,3,40,0,0
33359,-100,4,3,0,40,0,0
33659,-100,4,2,3,70,0,0
36059,-100,4,1,3,40,0,0
37109,-100,4,2,3,20,0,0
37259,-100,4,1,3,40,0,0
38309,-100,4,2,3,20,0,0
38459,-100,4,2,3,70,0,0
40859,-100,4,1,3,40,0,0
41909,-100,4,1,3,20,0,0
42059,-100,4,1,3,40,0,0
42809,-100,4,3,0,40,0,0
43259,-100,4,2,3,70,0,0
45659,-100,4,1,3,40,0,0
46709,-100,4,1,3,20,0,0
46859,-111.111111111111,4,1,3,35,0,0
47309,-111.111111111111,4,1,3,25,0,0
47459,-111.111111111111,4,1,3,30,0,0
47759,-111.111111111111,4,1,3,25,0,0
48059,300,6,1,4,50,1,0
48059,-133.333333333333,6,1,4,50,0,0
61109,-133.333333333333,6,1,3,25,0,0
61259,-133.333333333333,6,1,4,50,0,0
62009,-133.333333333333,6,1,3,25,0,0
62459,-133.333333333333,6,1,3,40,0,0
62759,-100,6,1,3,50,0,0
63059,300,4,2,3,90,1,1
63059,-100,4,2,3,90,0,1
66659,-100,4,1,3,60,0,1
67259,-100,4,1,3,40,0,1
67559,-100,4,2,3,90,0,1
72359,-100,4,1,3,50,0,1
72659,-100,4,2,3,90,0,1
76259,-100,4,1,3,60,0,1
76859,-100,4,1,3,40,0,1
77159,-100,4,2,3,90,0,1
81959,-100,4,1,3,50,0,1
82259,-100,4,1,3,50,0,0
86034,-100,4,1,3,10,0,0
86059,-100,4,1,3,50,0,0
86234,-100,4,1,3,10,0,0
86259,-100,4,1,3,50,0,0
86434,-100,4,1,3,10,0,0
86459,-100,4,1,3,50,0,0
87284,-100,4,1,3,20,0,0
87359,-100,4,1,3,50,0,0
90659,-100,4,1,3,40,0,0
90884,-100,4,1,3,10,0,0
90959,-100,4,1,3,40,0,0
91184,-100,4,1,3,10,0,0
91259,-100,4,1,3,40,0,0
91484,-100,4,1,3,10,0,0
91559,-100,4,1,3,50,0,0
91859,-133.333333333333,4,2,3,50,0,0
95459,-133.333333333333,4,1,4,30,0,0
95609,-133.333333333333,4,1,4,10,0,0
95759,-133.333333333333,4,1,4,30,0,0
95909,-133.333333333333,4,1,4,10,0,0
96059,-133.333333333333,4,1,4,30,0,0
96209,-133.333333333333,4,1,4,10,0,0
96359,-133.333333333333,4,2,4,50,0,0
96509,-133.333333333333,4,1,4,10,0,0
96659,-133.333333333333,4,2,3,50,0,0
100259,-133.333333333333,4,1,4,50,0,0
100559,-133.333333333333,4,1,4,30,0,0
100859,-133.333333333333,4,1,4,50,0,0
101009,-133.333333333333,4,1,4,10,0,0
101159,-133.333333333333,4,1,4,30,0,0
101309,-133.333333333333,4,1,4,10,0,0
101459,-133.333333333333,4,1,3,30,0,0
102509,-133.333333333333,4,1,3,20,0,0
102659,-133.333333333333,4,1,3,30,0,0
103559,-133.333333333333,4,1,3,20,0,0
103859,-133.333333333333,4,1,3,30,0,0
104909,-133.333333333333,4,1,3,20,0,0
105059,-133.333333333333,4,1,3,30,0,0
105959,-133.333333333333,4,1,3,15,0,0
106259,-133.333333333333,4,1,4,20,0,0
106709,-133.333333333333,4,1,4,10,0,0
106859,-133.333333333333,4,2,3,30,0,0
107459,-133.333333333333,4,1,4,20,0,0
107909,-133.333333333333,4,1,4,10,0,0
108059,-133.333333333333,4,2,3,30,0,0
108659,-133.333333333333,4,1,4,20,0,0
109859,-133.333333333333,4,2,3,30,0,0
110759,-133.333333333333,4,2,3,50,0,0
120059,-133.333333333333,4,1,3,30,0,0
120359,-133.333333333333,4,1,3,50,0,0
120659,-100,4,2,3,90,0,1
124259,-100,4,1,3,60,0,1
124859,-100,4,1,3,40,0,1
125159,-100,4,2,3,90,0,1
129959,-100,4,1,3,50,0,1
130259,-100,4,2,3,90,0,1
133859,-100,4,1,3,60,0,1
134459,-100,4,1,3,40,0,1
134759,-100,4,2,3,90,0,1
139559,-100,4,1,3,50,0,1
139859,-100,4,1,3,50,0,0
143634,-100,4,1,3,10,0,0
143659,-100,4,1,3,50,0,0
143834,-100,4,1,3,10,0,0
143859,-100,4,1,3,50,0,0
144034,-100,4,1,3,10,0,0
144059,-100,4,1,3,50,0,0
144884,-100,4,1,3,20,0,0
144959,-100,4,1,3,50,0,0
153234,-100,4,1,3,10,0,0
153259,-100,4,1,3,50,0,0
153434,-100,4,1,3,10,0,0
153459,-100,4,1,3,50,0,0
153634,-100,4,1,3,10,0,0
153659,-100,4,1,3,50,0,0
154259,-100,4,1,3,50,0,0
154484,-100,4,1,3,20,0,0
154559,-100,4,1,3,50,0,0

[Colours]
Combo1 : 30,255,86
Combo2 : 255,255,45
Combo3 : 0,109,242
Combo4 : 255,21,138

[HitObjects]
64,144,14406,1,0,0:0:0:0:
40,240,14759,1,0,0:0:0:0:
136,216,15051,1,8,0:0:0:0:
160,120,15359,2,0,P|128:64|56:40,2,128,0|0|2,0:0|0:0|0:0,0:0:0:0:
232,192,16259,6,0,L|384:232,1,128
456,248,16859,1,8,0:0:0:0:
424,152,17159,2,0,P|416:80|448:32,2,128,0|0|2,0:0|0:0|0:0,0:0:0:0:
456,248,18059,5,0,0:0:0:0:
384,320,18359,1,0,0:0:0:0:
288,288,18659,1,8,0:0:0:0:
264,192,18959,2,0,P|216:160|128:160,2,128,0|0|2,0:0|0:0|0:0,0:0:0:0:
192,264,19859,6,0,P|136:312|72:312,1,128
56,216,20459,1,8,0:0:0:0:
88,120,20759,2,0,P|139:123|195:171,1,128
288,216,21359,2,0,L|368:216,1,64,2|2,0:0|0:0,0:0:0:0:
400,232,21659,6,0,P|424:288|400:352,2,128,2|2|2,0:0|0:0|0:0,0:0:0:0:
448,144,22559,2,0,P|424:80|368:48,1,128,2|2,0:0|0:0,0:0:0:0:
272,48,23159,1,2,0:0:0:0:
200,128,23459,6,0,P|152:168|72:168,2,128,2|2|2,0:0|0:0|0:0,0:0:0:0:
304,144,24359,2,0,P|320:216|280:280,1,128,2|2,0:0|0:0,0:0:0:0:
216,328,24959,1,2,0:0:0:0:
144,256,25259,6,0,L|0:248,2,128,2|2|2,0:0|0:0|0:0,0:0:0:0:
128,152,26159,2,0,L|37:148,2,64,2|0|2,0:0|0:0|0:0,0:0:0:0:
176,64,26759,1,2,0:0:0:0:
280,48,27059,6,0,L|288:136,2,64,2|0|2,0:0|0:0|0:0,0:0:0:0:
384,64,27659,1,2,0:0:0:0:
456,136,27959,2,0,P|472:192|448:256,1,128,2|0,0:0|0:0,0:0:0:0:
376,328,28559,1,2,0:0:0:0:
376,328,28859,6,0,P|280:336|192:272,2,192,2|2|2,0:0|0:0|0:0,0:0:0:0:
328,240,30059,2,0,P|320:176|336:104,1,128,2|0,0:0|0:0,0:0:0:0:
320,16,30659,2,0,P|256:16|200:48,1,128,2|0,0:0|0:0,0:0:0:0:
120,112,31259,6,0,B|112:168|112:168|136:208|120:256,2,128
320,168,32459,2,0,B|328:224|328:224|304:264|320:312,2,128
176,312,33659,6,0,P|96:352|-16:336,2,192,2|2|2,0:0|0:0|0:0,0:0:0:0:
248,240,34859,2,0,P|304:216|376:224,1,128,2|0,0:0|0:0,0:0:0:0:
456,272,35459,1,2,0:0:0:0:
456,168,35759,1,2,0:0:0:0:
408,80,36059,6,0,B|360:56|360:56|312:80|312:128,2,128
296,256,37259,2,0,B|344:280|344:280|392:256|392:208,2,128
176,88,38459,6,0,P|104:136|112:240,2,192,2|2|2,0:0|0:0|0:0,0:0:0:0:
200,192,39659,1,2,0:0:0:0:
192,296,39959,1,0,0:0:0:0:
280,344,40259,2,0,P|336:360|424:344,1,128,2|0,0:0|0:0,0:0:0:0:
472,272,40859,6,0,B|488:224|488:224|464:176|480:136,2,128
296,176,42059,2,0,B|280:128|280:128|304:80|288:40,2,128
160,328,43259,6,0,P|264:344|320:272,2,192,2|2|2,0:0|0:0|0:0,0:0:0:0:
224,248,44459,1,2,0:0:0:0:
120,232,44759,1,0,0:0:0:0:
56,312,45059,1,2,0:0:0:0:
16,216,45359,1,2,0:0:0:0:
80,136,45659,6,0,B|136:144|136:144|168:112|160:64,2,128
248,56,46859,2,0,B|336:32|336:32|416:40|432:128,1,230.39999296875
424,272,48059,6,0,B|376:272|328:240|320:192|320:192|320:264|272:320|216:344|152:320,1,384.000014648438,4|2,0:0|0:0,0:0:0:0:
80,288,49559,1,0,0:0:0:0:
152,240,49859,6,0,P|168:152|120:56,1,192.000007324219,2|0,0:0|0:0,0:0:0:0:
208,80,50759,2,0,P|296:80|384:8,1,192.000007324219,2|0,0:0|0:0,0:0:0:0:
344,96,51659,6,0,B|304:152|312:224|352:272|352:272|408:248|488:272|504:352,1,384.000014648438,4|2,0:0|0:0,0:0:0:0:
416,360,53159,1,0,0:0:0:0:
328,352,53459,6,0,P|216:352|144:296,1,192.000007324219,2|0,0:0|0:0,0:0:0:0:
184,224,54359,2,0,P|144:136|168:48,1,192.000007324219,2|0,0:0|0:0,0:0:0:0:
256,80,55259,6,0,P|304:240|128:296,1,384.000014648438,4|2,0:0|0:0,0:0:0:0:
56,248,56759,1,0,0:0:0:0:
64,160,57059,6,0,P|144:120|240:176,1,192.000007324219,2|0,0:0|0:0,0:0:0:0:
160,208,57959,2,0,P|184:288|120:368,1,192.000007324219,2|0,0:0|0:0,0:0:0:0:
200,328,58859,6,0,P|368:336|456:144,1,384.000014648438,4|2,0:0|0:0,0:0:0:0:
432,80,60359,1,0,0:0:0:0:
352,40,60659,6,0,P|256:32|176:96,1,192.000007324219,2|0,0:0|0:0,0:0:0:0:
144,160,61559,2,0,P|128:216|184:336,1,192.000007324219,2|8,0:0|0:0,0:0:0:0:
256,288,62459,1,8,0:0:0:0:
328,336,62759,1,0,0:0:0:0:
400,288,63059,6,0,P|432:224|416:160,2,128,2|0|2,0:0|0:0|0:0,0:0:0:0:
328,216,63959,1,0,0:0:0:0:
232,184,64259,2,0,P|168:192|112:240,1,128,2|2,0:0|0:0,0:0:0:0:
72,320,64859,2,0,L|0:336,2,64,0|2|0,0:0|0:0|0:0,0:0:0:0:
8,240,65459,5,2,0:0:0:0:
64,152,65759,1,0,0:0:0:0:
160,120,66059,2,0,P|224:120|288:80,1,128,2|0,0:0|0:0,0:0:0:0:
376,128,66659,6,0,L|352:24,2,96
392,144,67259,1,0,0:0:0:0:
432,240,67559,6,0,P|368:240|312:200,1,128,0|2,0:0|0:0,0:0:0:0:
256,288,68159,2,0,P|232:224|248:160,1,128,0|2,0:0|0:0,0:0:0:0:
144,168,68759,2,0,P|176:112|248:88,1,128,0|2,0:0|0:0,0:0:0:0:
336,88,69359,6,0,P|392:112|424:176,1,128,2|2,0:0|0:0,0:0:0:0:
320,168,69959,2,0,P|328:232|296:296,1,128,2|2,0:0|0:0,0:0:0:0:
248,200,70559,2,0,B|184:184|184:184|120:216,1,128,2|2,0:0|0:0,0:0:0:0:
40,264,71159,2,0,P|24:216|32:192,1,64,2|0,0:0|0:0,0:0:0:0:
77,182,71459,6,0,L|85:38,2,128,2|2|2,0:0|0:0|0:0,0:0:0:0:
172,130,72359,1,0,0:0:0:0:
248,200,72659,6,0,P|280:264|280:328,1,128,2|0,0:0|0:0,0:0:0:0:
368,256,73259,2,0,P|424:264|496:224,1,128,2|0,0:0|0:0,0:0:0:0:
504,128,73859,1,2,0:0:0:0:
456,40,74159,1,2,0:0:0:0:
352,24,74459,2,0,P|344:56|368:96,2,64,0|2|0,0:0|0:0|0:0,0:0:0:0:
248,40,75059,6,0,L|104:80,1,128,2|0,0:0|0:0,0:0:0:0:
64,160,75659,2,0,P|64:232|112:280,1,128,2|0,0:0|0:0,0:0:0:0:
160,192,76259,6,0,L|279:156,2,96
152,216,76859,1,0,0:0:0:0:
192,312,77159,6,0,P|248:312|312:256,1,128,0|2,0:0|0:0,0:0:0:0:
400,312,77759,2,0,P|416:264|392:192,1,128,0|2,0:0|0:0,0:0:0:0:
472,128,78359,2,0,P|424:72|352:56,1,128,0|2,0:0|0:0,0:0:0:0:
272,64,78959,6,0,P|208:112|200:176,1,128,2|2,0:0|0:0,0:0:0:0:
96,152,79559,2,0,P|88:216|128:288,1,128,2|2,0:0|0:0,0:0:0:0:
208,312,80159,2,0,B|264:296|264:296|296:232,1,128,2|2,0:0|0:0,0:0:0:0:
392,272,80759,2,0,L|424:200,1,64,0|2,0:0|0:0,0:0:0:0:
400,184,81059,6,0,P|384:120|408:48,2,128,2|2|2,0:0|0:0|0:0,0:0:0:0:
400,184,82259,5,4,0:0:0:0:
208,296,91559,5,2,0:0:0:0:
152,240,91859,2,0,B|200:176|112:176|88:104|144:24|224:24|256:64,1,288.000010986329,4|2,0:0|0:0,0:0:0:0:
312,96,93059,5,0,0:0:0:0:
440,184,93659,1,2,0:0:0:0:
304,248,94259,2,0,P|232:240|168:192,1,144.000005493164,2|2,0:0|0:0,0:0:0:0:
304,248,96359,5,2,0:0:0:0:
336,176,96659,2,0,B|320:136|384:120|368:64|336:24|288:24|248:64|240:112|168:96,1,288.000010986329,4|2,0:0|0:0,0:0:0:0:
104,96,97859,5,0,0:0:0:0:
40,232,98459,1,2,0:0:0:0:
24,80,99059,1,2,0:0:0:0:
288,232,100259,6,0,P|368:216|480:264,1,192.000007324219
320,304,101459,5,0,0:0:0:0:
296,152,102059,1,8,0:0:0:0:
232,296,102659,1,0,0:0:0:0:
224,272,102809,2,0,L|191:129,1,144.000005493164,8|8,0:0|0:0,0:0:0:0:
48,184,103859,5,0,0:0:0:0:
144,64,104459,2,0,P|208:48|288:80,1,144.000005493164,8|8,0:0|0:0,0:0:0:0:
288,80,105059,2,0,L|352:72,1,48.0000018310548,0|8,0:0|0:0,0:0:0:0:
448,72,105659,1,8,0:0:0:0:
480,224,106259,6,0,P|376:216|312:136,1,192.000007324219,0|2,0:0|0:0,0:0:0:0:
288,80,107159,1,2,0:0:0:0:
216,48,107459,6,0,P|112:40|40:88,1,192.000007324219,0|2,0:0|0:0,0:0:0:0:
16,160,108359,1,2,0:0:0:0:
16,240,108659,6,0,B|64:240|104:200|96:144|96:144|136:88|200:104|248:160|248:216|216:264,1,384.000014648438,0|2,0:0|0:0,0:0:0:0:
226,244,110759,5,0,0:0:0:0:
312,272,111059,2,0,P|400:264|464:168,1,192.000007324219,0|8,0:0|0:0,0:0:0:0:
376,40,112259,2,0,L|472:16,2,96.0000036621095,0|0|8,0:0|0:0|0:0,0:0:0:0:
232,136,113459,6,0,P|136:136|64:64,1,192.000007324219,0|8,0:0|0:0,0:0:0:0:
144,32,114359,1,0,0:0:0:0:
232,16,114659,2,0,P|296:64|304:176,1,192.000007324219,4|8,0:0|0:0,0:0:0:0:
240,224,115559,6,0,L|128:208,1,96.0000036621095,0|2,0:0|0:0,0:0:0:0:
320,256,116159,6,0,L|432:240,1,96.0000036621095,0|10,0:0|0:0,0:0:0:0:
248,312,116759,6,0,L|136:296,1,96.0000036621095,0|2,0:0|0:0,0:0:0:0:
320,256,117359,6,0,L|362:360,1,96.0000036621095,2|10,0:0|0:0,0:0:0:0:
240,224,117959,6,0,L|309:135,1,96.0000036621095,2|2,0:0|0:0,0:0:0:0:
376,192,118559,6,0,P|424:200|480:184,2,96.0000036621095,2|10|0,0:0|0:0|0:0,0:0:0:0:
296,160,119459,1,10,0:0:0:0:
208,160,119759,1,10,0:0:0:0:
128,192,120059,1,8,0:0:0:0:
376,192,120659,6,0,P|320:160|232:160,1,128,2|0,0:0|0:0,0:0:0:0:
208,248,121259,2,0,P|264:280|352:280,1,128,2|0,0:0|0:0,0:0:0:0:
432,280,121859,1,2,0:0:0:0:
480,192,122159,1,2,0:0:0:0:
472,88,122459,2,0,L|496:24,2,64,0|2|0,0:0|0:0|0:0,0:0:0:0:
384,40,123059,6,0,P|320:32|248:56,1,128,2|0,0:0|0:0,0:0:0:0:
176,104,123659,2,0,P|136:160|136:224,1,128,2|0,0:0|0:0,0:0:0:0:
192,304,124259,6,0,L|312:320,2,96
176,312,124859,1,0,0:0:0:0:
184,208,125159,6,0,P|200:152|168:72,1,128,0|2,0:0|0:0,0:0:0:0:
256,152,125759,2,0,P|296:112|312:24,1,128,0|2,0:0|0:0,0:0:0:0:
352,144,126359,2,0,P|408:152|488:112,1,128,0|2,0:0|0:0,0:0:0:0:
504,224,126959,6,0,P|504:288|464:352,1,128,2|2,0:0|0:0,0:0:0:0:
424,256,127559,2,0,P|400:304|328:344,1,128,2|2,0:0|0:0,0:0:0:0:
336,240,128159,2,0,B|280:264|280:264|200:256,1,128,2|2,0:0|0:0,0:0:0:0:
128,208,128759,2,0,L|64:200,1,64,0|2,0:0|0:0,0:0:0:0:
40,176,129059,6,0,P|8:112|32:48,2,128,2|2|2,0:0|0:0|0:0,0:0:0:0:
112,104,129959,1,0,0:0:0:0:
216,88,130259,6,0,P|280:112|320:168,1,128,2|0,0:0|0:0,0:0:0:0:
328,256,130859,1,2,0:0:0:0:
288,352,131159,1,0,0:0:0:0:
224,272,131459,2,0,P|232:208|280:168,1,128,2|2,0:0|0:0,0:0:0:0:
384,176,132059,2,0,L|448:192,2,64,0|2|0,0:0|0:0|0:0,0:0:0:0:
424,80,132659,5,2,0:0:0:0:
344,16,132959,1,0,0:0:0:0:
256,72,133259,1,2,0:0:0:0:
280,168,133559,1,0,0:0:0:0:
240,264,133859,6,0,L|232:368,2,96
224,248,134459,1,0,0:0:0:0:
128,288,134759,6,0,P|88:240|88:160,1,128,0|2,0:0|0:0,0:0:0:0:
184,176,135359,2,0,P|192:112|232:56,1,128,0|2,0:0|0:0,0:0:0:0:
296,136,135959,2,0,P|344:80|400:64,1,128,0|2,0:0|0:0,0:0:0:0:
328,144,136559,6,0,P|368:192|376:264,1,128,2|2,0:0|0:0,0:0:0:0:
272,224,137159,2,0,P|272:280|216:344,1,128,2|2,0:0|0:0,0:0:0:0:
176,248,137759,2,0,B|144:288|144:288|56:304,1,128,2|2,0:0|0:0,0:0:0:0:
32,208,138359,2,0,L|120:192,1,64,0|2,0:0|0:0,0:0:0:0:
112,168,138659,6,0,P|136:128|128:48,2,128,2|2|2,0:0|0:0|0:0,0:0:0:0:
176,248,139559,1,0,0:0:0:0:
272,224,139859,6,0,L|408:216,1,128
424,120,140459,2,0,L|288:128,1,128
200,152,141059,1,0,0:0:0:0:
200,152,141359,1,0,0:0:0:0:
104,112,141659,2,0,P|96:176|136:232,1,128
232,248,142259,5,0,0:0:0:0:
304,176,142559,1,0,0:0:0:0:
376,104,142859,1,0,0:0:0:0:
464,152,143159,1,0,0:0:0:0:
464,256,143459,6,0,P|448:312|408:336,5,85.3333333333333,2|2|2|2|2|2,0:0|0:0|0:0|0:0|0:0|0:0,0:0:0:0:
352,344,144659,6,0,L|216:352,1,128,2|4,0:0|0:0,0:0:0:0:
136,296,145259,1,0,0:0:0:0:
32,304,145559,2,0,L|56:232,1,64
48,192,145859,6,0,P|32:136|64:56,1,128
152,40,146459,2,0,L|224:32,2,64
208,128,147059,1,0,0:0:0:0:
152,216,147359,1,0,0:0:0:0:
208,304,147659,2,0,P|256:336|336:336,1,128
352,328,148109,1,0,0:0:0:0:
376,312,148259,5,4,0:0:0:0:
424,224,148559,1,4,0:0:0:0:
376,136,148859,1,4,0:0:0:0:
328,224,149159,2,0,L|264:224,1,64,2|0,0:0|0:0,0:0:0:0:
216,248,149459,5,2,0:0:0:0:
128,296,149759,1,2,0:0:0:0:
136,192,150059,1,2,0:0:0:0:
48,144,150359,2,0,P|48:112|64:72,1,64,0|2,0:0|0:0,0:0:0:0:
88,40,150659,5,2,0:0:0:0:
176,88,150959,1,2,0:0:0:0:
264,136,151259,1,2,0:0:0:0:
360,112,151559,2,0,P|400:88|416:56,1,64,2|0,0:0|0:0,0:0:0:0:
432,32,151859,6,0,P|456:80|440:160,1,128,2|2,0:0|0:0,0:0:0:0:
392,240,152459,2,0,P|344:288|264:304,1,128,2|2,0:0|0:0,0:0:0:0:
192,344,153059,6,0,P|184:304|208:248,5,85.3333333333333,2|2|2|2|2|2,0:0|0:0|0:0|0:0|0:0|0:0,0:0:0:0:
256,208,154259,6,0,L|288:56,1,128,2|4,0:0|0:0,0:0:0:0:
192,32,154859,1,2,0:0:0:0:
112,104,155159,1,2,0:0:0:0:
96,120,155309,1,0,0:0:0:0:
80,136,155459,6,0,L|64:208,2,64,2|0|2,0:0|0:0|0:0,0:0:0:0:
160,200,156059,2,0,L|128:344,1,128,2|2,0:0|0:0,0:0:0:0:
232,336,156659,2,0,P|296:328|360:280,1,128,2|0,0:0|0:0,0:0:0:0:
424,224,157259,2,0,P|448:160|440:80,1,128,2|2,0:0|0:0,0:0:0:0:
352,56,157859,6,0,L|280:40,1,64,2|0,0:0|0:0,0:0:0:0:
312,88,158159,6,0,L|240:72,1,64,2|0,0:0|0:0,0:0:0:0:
272,120,158459,5,2,0:0:0:0:
