osu file format v12

[General]
AudioFilename: Kanata ni Mau ha Sakura no Senritsu.mp3
AudioLeadIn: 0
PreviewTime: 62759
Countdown: 0
SampleSet: Normal
StackLeniency: 0.5
Mode: 0
LetterboxInBreaks: 0
WidescreenStoryboard: 0

[Editor]
DistanceSpacing: 1
BeatDivisor: 2
GridSize: 8

[Metadata]
Title:Kanata ni Mau wa Sakura no Shirabe
TitleUnicode:彼方に舞うは桜の律べ
Artist:Rohi
ArtistUnicode:ろひ
Creator:NatsumeRin
Version:Easy
Source:
Tags:Vocaloid Kagamine Rin hs714 RLC nouk pieguy1372 Nyquill Amamiya Yuko
BeatmapID:303256
BeatmapSetID:93555

[Difficulty]
HPDrainRate:3
CircleSize:3
OverallDifficulty:3
ApproachRate:3
SliderMultiplier:0.8
SliderTickRate:1

[Events]
//Background and Video events
0,0,"BG.JPG",0,0
Video,0,"PV.flv"
//Break Periods
2,82259,90119
//Storyboard Layer 0 (Background)
//Storyboard Layer 1 (Fail)
//Storyboard Layer 2 (Pass)
//Storyboard Layer 3 (Foreground)
//Storyboard Sound Samples
//Background Colour Transformations
3,100,163,162,255

[TimingPoints]
14406,375,6,1,3,50,1,0
14593,333.333333333333,6,1,3,50,1,0
14909,285.714285714286,6,1,3,50,1,0
15051,300,6,1,3,50,1,0
15359,300,6,2,3,50,1,0
16259,-100,6,1,3,50,0,0
17159,-100,6,2,3,50,0,0
17909,-100,6,2,0,20,0,0
18059,-100,6,1,3,50,0,0
18959,-100,6,2,3,50,0,0
19859,-100,6,1,3,50,0,0
21659,-100,6,1,3,50,0,0
23309,-100,6,2,3,30,0,0
23459,-100,6,1,3,50,0,0
25109,-100,6,2,3,20,0,0
25259,-100,6,1,3,50,0,0
26909,-100,6,2,3,20,0,0
27059,-100,6,1,3,40,0,0
27359,-100,6,1,3,50,0,0
27959,-100,6,1,3,40,0,0
28259,-100,6,1,3,50,0,0
28859,300,4,2,3,70,1,0
31259,-100,4,1,3,40,0,0
32309,-100,4,2,3,20,0,0
32459,-100,4,1,3,40,0,0
33359,-100,4,3,0,40,0,0
33659,-100,4,2,3,70,0,0
36059,-100,4,1,3,40,0,0
37109,-100,4,2,3,20,0,0
37259,-100,4,1,3,40,0,0
38309,-100,4,2,3,20,0,0
38459,-100,4,2,3,70,0,0
40859,-100,4,1,3,40,0,0
41909,-100,4,1,3,20,0,0
42059,-100,4,1,3,40,0,0
42809,-100,4,3,0,40,0,0
43259,-100,4,2,3,70,0,0
45659,-100,4,1,3,40,0,0
46709,-100,4,1,3,20,0,0
46859,-100,4,1,3,35,0,0
47309,-100,4,1,3,25,0,0
47459,-100,4,1,3,30,0,0
47759,-100,4,1,3,25,0,0
48059,300,6,1,4,50,1,0
48059,-100,6,1,4,50,0,0
61109,-100,6,1,3,25,0,0
61259,-100,6,1,4,50,0,0
62009,-100,6,1,3,25,0,0
62459,-100,6,1,3,40,0,0
62759,-100,6,1,3,50,0,0
63059,300,4,2,3,90,1,1
63059,-100,4,2,3,90,0,1
66659,-100,4,1,3,60,0,1
67259,-100,4,1,3,40,0,1
67559,-100,4,2,3,90,0,1
72359,-100,4,1,3,50,0,1
72659,-100,4,2,3,90,0,1
76259,-100,4,1,3,60,0,1
76859,-100,4,1,3,40,0,1
77159,-100,4,2,3,90,0,1
81959,-100,4,1,3,50,0,1
82259,-100,4,1,3,50,0,0
86034,-100,4,1,3,10,0,0
86059,-100,4,1,3,50,0,0
86234,-100,4,1,3,10,0,0
86259,-100,4,1,3,50,0,0
86434,-100,4,1,3,10,0,0
86459,-100,4,1,3,50,0,0
87284,-100,4,1,3,20,0,0
87359,-100,4,1,3,50,0,0
90659,-100,4,1,3,40,0,0
90884,-100,4,1,3,10,0,0
90959,-100,4,1,3,40,0,0
91184,-100,4,1,3,10,0,0
91259,-100,4,1,3,40,0,0
91484,-100,4,1,3,10,0,0
91559,-100,4,1,3,50,0,0
91859,-100,4,2,3,50,0,0
95459,-100,4,1,4,30,0,0
95609,-100,4,1,4,10,0,0
95759,-100,4,1,4,30,0,0
95909,-100,4,1,4,10,0,0
96059,-100,4,1,4,30,0,0
96209,-100,4,1,4,10,0,0
96359,-100,4,2,4,50,0,0
96509,-100,4,1,4,10,0,0
96659,-100,4,2,3,50,0,0
100259,-100,4,1,4,30,0,0
100409,-100,4,1,4,10,0,0
100559,-100,4,1,4,30,0,0
100709,-100,4,1,4,10,0,0
100859,-100,4,1,4,30,0,0
101009,-100,4,1,4,10,0,0
101159,-100,4,1,4,30,0,0
101309,-100,4,1,4,10,0,0
101459,-100,4,1,3,30,0,0
102509,-100,4,1,3,20,0,0
102659,-100,4,1,3,30,0,0
103559,-100,4,1,3,20,0,0
103859,-100,4,1,3,30,0,0
104909,-100,4,1,3,20,0,0
105059,-100,4,1,3,30,0,0
105959,-100,4,1,3,15,0,0
106259,-100,4,1,4,20,0,0
106709,-100,4,1,4,10,0,0
106859,-100,4,2,3,30,0,0
107459,-100,4,1,4,20,0,0
107909,-100,4,1,4,10,0,0
108059,-100,4,2,3,30,0,0
108659,-100,4,1,4,20,0,0
109859,-100,4,2,3,30,0,0
110759,-100,4,2,3,50,0,0
120059,-100,4,1,3,30,0,0
120359,-100,4,1,3,50,0,0
120659,-100,4,2,3,90,0,1
124259,-100,4,1,3,60,0,1
124859,-100,4,1,3,40,0,1
125159,-100,4,2,3,90,0,1
129959,-100,4,1,3,50,0,1
130259,-100,4,2,3,90,0,1
133859,-100,4,1,3,60,0,1
134459,-100,4,1,3,40,0,1
134759,-100,4,2,3,90,0,1
139559,-100,4,1,3,50,0,1
139859,-100,4,1,3,50,0,0
143634,-100,4,1,3,10,0,0
143659,-100,4,1,3,50,0,0
143834,-100,4,1,3,10,0,0
143859,-100,4,1,3,50,0,0
144034,-100,4,1,3,10,0,0
144059,-100,4,1,3,50,0,0
144884,-100,4,1,3,20,0,0
144959,-100,4,1,3,50,0,0
153234,-100,4,1,3,10,0,0
153259,-100,4,1,3,50,0,0
153434,-100,4,1,3,10,0,0
153459,-100,4,1,3,50,0,0
153634,-100,4,1,3,10,0,0
153659,-100,4,1,3,50,0,0
154259,-100,4,1,3,50,0,0
154484,-100,4,1,3,20,0,0
154559,-100,4,1,3,50,0,0

[Colours]
Combo1 : 30,255,86
Combo2 : 255,255,45
Combo3 : 0,109,242
Combo4 : 255,21,138

[HitObjects]
256,24,14406,1,0,0:0:0:0:
504,80,15359,1,2,0:0:0:0:
264,112,16259,5,0,0:0:0:0:
424,296,17159,1,2,0:0:0:0:
216,176,18059,5,0,0:0:0:0:
80,376,18959,1,2,0:0:0:0:
136,144,19859,5,0,0:0:0:0:
376,104,20759,2,0,P|416:136|392:248,1,160
336,280,21659,6,0,L|144:312,1,160,2|0,0:0|0:0,0:0:0:0:
200,224,22559,2,0,L|8:256,1,160,2|0,0:0|0:0,0:0:0:0:
40,168,23459,6,0,P|56:104|152:48,1,160,2|0,0:0|0:0,0:0:0:0:
208,72,24359,2,0,P|272:72|352:136,1,160,2|0,0:0|0:0,0:0:0:0:
384,200,25259,6,0,L|352:360,1,160,2|0,0:0|0:0,0:0:0:0:
440,344,26159,2,0,L|472:184,1,160,2|0,0:0|0:0,0:0:0:0:
416,128,27059,6,0,B|392:80|408:32|408:32|344:8|328:40,1,160,2|0,0:0|0:0,0:0:0:0:
272,56,27959,2,0,L|176:72,2,80,2|2|2,0:0|0:0|0:0,0:0:0:0:
272,136,28859,6,0,P|272:200|232:272,2,120,2|2|0,0:0|0:0|0:0,0:0:0:0:
192,152,30059,1,2,0:0:0:0:
72,256,30659,1,0,0:0:0:0:
216,328,31259,6,0,B|296:344|296:344|384:312,1,160
464,184,32459,2,0,B|384:168|384:168|296:200,1,160
200,80,33659,6,0,P|152:112|64:96,2,120,2|2|0,0:0|0:0|0:0,0:0:0:0:
272,120,34859,1,2,0:0:0:0:
128,32,35459,1,2,0:0:0:0:
64,184,36059,6,0,B|32:256|32:256|24:304|64:344,1,160
184,240,37259,2,0,B|216:168|216:168|224:120|184:80,1,160
352,80,38459,6,0,P|400:56|480:64,2,120,2|2|0,0:0|0:0|0:0,0:0:0:0:
312,152,39659,1,2,0:0:0:0:
440,240,40259,1,0,0:0:0:0:
280,224,40859,6,0,B|200:216|200:216|128:288,1,160
0,216,42059,2,0,B|80:224|80:224|152:152,1,160
288,112,43259,6,0,P|240:88|144:104,2,120,2|2|0,0:0|0:0|0:0,0:0:0:0:
336,176,44459,1,2,0:0:0:0:
376,24,45059,1,2,0:0:0:0:
416,176,45659,6,0,B|408:248|336:280|280:232|280:232|120:232,1,320
56,104,47459,1,0,0:0:0:0:
200,32,48059,6,0,P|336:48|416:232,1,320,4|2,0:0|0:0,0:0:0:0:
384,272,49559,1,0,0:0:0:0:
312,312,49859,6,0,P|264:256|256:168,1,160,2|0,0:0|0:0,0:0:0:0:
272,96,50759,2,0,P|328:40|416:24,1,160,2|0,0:0|0:0,0:0:0:0:
392,104,51659,6,0,P|416:168|264:352,1,320,4|2,0:0|0:0,0:0:0:0:
200,328,53159,1,0,0:0:0:0:
152,264,53459,6,0,P|200:200|288:168,1,160,2|0,0:0|0:0,0:0:0:0:
352,160,54359,2,0,P|432:168|504:240,1,160,2|0,0:0|0:0,0:0:0:0:
416,248,55259,6,0,P|272:264|152:144,1,320,4|2,0:0|0:0,0:0:0:0:
184,72,56759,1,0,0:0:0:0:
256,104,57059,6,0,P|288:176|264:264,1,160,2|0,0:0|0:0,0:0:0:0:
224,320,57959,2,0,P|160:368|64:368,1,160,2|0,0:0|0:0,0:0:0:0:
104,296,58859,6,0,P|96:136|216:32,1,320,4|2,0:0|0:0,0:0:0:0:
288,32,60359,1,0,0:0:0:0:
368,56,60659,6,0,P|416:120|408:224,1,160,2|0,0:0|0:0,0:0:0:0:
392,272,61559,2,0,L|232:344,1,160,2|0,0:0|0:0,0:0:0:0:
176,304,62459,2,0,L|80:344,1,80,8|0,0:0|0:0,0:0:0:0:
40,288,63059,6,0,P|32:208|88:120,1,160,2|2,0:0|0:0,0:0:0:0:
208,64,64259,1,2,0:0:0:0:
368,80,64859,1,0,0:0:0:0:
464,208,65459,6,0,P|432:288|344:328,1,160,2|2,0:0|0:0,0:0:0:0:
296,296,66359,1,0,0:0:0:0:
256,224,66659,2,0,L|88:208,1,160
56,136,67559,1,0,0:0:0:0:
80,56,67859,5,2,0:0:0:0:
240,72,68459,1,2,0:0:0:0:
128,184,69059,5,2,0:0:0:0:
280,152,69659,1,2,0:0:0:0:
240,304,70259,5,2,0:0:0:0:
352,192,70859,2,0,P|392:200|440:184,1,80,2|0,0:0|0:0,0:0:0:0:
496,144,71459,2,0,L|496:64,2,80,2|2|2,0:0|0:0|0:0,0:0:0:0:
440,296,72659,6,0,P|368:312|272:272,1,160,2|2,0:0|0:0,0:0:0:0:
248,128,73859,1,2,0:0:0:0:
384,40,74459,1,0,0:0:0:0:
328,192,75059,6,0,L|152:240,1,160,2|2,0:0|0:0,0:0:0:0:
104,272,75959,1,0,0:0:0:0:
32,312,76259,2,0,L|80:136,1,160
144,112,77159,1,0,0:0:0:0:
216,72,77459,5,2,0:0:0:0:
112,192,78059,1,2,0:0:0:0:
264,144,78659,5,2,0:0:0:0:
248,304,79259,1,2,0:0:0:0:
344,176,79859,5,2,0:0:0:0:
408,320,80459,2,0,P|456:296|472:264,1,80,2|0,0:0|0:0,0:0:0:0:
448,200,81059,2,2,L|408:112,2,80,2|2|2,0:0|0:0|0:0,0:0:0:0:
256,288,91559,5,0,0:0:0:0:
320,240,91859,2,0,B|336:176|408:200|464:120|440:16|360:0|296:56,1,320,4|2,0:0|0:0,0:0:0:0:
192,128,93659,1,2,0:0:0:0:
40,72,94259,1,2,0:0:0:0:
136,296,96359,5,0,0:0:0:0:
200,248,96659,2,0,B|144:208|168:128|168:128|208:200|304:208|360:176,1,320,2|2,0:0|0:0,0:0:0:0:
448,80,98459,1,0,0:0:0:0:
296,32,99059,1,2,0:0:0:0:
344,240,101459,6,0,L|152:224,1,160,0|8,0:0|0:0,0:0:0:0:
472,88,103259,1,8,0:0:0:0:
312,96,103859,6,0,L|120:80,1,160,0|8,0:0|0:0,0:0:0:0:
88,232,105059,1,0,0:0:0:0:
216,328,105659,1,8,0:0:0:0:
376,296,106259,6,0,P|416:256|408:64,1,240,4|2,0:0|0:0,0:0:0:0:
360,136,107459,2,0,P|288:56|152:48,1,240,4|2,0:0|0:0,0:0:0:0:
184,120,108659,6,0,P|160:232|250:142,1,320,0|2,0:0|0:0,0:0:0:0:
254,149,111059,6,0,P|248:224|304:296,1,160,4|8,0:0|0:0,0:0:0:0:
408,176,112259,2,0,L|504:152,2,80,0|0|8,0:0|0:0|0:0,0:0:0:0:
344,24,113459,6,0,P|264:8|168:40,1,160,0|8,0:0|0:0,0:0:0:0:
144,96,114359,1,0,0:0:0:0:
136,176,114659,2,0,L|104:344,1,160,0|8,0:0|0:0,0:0:0:0:
184,320,115559,1,0,0:0:0:0:
264,304,115859,5,2,0:0:0:0:
408,240,116459,5,10,0:0:0:0:
248,224,117059,5,2,0:0:0:0:
392,160,117659,5,10,0:0:0:0:
232,144,118259,5,2,0:0:0:0:
392,160,118859,6,0,L|412:268,1,80,10|0,0:0|0:0,0:0:0:0:
352,296,119459,2,0,P|400:320|440:312,2,80,10|10|10,0:0|0:0|0:0,0:0:0:0:
216,208,120659,6,0,P|176:264|72:304,1,160,2|2,0:0|0:0,0:0:0:0:
48,152,121859,2,0,P|64:80|136:24,1,160,2|2,0:0|0:0,0:0:0:0:
208,48,122759,1,0,0:0:0:0:
248,120,123059,5,2,0:0:0:0:
400,64,123659,1,2,0:0:0:0:
488,200,124259,2,0,L|472:368,1,160
392,344,125159,1,0,0:0:0:0:
312,328,125459,5,2,0:0:0:0:
152,360,126059,1,2,0:0:0:0:
216,216,126659,5,2,0:0:0:0:
88,312,127259,1,2,0:0:0:0:
80,152,127859,5,2,0:0:0:0:
0,296,128459,2,0,L|16:200,1,80,2|0,0:0|0:0,0:0:0:0:
0,136,129059,2,0,P|-8:96|16:40,2,80,2|2|2,0:0|0:0|0:0,0:0:0:0:
152,96,130259,6,0,P|224:96|328:48,1,160,2|2,0:0|0:0,0:0:0:0:
464,96,131459,1,2,0:0:0:0:
496,248,132059,1,0,0:0:0:0:
360,328,132659,6,0,P|288:296|200:296,1,160,2|2,0:0|0:0,0:0:0:0:
128,312,133559,1,0,0:0:0:0:
56,344,133859,2,0,L|72:176,1,160
104,112,134759,1,0,0:0:0:0:
136,40,135059,5,2,0:0:0:0:
296,48,135659,1,2,0:0:0:0:
208,184,136259,5,2,0:0:0:0:
352,112,136859,1,2,0:0:0:0:
368,272,137459,5,2,0:0:0:0:
440,128,138059,2,0,L|448:216,1,80,2|0,0:0|0:0,0:0:0:0:
456,288,138659,2,0,P|440:328|400:352,2,80,2|2|2,0:0|0:0|0:0,0:0:0:0:
