osu file format v11

[General]
AudioFilename: Kakuzetsu Thanatos.mp3
AudioLeadIn: 1000
PreviewTime: 68164
Countdown: 0
SampleSet: Normal
StackLeniency: 0.4
Mode: 1
LetterboxInBreaks: 0

[Editor]
DistanceSpacing: 0.8
BeatDivisor: 4
GridSize: 32

[Metadata]
Title:Kakuzetsu Thanatos
TitleUnicode:隔絶≡タナトス
Artist:Rohi
ArtistUnicode:ろひ
Creator:NatsumeRin
Version:qoot8123's Taiko Oni
Source:Vocaloid
Tags:Kagamine Rin Amamiya Yuko Pokie RLC hs714 qoot8123
BeatmapID:216148
BeatmapSetID:76396

[Difficulty]
HPDrainRate:5
CircleSize:5
OverallDifficulty:5
ApproachRate:5
SliderMultiplier:1.4
SliderTickRate:1

[Events]
//Background and Video events
0,0,"BG.JPG"
//Break Periods
2,145470,153670
//Storyboard Layer 0 (Background)
//Storyboard Layer 1 (Fail)
//Storyboard Layer 2 (Pass)
//Storyboard Layer 3 (Foreground)
//Storyboard Sound Samples
//Background Colour Transformations
3,100,163,162,255

[TimingPoints]
70,300,4,1,0,100,1,0
68470,-100,4,1,0,100,0,1
87670,-100,4,1,0,100,0,0
164770,300,4,1,0,100,1,1
183970,292.682926829268,4,1,0,100,1,0
188652,285.714285714286,4,1,0,100,1,0
193223,279.06976744186,4,1,0,100,1,0
202153,272.727272727273,4,1,0,100,1,0
206516,292.682926829268,4,1,0,100,1,0
207686,315.789473684211,4,1,0,100,1,0
208949,342.857142857143,4,1,0,100,1,0
209634,375,4,1,0,100,1,0
210384,400,4,1,0,100,1,0

[Colours]
Combo1 : 255,0,0
Combo2 : 0,0,255

[HitObjects]
256,192,10570,1,8,0:0:0
256,192,10870,5,4,0:0:0
256,192,11020,5,8,0:0:0
256,192,11170,5,0,0:0:0
256,192,11245,1,0,0:0:0
256,192,11320,5,8,0:0:0
256,192,11470,5,0,0:0:0
256,192,11620,5,8,0:0:0
256,192,11770,1,8,0:0:0
256,192,11845,5,0,0:0:0
256,192,11920,5,8,0:0:0
256,192,12070,5,0,0:0:0
256,192,12220,5,8,0:0:0
256,192,12370,5,0,0:0:0
256,192,12445,5,8,0:0:0
256,192,12520,1,8,0:0:0
256,192,12670,5,0,0:0:0
256,192,12820,5,8,0:0:0
256,192,12970,1,8,0:0:0
256,192,13045,1,8,0:0:0
256,192,13120,5,0,0:0:0
256,192,13270,1,0,0:0:0
256,192,13420,5,8,0:0:0
256,192,13570,1,8,0:0:0
256,192,13645,5,0,0:0:0
256,192,13720,5,8,0:0:0
256,192,13870,5,0,0:0:0
256,192,14020,5,8,0:0:0
256,192,14170,5,0,0:0:0
256,192,14245,5,8,0:0:0
256,192,14320,1,8,0:0:0
256,192,14470,5,0,0:0:0
256,192,14620,5,8,0:0:0
256,192,14770,5,0,0:0:0
256,192,14845,1,0,0:0:0
256,192,14920,5,8,0:0:0
256,192,15070,1,8,0:0:0
256,192,15170,5,0,0:0:0
256,192,15270,1,0,0:0:0
256,192,15370,5,8,0:0:0
256,192,15470,5,0,0:0:0
256,192,15570,1,0,0:0:0
256,192,15670,5,8,0:0:0
256,192,15820,5,0,0:0:0
256,192,15895,1,0,0:0:0
256,192,15970,1,0,0:0:0
256,192,16120,5,8,0:0:0
256,192,16270,1,8,0:0:0
256,192,16420,5,0,0:0:0
256,192,16495,1,0,0:0:0
256,192,16570,1,0,0:0:0
256,192,16720,5,8,0:0:0
256,192,16870,5,0,0:0:0
256,192,17020,5,8,0:0:0
256,192,17095,1,8,0:0:0
256,192,17170,5,0,0:0:0
256,192,17320,5,8,0:0:0
256,192,17470,5,0,0:0:0
256,192,17620,5,8,0:0:0
256,192,17695,1,8,0:0:0
256,192,17770,5,0,0:0:0
256,192,17920,5,8,0:0:0
256,192,18070,5,4,0:0:0
256,192,18270,5,12,0:0:0
256,192,18470,5,4,0:0:0
256,192,18670,5,8,0:0:0
256,192,18770,1,8,0:0:0
256,192,18870,5,0,0:0:0
256,192,18970,1,0,0:0:0
256,192,19070,1,0,0:0:0
256,192,19170,1,0,0:0:0
256,192,19270,5,8,0:0:0
256,192,19370,5,0,0:0:0
256,192,19470,5,8,0:0:0
256,192,19570,1,8,0:0:0
256,192,19670,5,0,0:0:0
256,192,19770,1,0,0:0:0
256,192,19870,5,12,0:0:0
256,192,20170,1,8,0:0:0
256,192,20470,5,0,0:0:0
256,192,20770,5,8,0:0:0
256,192,20920,1,8,0:0:0
256,192,21070,5,0,0:0:0
256,192,21145,1,0,0:0:0
256,192,21220,1,0,0:0:0
256,192,21370,5,8,0:0:0
256,192,21520,5,0,0:0:0
256,192,21670,1,0,0:0:0
256,192,21970,5,8,0:0:0
256,192,22120,5,0,0:0:0
256,192,22270,5,8,0:0:0
256,192,22345,1,8,0:0:0
256,192,22420,1,8,0:0:0
256,192,22570,5,0,0:0:0
256,192,22720,5,8,0:0:0
256,192,22870,5,0,0:0:0
256,192,23170,5,8,0:0:0
256,192,23320,5,0,0:0:0
256,192,23470,1,0,0:0:0
256,192,23545,1,0,0:0:0
256,192,23620,1,0,0:0:0
256,192,23770,5,8,0:0:0
256,192,23920,5,0,0:0:0
256,192,24070,5,8,0:0:0
256,192,24370,1,8,0:0:0
256,192,24520,5,0,0:0:0
256,192,24670,5,8,0:0:0
256,192,24745,5,0,0:0:0
256,192,24820,1,0,0:0:0
256,192,24970,5,8,0:0:0
256,192,25120,5,0,0:0:0
256,192,25270,1,0,0:0:0
256,192,25420,1,0,0:0:0
256,192,25495,1,0,0:0:0
256,192,25570,5,8,0:0:0
256,192,25720,5,0,0:0:0
256,192,25870,5,8,0:0:0
256,192,26170,1,8,0:0:0
256,192,26320,5,0,0:0:0
256,192,26470,5,8,0:0:0
256,192,26620,5,0,0:0:0
256,192,26695,1,0,0:0:0
256,192,26770,5,8,0:0:0
256,192,26920,1,8,0:0:0
256,192,27070,5,0,0:0:0
256,192,27370,5,8,0:0:0
256,192,27520,5,0,0:0:0
256,192,27670,1,0,0:0:0
256,192,27820,1,0,0:0:0
256,192,27895,1,0,0:0:0
256,192,27970,5,8,0:0:0
256,192,28120,1,8,0:0:0
256,192,28270,5,0,0:0:0
256,192,28345,5,8,0:0:0
256,192,28420,1,8,0:0:0
256,192,28570,1,8,0:0:0
256,192,28720,5,0,0:0:0
256,192,28870,5,8,0:0:0
256,192,28945,1,8,0:0:0
256,192,29020,5,0,0:0:0
256,192,29170,5,8,0:0:0
256,192,29320,5,0,0:0:0
256,192,29470,1,0,0:0:0
256,192,29545,1,0,0:0:0
256,192,29620,1,0,0:0:0
256,192,29695,1,0,0:0:0
256,192,29770,5,8,0:0:0
256,192,29920,5,0,0:0:0
256,192,30070,1,4,0:0:0
256,192,30220,5,8,0:0:0
256,192,30295,1,8,0:0:0
256,192,30370,5,0,0:0:0
256,192,30520,5,8,0:0:0
256,192,30670,5,0,0:0:0
256,192,30820,5,8,0:0:0
256,192,30895,1,8,0:0:0
256,192,30970,5,0,0:0:0
256,192,31120,1,0,0:0:0
256,192,31270,5,8,0:0:0
256,192,31420,5,0,0:0:0
256,192,31495,1,0,0:0:0
256,192,31570,5,8,0:0:0
256,192,31720,1,8,0:0:0
256,192,31870,5,0,0:0:0
256,192,31945,1,0,0:0:0
256,192,32020,5,8,0:0:0
256,192,32170,1,8,0:0:0
256,192,32320,5,0,0:0:0
256,192,32470,1,4,0:0:0
256,192,32620,1,0,0:0:0
256,192,32695,1,0,0:0:0
256,192,32770,5,8,0:0:0
256,192,32920,1,8,0:0:0
256,192,33070,5,0,0:0:0
256,192,33220,5,8,0:0:0
256,192,33295,1,8,0:0:0
256,192,33370,5,0,0:0:0
256,192,33520,1,0,0:0:0
256,192,33670,5,8,0:0:0
256,192,33820,5,0,0:0:0
256,192,33895,1,0,0:0:0
256,192,33970,5,8,0:0:0
256,192,34120,1,8,0:0:0
256,192,34270,1,8,0:0:0
256,192,34370,5,0,0:0:0
256,192,34470,1,0,0:0:0
256,192,34570,5,8,0:0:0
256,192,34670,5,0,0:0:0
256,192,34770,1,0,0:0:0
256,192,34870,5,8,0:0:0
256,192,35020,5,0,0:0:0
256,192,35095,1,0,0:0:0
256,192,35170,1,0,0:0:0
256,192,35320,5,8,0:0:0
256,192,35470,5,0,0:0:0
256,192,35620,5,8,0:0:0
256,192,35695,1,8,0:0:0
256,192,35770,5,0,0:0:0
256,192,35920,5,8,0:0:0
256,192,36070,5,0,0:0:0
256,192,36220,5,8,0:0:0
256,192,36295,1,8,0:0:0
256,192,36370,5,0,0:0:0
256,192,36520,5,8,0:0:0
256,192,36670,5,0,0:0:0
256,192,36820,5,8,0:0:0
256,192,36895,5,0,0:0:0
256,192,36970,5,8,0:0:0
256,192,37120,5,0,0:0:0
256,192,37270,1,4,0:0:0
256,192,37470,5,12,0:0:0
256,192,37670,5,4,0:0:0
256,192,37870,5,12,0:0:0
256,192,38070,5,4,0:0:0
256,192,38270,1,4,0:0:0
256,192,38470,5,12,0:0:0
256,192,38670,5,4,0:0:0
256,192,38870,1,4,0:0:0
256,192,39070,5,12,0:0:0
256,192,39370,1,8,0:0:0
256,192,39520,1,8,0:0:0
256,192,39595,1,8,0:0:0
256,192,39670,5,0,0:0:0
256,192,39820,1,0,0:0:0
256,192,39970,5,8,0:0:0
256,192,40120,5,0,0:0:0
256,192,40270,1,0,0:0:0
256,192,40345,1,0,0:0:0
256,192,40420,1,0,0:0:0
256,192,40570,5,8,0:0:0
256,192,40720,5,0,0:0:0
256,192,40870,5,8,0:0:0
256,192,41020,1,8,0:0:0
256,192,41095,1,8,0:0:0
256,192,41170,5,0,0:0:0
256,192,41320,1,0,0:0:0
256,192,41470,5,8,0:0:0
256,192,41770,1,8,0:0:0
256,192,41920,1,8,0:0:0
256,192,41995,5,0,0:0:0
256,192,42070,5,8,0:0:0
256,192,42220,5,0,0:0:0
256,192,42370,5,8,0:0:0
256,192,42520,5,0,0:0:0
256,192,42670,5,8,0:0:0
256,192,42745,1,8,0:0:0
256,192,42820,1,8,0:0:0
256,192,42970,1,8,0:0:0
256,192,43120,5,0,0:0:0
256,192,43270,5,8,0:0:0
256,192,43420,1,8,0:0:0
256,192,43495,1,8,0:0:0
256,192,43570,5,0,0:0:0
256,192,43720,5,8,0:0:0
256,192,43870,5,0,0:0:0
256,192,44170,5,8,0:0:0
256,192,44320,1,8,0:0:0
256,192,44395,1,8,0:0:0
256,192,44470,5,0,0:0:0
256,192,44620,1,0,0:0:0
256,192,44770,5,8,0:0:0
256,192,44920,5,0,0:0:0
256,192,45070,5,8,0:0:0
256,192,45145,1,8,0:0:0
256,192,45220,1,8,0:0:0
256,192,45370,1,8,0:0:0
256,192,45520,5,0,0:0:0
256,192,45670,5,8,0:0:0
256,192,45820,5,0,0:0:0
256,192,45895,1,0,0:0:0
256,192,45970,5,8,0:0:0
256,192,46120,5,0,0:0:0
256,192,46270,5,8,0:0:0
256,192,46570,1,8,0:0:0
256,192,46720,5,0,0:0:0
256,192,46795,1,0,0:0:0
256,192,46870,5,8,0:0:0
256,192,47020,5,0,0:0:0
256,192,47170,5,8,0:0:0
256,192,47245,5,0,0:0:0
256,192,47320,1,0,0:0:0
256,192,47395,1,0,0:0:0
256,192,47470,5,8,0:0:0
256,192,47545,5,0,0:0:0
256,192,47620,1,0,0:0:0
256,192,47695,1,0,0:0:0
256,192,47770,5,8,0:0:0
256,192,47920,5,0,0:0:0
256,192,48070,5,8,0:0:0
256,192,48145,1,8,0:0:0
256,192,48220,5,0,0:0:0
256,192,48295,1,0,0:0:0
256,192,48370,5,8,0:0:0
256,192,48445,1,8,0:0:0
256,192,48520,5,0,0:0:0
256,192,48670,5,8,0:0:0
256,192,49270,5,4,0:0:0
256,192,49720,1,0,0:0:0
256,192,49870,5,8,0:0:0
256,192,50170,1,8,0:0:0
256,192,50470,5,0,0:0:0
256,192,50770,1,0,0:0:0
256,192,51370,5,8,0:0:0
256,192,51670,5,0,0:0:0
256,192,51895,1,0,0:0:0
256,192,52120,1,0,0:0:0
256,192,52270,5,8,0:0:0
256,192,52570,1,8,0:0:0
256,192,52870,5,0,0:0:0
256,192,53170,1,0,0:0:0
256,192,54070,1,0,0:0:0
256,192,54520,1,0,0:0:0
256,192,54670,5,8,0:0:0
256,192,54970,1,8,0:0:0
256,192,55270,5,0,0:0:0
256,192,55570,1,0,0:0:0
256,192,56170,5,8,0:0:0
256,192,56470,5,0,0:0:0
256,192,56695,1,0,0:0:0
256,192,56920,1,0,0:0:0
256,192,57070,5,8,0:0:0
256,192,57370,1,8,0:0:0
256,192,57670,5,0,0:0:0
256,192,57970,1,0,0:0:0
256,192,58870,1,0,0:0:0
256,192,59170,5,8,0:0:0
256,192,59770,1,8,0:0:0
256,192,60370,1,8,0:0:0
256,192,60970,1,8,0:0:0
256,192,61270,5,0,0:0:0
256,192,61570,5,8,0:0:0
256,192,62170,1,8,0:0:0
256,192,62770,1,8,0:0:0
256,192,63370,1,8,0:0:0
256,192,63670,5,0,0:0:0
256,192,63820,1,0,0:0:0
256,192,64270,5,8,0:0:0
256,192,64720,5,0,0:0:0
256,192,64870,1,0,0:0:0
256,192,65020,1,0,0:0:0
256,192,65470,5,8,0:0:0
256,192,65770,1,8,0:0:0
256,192,65920,5,0,0:0:0
256,192,66070,1,4,0:0:0
256,192,66220,1,0,0:0:0
256,192,66370,5,8,0:0:0
256,192,66445,1,8,0:0:0
256,192,66520,1,8,0:0:0
256,192,66670,5,0,0:0:0
256,192,66820,1,0,0:0:0
256,192,66970,5,8,0:0:0
256,192,67045,1,8,0:0:0
256,192,67120,1,8,0:0:0
256,192,67195,1,8,0:0:0
256,192,67270,5,0,0:0:0
256,192,67420,12,0,68320,0:0:0
256,192,68470,5,4,0:0:0
256,192,68620,1,8,0:0:0
256,192,68695,1,8,0:0:0
256,192,68770,5,0,0:0:0
256,192,68920,5,8,0:0:0
256,192,69070,5,0,0:0:0
256,192,69145,1,0,0:0:0
256,192,69295,1,0,0:0:0
256,192,69370,5,8,0:0:0
256,192,69520,1,8,0:0:0
256,192,69670,5,0,0:0:0
256,192,69820,5,8,0:0:0
256,192,69895,1,8,0:0:0
256,192,69970,5,0,0:0:0
256,192,70120,5,8,0:0:0
256,192,70270,5,0,0:0:0
256,192,70345,1,0,0:0:0
256,192,70495,1,0,0:0:0
256,192,70570,5,8,0:0:0
256,192,70720,1,8,0:0:0
256,192,70795,1,8,0:0:0
256,192,70870,5,0,0:0:0
256,192,71020,5,8,0:0:0
256,192,71170,5,0,0:0:0
256,192,71245,5,8,0:0:0
256,192,71320,1,8,0:0:0
256,192,71470,5,0,0:0:0
256,192,71545,5,8,0:0:0
256,192,71695,5,0,0:0:0
256,192,71770,5,8,0:0:0
256,192,71920,1,8,0:0:0
256,192,72070,5,0,0:0:0
256,192,72220,5,8,0:0:0
256,192,72295,1,8,0:0:0
256,192,72370,5,0,0:0:0
256,192,72520,5,8,0:0:0
256,192,72670,5,0,0:0:0
256,192,72770,1,0,0:0:0
256,192,72870,1,0,0:0:0
256,192,72970,5,8,0:0:0
256,192,73070,1,8,0:0:0
256,192,73170,1,8,0:0:0
256,192,73270,5,0,0:0:0
256,192,73420,5,8,0:0:0
256,192,73570,5,0,0:0:0
256,192,73645,5,8,0:0:0
256,192,73720,1,8,0:0:0
256,192,73870,5,0,0:0:0
256,192,74020,5,8,0:0:0
256,192,74095,1,8,0:0:0
256,192,74170,5,0,0:0:0
256,192,74320,5,8,0:0:0
256,192,74470,5,0,0:0:0
256,192,74620,5,8,0:0:0
256,192,74695,1,8,0:0:0
256,192,74770,5,0,0:0:0
256,192,74920,5,8,0:0:0
256,192,75070,5,0,0:0:0
256,192,75220,5,8,0:0:0
256,192,75295,1,8,0:0:0
256,192,75370,5,0,0:0:0
256,192,75520,5,8,0:0:0
256,192,75670,5,0,0:0:0
256,192,75820,5,8,0:0:0
256,192,75970,5,0,0:0:0
256,192,76120,1,0,0:0:0
256,192,76270,1,0,0:0:0
256,192,76420,5,8,0:0:0
256,192,76570,5,0,0:0:0
256,192,76645,1,0,0:0:0
256,192,76720,5,8,0:0:0
256,192,76870,5,4,0:0:0
256,192,77095,1,4,0:0:0
256,192,77320,5,8,0:0:0
256,192,77395,1,8,0:0:0
256,192,77470,5,0,0:0:0
256,192,77620,1,0,0:0:0
256,192,77695,1,0,0:0:0
256,192,77770,5,8,0:0:0
256,192,77845,5,0,0:0:0
256,192,77920,1,0,0:0:0
256,192,77995,1,0,0:0:0
256,192,78070,5,8,0:0:0
256,192,78220,5,0,0:0:0
256,192,78295,1,0,0:0:0
256,192,78370,5,8,0:0:0
256,192,78520,5,0,0:0:0
256,192,78670,5,8,0:0:0
256,192,78745,1,8,0:0:0
256,192,78895,1,8,0:0:0
256,192,78970,5,0,0:0:0
256,192,79120,1,0,0:0:0
256,192,79270,5,8,0:0:0
256,192,79420,5,0,0:0:0
256,192,79495,1,0,0:0:0
256,192,79570,5,8,0:0:0
256,192,79720,5,0,0:0:0
256,192,79870,5,8,0:0:0
256,192,79945,1,8,0:0:0
256,192,80095,1,8,0:0:0
256,192,80170,5,0,0:0:0
256,192,80320,1,0,0:0:0
256,192,80470,5,8,0:0:0
256,192,80620,5,0,0:0:0
256,192,80695,1,0,0:0:0
256,192,80770,5,8,0:0:0
256,192,80920,5,0,0:0:0
256,192,81070,5,8,0:0:0
256,192,81145,5,0,0:0:0
256,192,81295,5,8,0:0:0
256,192,81370,5,0,0:0:0
256,192,81520,1,0,0:0:0
256,192,81670,5,8,0:0:0
256,192,81745,5,0,0:0:0
256,192,81820,1,0,0:0:0
256,192,81970,5,8,0:0:0
256,192,82120,5,0,0:0:0
256,192,82270,5,8,0:0:0
256,192,82370,1,8,0:0:0
256,192,82470,1,8,0:0:0
256,192,82570,5,0,0:0:0
256,192,82670,1,0,0:0:0
256,192,82770,1,0,0:0:0
256,192,82870,5,8,0:0:0
256,192,83020,5,0,0:0:0
256,192,83095,1,0,0:0:0
256,192,83170,5,8,0:0:0
256,192,83320,5,0,0:0:0
256,192,83470,5,8,0:0:0
256,192,83545,5,0,0:0:0
256,192,83620,1,0,0:0:0
256,192,83770,5,8,0:0:0
256,192,83920,5,0,0:0:0
256,192,84070,5,8,0:0:0
256,192,84220,5,0,0:0:0
256,192,84295,1,0,0:0:0
256,192,84370,5,8,0:0:0
256,192,84520,5,0,0:0:0
256,192,84670,5,8,0:0:0
256,192,84820,5,0,0:0:0
256,192,84895,1,0,0:0:0
256,192,84970,5,8,0:0:0
256,192,85120,5,0,0:0:0
256,192,85270,5,8,0:0:0
256,192,85420,5,0,0:0:0
256,192,85570,5,8,0:0:0
256,192,85720,1,8,0:0:0
256,192,85870,1,8,0:0:0
256,192,86020,5,0,0:0:0
256,192,86170,5,8,0:0:0
256,192,86245,1,8,0:0:0
256,192,86320,5,0,0:0:0
256,192,86470,1,4,0:0:0
256,192,86695,5,12,0:0:0
256,192,86920,5,4,0:0:0
256,192,87070,5,12,0:0:0
256,192,87370,5,0,0:0:0
256,192,87520,5,8,0:0:0
256,192,87595,1,8,0:0:0
256,192,87670,5,0,0:0:0
256,192,87895,5,8,0:0:0
256,192,87970,5,0,0:0:0
256,192,88120,5,8,0:0:0
256,192,88270,5,0,0:0:0
256,192,88345,5,8,0:0:0
256,192,88420,1,8,0:0:0
256,192,88570,5,0,0:0:0
256,192,88720,5,8,0:0:0
256,192,88870,5,0,0:0:0
256,192,89020,5,8,0:0:0
256,192,89095,1,8,0:0:0
256,192,89170,5,0,0:0:0
256,192,89320,5,8,0:0:0
256,192,89470,5,0,0:0:0
256,192,89770,1,0,0:0:0
256,192,89920,5,8,0:0:0
256,192,89995,1,8,0:0:0
256,192,90070,5,0,0:0:0
256,192,90295,5,8,0:0:0
256,192,90370,5,0,0:0:0
256,192,90520,5,8,0:0:0
256,192,90670,5,0,0:0:0
256,192,90745,5,8,0:0:0
256,192,90820,1,8,0:0:0
256,192,90970,5,0,0:0:0
256,192,91120,5,8,0:0:0
256,192,91195,1,8,0:0:0
256,192,91270,5,0,0:0:0
256,192,91420,1,0,0:0:0
256,192,91570,5,8,0:0:0
256,192,91720,5,0,0:0:0
256,192,91870,1,0,0:0:0
256,192,91970,5,8,0:0:0
256,192,92070,5,0,0:0:0
256,192,92170,5,8,0:0:0
256,192,92270,5,0,0:0:0
256,192,92370,1,0,0:0:0
256,192,92470,5,8,0:0:0
256,192,92695,5,0,0:0:0
256,192,92770,5,8,0:0:0
256,192,92920,5,0,0:0:0
256,192,93070,5,8,0:0:0
256,192,93220,5,0,0:0:0
256,192,93295,1,0,0:0:0
256,192,93370,5,8,0:0:0
256,192,93520,5,0,0:0:0
256,192,93670,5,8,0:0:0
256,192,93820,5,0,0:0:0
256,192,93895,1,0,0:0:0
256,192,93970,5,8,0:0:0
256,192,94120,5,0,0:0:0
256,192,94270,1,0,0:0:0
256,192,94570,5,8,0:0:0
256,192,94720,5,0,0:0:0
256,192,94870,5,12,0:0:0
256,192,95070,5,4,0:0:0
256,192,95270,5,12,0:0:0
256,192,95470,5,0,0:0:0
256,192,95570,1,0,0:0:0
256,192,95670,5,8,0:0:0
256,192,95770,1,8,0:0:0
256,192,95870,5,0,0:0:0
256,192,95970,1,0,0:0:0
256,192,96070,5,12,0:0:0
256,192,96220,12,0,97120,0:0:0
256,192,97270,5,0,0:0:0
256,192,97570,1,4,0:0:0
256,192,97720,5,8,0:0:0
256,192,97870,5,0,0:0:0
256,192,97945,1,0,0:0:0
256,192,98020,5,8,0:0:0
256,192,98170,1,8,0:0:0
256,192,98320,5,0,0:0:0
256,192,98470,5,8,0:0:0
256,192,98620,5,0,0:0:0
256,192,98695,1,0,0:0:0
256,192,98770,5,8,0:0:0
256,192,98920,1,8,0:0:0
256,192,99070,5,0,0:0:0
256,192,99370,5,8,0:0:0
256,192,99520,5,0,0:0:0
256,192,99670,1,4,0:0:0
256,192,99970,5,8,0:0:0
256,192,100120,5,0,0:0:0
256,192,100270,5,8,0:0:0
256,192,100345,1,8,0:0:0
256,192,100420,5,0,0:0:0
256,192,100570,1,0,0:0:0
256,192,100720,5,8,0:0:0
256,192,100870,5,0,0:0:0
256,192,101020,5,8,0:0:0
256,192,101095,1,8,0:0:0
256,192,101170,5,0,0:0:0
256,192,101320,5,8,0:0:0
256,192,101470,5,0,0:0:0
256,192,101570,5,8,0:0:0
256,192,101670,5,0,0:0:0
256,192,101770,1,0,0:0:0
256,192,101870,1,0,0:0:0
256,192,101970,1,0,0:0:0
256,192,102070,5,12,0:0:0
256,192,102370,1,8,0:0:0
256,192,102520,5,0,0:0:0
256,192,102670,5,8,0:0:0
256,192,102745,5,0,0:0:0
256,192,102820,1,0,0:0:0
256,192,102970,5,8,0:0:0
256,192,103120,5,0,0:0:0
256,192,103270,5,8,0:0:0
256,192,103420,5,0,0:0:0
256,192,103495,1,0,0:0:0
256,192,103570,5,8,0:0:0
256,192,103720,5,0,0:0:0
256,192,103870,5,8,0:0:0
256,192,104020,5,0,0:0:0
256,192,104170,1,0,0:0:0
256,192,104245,1,0,0:0:0
256,192,104320,1,0,0:0:0
256,192,104470,1,4,0:0:0
256,192,104670,1,4,0:0:0
256,192,104870,5,12,0:0:0
256,192,105070,5,0,0:0:0
256,192,105170,1,0,0:0:0
256,192,105270,5,8,0:0:0
256,192,105370,5,0,0:0:0
256,192,105470,5,8,0:0:0
256,192,105570,1,8,0:0:0
256,192,105670,5,0,0:0:0
256,192,105770,5,8,0:0:0
256,192,105870,5,0,0:0:0
256,192,105970,1,0,0:0:0
256,192,106070,5,8,0:0:0
256,192,106170,1,8,0:0:0
256,192,106270,5,4,0:0:0
256,192,106870,1,4,0:0:0
256,192,107020,5,8,0:0:0
256,192,107170,5,0,0:0:0
256,192,107245,1,0,0:0:0
256,192,107320,5,8,0:0:0
256,192,107470,5,0,0:0:0
256,192,107620,5,8,0:0:0
256,192,107695,1,8,0:0:0
256,192,107770,5,0,0:0:0
256,192,107920,1,0,0:0:0
256,192,108070,5,8,0:0:0
256,192,108220,5,0,0:0:0
256,192,108295,1,0,0:0:0
256,192,108370,1,0,0:0:0
256,192,108520,5,8,0:0:0
256,192,108670,5,0,0:0:0
256,192,108820,5,8,0:0:0
256,192,108895,1,8,0:0:0
256,192,108970,5,0,0:0:0
256,192,109120,5,8,0:0:0
256,192,109270,5,4,0:0:0
256,192,109420,5,8,0:0:0
256,192,109570,5,0,0:0:0
256,192,109645,1,0,0:0:0
256,192,109720,5,8,0:0:0
256,192,109870,5,0,0:0:0
256,192,110020,1,0,0:0:0
256,192,110095,1,0,0:0:0
256,192,110170,5,8,0:0:0
256,192,110320,1,8,0:0:0
256,192,110470,5,0,0:0:0
256,192,110620,5,8,0:0:0
256,192,110695,1,8,0:0:0
256,192,110770,5,0,0:0:0
256,192,110920,5,8,0:0:0
256,192,111070,1,8,0:0:0
256,192,111170,5,0,0:0:0
256,192,111270,1,0,0:0:0
256,192,111370,5,8,0:0:0
256,192,111470,5,0,0:0:0
256,192,111570,1,0,0:0:0
256,192,111670,5,8,0:0:0
256,192,111820,1,8,0:0:0
256,192,111895,1,8,0:0:0
256,192,111970,5,0,0:0:0
256,192,112120,5,8,0:0:0
256,192,112270,5,0,0:0:0
256,192,112420,5,8,0:0:0
256,192,112495,5,0,0:0:0
256,192,112570,1,0,0:0:0
256,192,112720,1,0,0:0:0
256,192,112870,5,8,0:0:0
256,192,113020,5,0,0:0:0
256,192,113095,1,0,0:0:0
256,192,113170,5,8,0:0:0
256,192,113320,5,0,0:0:0
256,192,113470,5,8,0:0:0
256,192,113620,5,0,0:0:0
256,192,113695,1,0,0:0:0
256,192,113770,5,8,0:0:0
256,192,113920,5,0,0:0:0
256,192,114070,5,12,0:0:0
256,192,114270,5,4,0:0:0
256,192,114470,1,4,0:0:0
256,192,114670,5,12,0:0:0
256,192,114870,5,4,0:0:0
256,192,115070,1,4,0:0:0
256,192,115270,5,12,0:0:0
256,192,115470,1,12,0:0:0
256,192,115670,5,4,0:0:0
256,192,115870,5,12,0:0:0
256,192,116170,5,0,0:0:0
256,192,116245,1,0,0:0:0
256,192,116320,1,0,0:0:0
256,192,116395,1,0,0:0:0
256,192,116470,5,8,0:0:0
256,192,116620,5,0,0:0:0
256,192,116695,1,0,0:0:0
256,192,116770,5,8,0:0:0
256,192,116920,1,8,0:0:0
256,192,117070,5,0,0:0:0
256,192,117220,1,0,0:0:0
256,192,117295,1,0,0:0:0
256,192,117370,5,8,0:0:0
256,192,117520,5,0,0:0:0
256,192,117670,5,8,0:0:0
256,192,117820,1,8,0:0:0
256,192,117895,1,8,0:0:0
256,192,117970,5,0,0:0:0
256,192,118120,1,0,0:0:0
256,192,118270,5,8,0:0:0
256,192,118570,1,8,0:0:0
256,192,118720,5,0,0:0:0
256,192,118795,1,0,0:0:0
256,192,118870,5,8,0:0:0
256,192,119020,1,8,0:0:0
256,192,119095,1,8,0:0:0
256,192,119170,5,0,0:0:0
256,192,119320,1,0,0:0:0
256,192,119470,5,8,0:0:0
256,192,119620,5,0,0:0:0
256,192,119695,1,0,0:0:0
256,192,119770,5,8,0:0:0
256,192,119920,1,8,0:0:0
256,192,120070,5,0,0:0:0
256,192,120220,5,8,0:0:0
256,192,120295,1,8,0:0:0
256,192,120370,5,0,0:0:0
256,192,120520,5,8,0:0:0
256,192,120670,5,0,0:0:0
256,192,120970,5,8,0:0:0
256,192,121120,1,8,0:0:0
256,192,121195,1,8,0:0:0
256,192,121270,5,0,0:0:0
256,192,121420,5,8,0:0:0
256,192,121495,1,8,0:0:0
256,192,121570,5,0,0:0:0
256,192,121720,1,0,0:0:0
256,192,121870,5,8,0:0:0
256,192,122020,5,0,0:0:0
256,192,122095,1,0,0:0:0
256,192,122170,5,8,0:0:0
256,192,122320,5,0,0:0:0
256,192,122470,5,8,0:0:0
256,192,122620,1,8,0:0:0
256,192,122695,1,8,0:0:0
256,192,122770,5,0,0:0:0
256,192,122920,5,8,0:0:0
256,192,123070,5,0,0:0:0
256,192,123370,5,8,0:0:0
256,192,123520,5,0,0:0:0
256,192,123595,1,0,0:0:0
256,192,123670,5,8,0:0:0
256,192,123820,5,0,0:0:0
256,192,123970,5,8,0:0:0
256,192,124045,5,0,0:0:0
256,192,124120,1,0,0:0:0
256,192,124195,1,0,0:0:0
256,192,124270,5,8,0:0:0
256,192,124345,5,0,0:0:0
256,192,124420,1,0,0:0:0
256,192,124495,1,0,0:0:0
256,192,124570,5,8,0:0:0
256,192,124720,5,0,0:0:0
256,192,124870,5,8,0:0:0
256,192,124945,1,8,0:0:0
256,192,125020,5,0,0:0:0
256,192,125095,1,0,0:0:0
256,192,125170,5,8,0:0:0
256,192,125245,1,8,0:0:0
256,192,125320,5,0,0:0:0
256,192,125470,5,8,0:0:0
256,192,126070,5,4,0:0:0
256,192,126520,1,0,0:0:0
256,192,126670,5,8,0:0:0
256,192,126970,1,8,0:0:0
256,192,127270,5,0,0:0:0
256,192,127570,1,0,0:0:0
256,192,128170,5,8,0:0:0
256,192,128470,5,0,0:0:0
256,192,128695,1,0,0:0:0
256,192,128920,1,0,0:0:0
256,192,129070,5,8,0:0:0
256,192,129370,1,8,0:0:0
256,192,129670,5,0,0:0:0
256,192,129970,1,0,0:0:0
256,192,130870,1,0,0:0:0
256,192,131320,5,8,0:0:0
256,192,131470,5,0,0:0:0
256,192,131770,5,8,0:0:0
256,192,132070,5,0,0:0:0
256,192,132370,1,0,0:0:0
256,192,132970,5,8,0:0:0
256,192,133270,5,0,0:0:0
256,192,133495,1,0,0:0:0
256,192,133720,1,0,0:0:0
256,192,133870,5,8,0:0:0
256,192,134170,1,8,0:0:0
256,192,134470,5,0,0:0:0
256,192,134770,1,0,0:0:0
256,192,135370,1,0,0:0:0
256,192,135670,5,8,0:0:0
256,192,136270,1,8,0:0:0
256,192,136870,1,8,0:0:0
256,192,137170,5,0,0:0:0
256,192,137470,5,8,0:0:0
256,192,138070,1,8,0:0:0
256,192,138370,5,0,0:0:0
256,192,138670,5,8,0:0:0
256,192,139270,1,8,0:0:0
256,192,139570,5,0,0:0:0
256,192,139720,5,8,0:0:0
256,192,140020,1,8,0:0:0
256,192,140470,5,0,0:0:0
256,192,140620,1,0,0:0:0
256,192,141070,5,8,0:0:0
256,192,141520,5,0,0:0:0
256,192,141670,1,0,0:0:0
256,192,141820,1,0,0:0:0
256,192,142270,5,8,0:0:0
256,192,142570,1,8,0:0:0
256,192,142720,5,0,0:0:0
256,192,142870,1,4,0:0:0
256,192,143020,1,0,0:0:0
256,192,143320,1,0,0:0:0
256,192,143470,1,0,0:0:0
256,192,143770,5,8,0:0:0
256,192,143920,1,8,0:0:0
256,192,144070,5,0,0:0:0
256,192,144220,12,0,145120,0:0:0
256,192,145270,5,4,0:0:0
256,192,154870,5,4,0:0:0
256,192,159670,1,4,0:0:0
256,192,159970,5,8,0:0:0
256,192,160120,1,8,0:0:0
256,192,160270,5,0,0:0:0
256,192,160345,1,0,0:0:0
256,192,160420,5,8,0:0:0
256,192,160570,5,0,0:0:0
256,192,160720,1,4,0:0:0
256,192,160870,1,4,0:0:0
256,192,161170,1,0,0:0:0
256,192,161245,1,0,0:0:0
256,192,161320,5,8,0:0:0
256,192,161470,5,0,0:0:0
256,192,161620,5,8,0:0:0
256,192,161695,1,8,0:0:0
256,192,161770,5,0,0:0:0
256,192,161920,1,4,0:0:0
256,192,162070,1,4,0:0:0
256,192,162370,5,8,0:0:0
256,192,162520,5,0,0:0:0
256,192,162670,1,4,0:0:0
256,192,162970,5,8,0:0:0
256,192,163120,5,0,0:0:0
256,192,163270,1,4,0:0:0
256,192,163570,1,4,0:0:0
256,192,163870,1,4,0:0:0
256,192,164170,1,4,0:0:0
256,192,164770,1,4,0:0:0
256,192,164920,5,8,0:0:0
256,192,164995,1,8,0:0:0
256,192,165070,5,0,0:0:0
256,192,165220,1,0,0:0:0
256,192,165370,5,8,0:0:0
256,192,165445,5,0,0:0:0
256,192,165595,1,0,0:0:0
256,192,165670,5,8,0:0:0
256,192,165820,1,8,0:0:0
256,192,165970,5,0,0:0:0
256,192,166120,5,8,0:0:0
256,192,166195,1,8,0:0:0
256,192,166270,5,0,0:0:0
256,192,166420,1,0,0:0:0
256,192,166570,5,8,0:0:0
256,192,166645,1,8,0:0:0
256,192,166795,5,0,0:0:0
256,192,166870,5,8,0:0:0
256,192,167020,5,0,0:0:0
256,192,167170,5,8,0:0:0
256,192,167320,1,8,0:0:0
256,192,167395,1,8,0:0:0
256,192,167470,5,0,0:0:0
256,192,167620,5,8,0:0:0
256,192,167770,5,0,0:0:0
256,192,167845,5,8,0:0:0
256,192,167995,1,8,0:0:0
256,192,168070,5,0,0:0:0
256,192,168220,1,0,0:0:0
256,192,168370,5,8,0:0:0
256,192,168520,5,0,0:0:0
256,192,168595,1,0,0:0:0
256,192,168670,5,8,0:0:0
256,192,168820,1,8,0:0:0
256,192,168970,5,0,0:0:0
256,192,169070,1,0,0:0:0
256,192,169170,1,0,0:0:0
256,192,169270,5,8,0:0:0
256,192,169370,1,8,0:0:0
256,192,169470,1,8,0:0:0
256,192,169570,5,0,0:0:0
256,192,169720,5,8,0:0:0
256,192,169795,1,8,0:0:0
256,192,169870,5,0,0:0:0
256,192,170020,5,8,0:0:0
256,192,170170,5,0,0:0:0
256,192,170320,5,8,0:0:0
256,192,170395,1,8,0:0:0
256,192,170470,5,0,0:0:0
256,192,170620,1,0,0:0:0
256,192,170770,5,8,0:0:0
256,192,170920,5,0,0:0:0
256,192,170995,1,0,0:0:0
256,192,171070,5,8,0:0:0
256,192,171220,1,8,0:0:0
256,192,171370,5,0,0:0:0
256,192,171520,1,0,0:0:0
256,192,171595,1,0,0:0:0
256,192,171670,5,8,0:0:0
256,192,171820,5,0,0:0:0
256,192,171970,5,8,0:0:0
256,192,172120,5,0,0:0:0
256,192,172270,5,8,0:0:0
256,192,172420,5,0,0:0:0
256,192,172570,1,0,0:0:0
256,192,172720,5,8,0:0:0
256,192,172870,1,8,0:0:0
256,192,173020,5,0,0:0:0
256,192,173170,1,4,0:0:0
256,192,173395,5,12,0:0:0
256,192,173620,1,8,0:0:0
256,192,173695,1,8,0:0:0
256,192,173770,5,0,0:0:0
256,192,173845,1,0,0:0:0
256,192,173920,1,0,0:0:0
256,192,173995,1,0,0:0:0
256,192,174070,5,8,0:0:0
256,192,174220,1,8,0:0:0
256,192,174370,5,4,0:0:0
256,192,174520,5,8,0:0:0
256,192,174595,1,8,0:0:0
256,192,174670,5,0,0:0:0
256,192,174820,1,0,0:0:0
256,192,174970,5,8,0:0:0
256,192,175045,5,0,0:0:0
256,192,175195,5,8,0:0:0
256,192,175270,1,8,0:0:0
256,192,175420,5,0,0:0:0
256,192,175570,5,8,0:0:0
256,192,175720,5,0,0:0:0
256,192,175795,1,0,0:0:0
256,192,175870,5,8,0:0:0
256,192,176020,5,0,0:0:0
256,192,176170,1,0,0:0:0
256,192,176245,1,0,0:0:0
256,192,176395,1,0,0:0:0
256,192,176470,5,8,0:0:0
256,192,176620,5,0,0:0:0
256,192,176770,5,8,0:0:0
256,192,176920,1,8,0:0:0
256,192,176995,1,8,0:0:0
256,192,177070,5,0,0:0:0
256,192,177220,1,0,0:0:0
256,192,177370,5,8,0:0:0
256,192,177445,5,0,0:0:0
256,192,177595,1,0,0:0:0
256,192,177670,5,8,0:0:0
256,192,177820,1,8,0:0:0
256,192,177970,5,0,0:0:0
256,192,178120,5,8,0:0:0
256,192,178195,1,8,0:0:0
256,192,178270,5,0,0:0:0
256,192,178420,5,8,0:0:0
256,192,178570,1,8,0:0:0
256,192,178670,1,8,0:0:0
256,192,178770,1,8,0:0:0
256,192,178870,5,0,0:0:0
256,192,178970,1,0,0:0:0
256,192,179070,1,0,0:0:0
256,192,179170,5,8,0:0:0
256,192,179320,5,0,0:0:0
256,192,179395,1,0,0:0:0
256,192,179470,5,8,0:0:0
256,192,179620,1,8,0:0:0
256,192,179770,5,0,0:0:0
256,192,179920,1,0,0:0:0
256,192,179995,1,0,0:0:0
256,192,180070,5,8,0:0:0
256,192,180220,5,0,0:0:0
256,192,180370,5,8,0:0:0
256,192,180520,1,8,0:0:0
256,192,180595,1,8,0:0:0
256,192,180670,5,0,0:0:0
256,192,180820,5,8,0:0:0
256,192,180970,5,0,0:0:0
256,192,181120,5,8,0:0:0
256,192,181195,1,8,0:0:0
256,192,181270,5,0,0:0:0
256,192,181420,5,8,0:0:0
256,192,181570,5,0,0:0:0
256,192,181720,5,8,0:0:0
256,192,181870,5,0,0:0:0
256,192,182020,1,0,0:0:0
256,192,182170,5,8,0:0:0
256,192,182320,5,0,0:0:0
256,192,182470,5,8,0:0:0
256,192,182620,1,8,0:0:0
256,192,182770,5,4,0:0:0
256,192,182995,5,12,0:0:0
256,192,183220,5,4,0:0:0
256,192,183370,1,0,0:0:0
256,192,183445,1,0,0:0:0
256,192,183520,1,0,0:0:0
256,192,183595,1,0,0:0:0
256,192,183670,5,8,0:0:0
256,192,183820,5,0,0:0:0
256,192,183970,1,4,0:0:0
256,192,184116,1,0,0:0:0
256,192,184189,5,8,0:0:0
256,192,184262,5,0,0:0:0
256,192,184409,5,8,0:0:0
256,192,184555,5,0,0:0:0
256,192,184701,5,8,0:0:0
256,192,184774,1,8,0:0:0
256,192,184848,5,0,0:0:0
256,192,184994,5,8,0:0:0
256,192,185140,5,0,0:0:0
256,192,185287,5,8,0:0:0
256,192,185360,5,0,0:0:0
256,192,185433,1,0,0:0:0
256,192,185579,1,0,0:0:0
256,192,185726,5,8,0:0:0
256,192,185872,5,0,0:0:0
256,192,185945,1,0,0:0:0
256,192,186018,5,8,0:0:0
256,192,186165,5,0,0:0:0
256,192,186311,1,4,0:0:0
256,192,186457,5,8,0:0:0
256,192,186530,1,8,0:0:0
256,192,186604,5,0,0:0:0
256,192,186750,5,8,0:0:0
256,192,186896,5,0,0:0:0
256,192,187043,1,0,0:0:0
256,192,187116,5,8,0:0:0
256,192,187189,5,0,0:0:0
256,192,187335,1,0,0:0:0
256,192,187482,5,8,0:0:0
256,192,187628,5,0,0:0:0
256,192,187701,1,0,0:0:0
256,192,187774,5,8,0:0:0
256,192,187921,5,0,0:0:0
256,192,188067,5,8,0:0:0
256,192,188165,5,0,0:0:0
256,192,188262,1,0,0:0:0
256,192,188360,5,8,0:0:0
256,192,188457,1,8,0:0:0
256,192,188555,1,8,0:0:0
256,192,188652,5,0,0:0:0
256,192,188794,1,0,0:0:0
256,192,188937,5,8,0:0:0
256,192,189080,5,0,0:0:0
256,192,189223,5,8,0:0:0
256,192,189366,5,0,0:0:0
256,192,189437,1,0,0:0:0
256,192,189509,5,8,0:0:0
256,192,189652,5,0,0:0:0
256,192,189794,5,8,0:0:0
256,192,189937,5,0,0:0:0
256,192,190080,5,8,0:0:0
256,192,190223,5,0,0:0:0
256,192,190294,1,0,0:0:0
256,192,190366,5,8,0:0:0
256,192,190509,5,0,0:0:0
256,192,190652,5,8,0:0:0
256,192,190723,1,8,0:0:0
256,192,190794,5,0,0:0:0
256,192,190937,5,12,0:0:0
256,192,191128,5,4,0:0:0
256,192,191318,1,4,0:0:0
256,192,191509,5,12,0:0:0
256,192,191699,5,4,0:0:0
256,192,191890,1,4,0:0:0
256,192,192080,12,0,193080,0:0:0
256,192,193223,5,0,0:0:0
256,192,193502,5,4,0:0:0
256,192,193641,1,0,0:0:0
256,192,193781,5,8,0:0:0
256,192,193920,5,0,0:0:0
256,192,193990,1,0,0:0:0
256,192,194060,5,8,0:0:0
256,192,194199,5,0,0:0:0
256,192,194269,1,0,0:0:0
256,192,194339,1,0,0:0:0
256,192,194478,1,0,0:0:0
256,192,194618,5,8,0:0:0
256,192,194757,5,0,0:0:0
256,192,194827,1,0,0:0:0
256,192,194897,5,8,0:0:0
256,192,195036,1,8,0:0:0
256,192,195176,1,8,0:0:0
256,192,195316,5,0,0:0:0
256,192,195455,1,4,0:0:0
256,192,195734,5,8,0:0:0
256,192,195874,5,0,0:0:0
256,192,196013,5,8,0:0:0
256,192,196153,5,0,0:0:0
256,192,196223,1,0,0:0:0
256,192,196292,5,8,0:0:0
256,192,196432,1,8,0:0:0
256,192,196502,1,8,0:0:0
256,192,196571,5,0,0:0:0
256,192,196711,5,8,0:0:0
256,192,196850,5,0,0:0:0
256,192,196990,5,8,0:0:0
256,192,197129,5,0,0:0:0
256,192,197223,1,0,0:0:0
256,192,197316,1,0,0:0:0
256,192,197409,5,8,0:0:0
256,192,197502,1,8,0:0:0
256,192,197595,1,8,0:0:0
256,192,197688,5,4,0:0:0
256,192,197967,5,8,0:0:0
256,192,198106,5,0,0:0:0
256,192,198246,5,8,0:0:0
256,192,198316,1,8,0:0:0
256,192,198385,1,8,0:0:0
256,192,198525,1,8,0:0:0
256,192,198664,5,0,0:0:0
256,192,198804,5,8,0:0:0
256,192,198943,5,0,0:0:0
256,192,199013,1,0,0:0:0
256,192,199083,5,8,0:0:0
256,192,199223,5,0,0:0:0
256,192,199362,5,8,0:0:0
256,192,199502,1,8,0:0:0
256,192,199641,5,0,0:0:0
256,192,199781,1,0,0:0:0
256,192,199920,5,12,0:0:0
256,192,200106,1,12,0:0:0
256,192,200292,5,4,0:0:0
256,192,200478,5,8,0:0:0
256,192,200571,1,8,0:0:0
256,192,200664,5,0,0:0:0
256,192,200757,1,0,0:0:0
256,192,200850,5,8,0:0:0
256,192,200943,5,0,0:0:0
256,192,201036,5,8,0:0:0
256,192,201129,1,8,0:0:0
256,192,201223,5,0,0:0:0
256,192,201316,1,0,0:0:0
256,192,201409,5,8,0:0:0
256,192,201502,1,8,0:0:0
256,192,201595,5,4,0:0:0
256,192,202153,1,4,0:0:0
256,192,202289,5,8,0:0:0
256,192,202425,5,0,0:0:0
256,192,202562,5,8,0:0:0
256,192,202698,5,0,0:0:0
256,192,202834,5,8,0:0:0
256,192,202903,1,8,0:0:0
256,192,202971,5,0,0:0:0
256,192,203107,5,8,0:0:0
256,192,203243,5,0,0:0:0
256,192,203312,1,0,0:0:0
256,192,203380,1,0,0:0:0
256,192,203516,5,8,0:0:0
256,192,203653,5,0,0:0:0
256,192,203789,1,0,0:0:0
256,192,203857,1,0,0:0:0
256,192,203925,1,0,0:0:0
256,192,204062,5,8,0:0:0
256,192,204198,1,8,0:0:0
256,192,204334,5,0,0:0:0
256,192,204471,5,8,0:0:0
256,192,204539,1,8,0:0:0
256,192,204607,5,0,0:0:0
256,192,204743,5,8,0:0:0
256,192,204880,5,0,0:0:0
256,192,205016,5,8,0:0:0
256,192,205084,1,8,0:0:0
256,192,205153,5,0,0:0:0
256,192,205289,5,8,0:0:0
256,192,205425,5,0,0:0:0
256,192,205493,1,0,0:0:0
256,192,205562,1,0,0:0:0
256,192,205698,5,8,0:0:0
256,192,205834,5,0,0:0:0
256,192,205971,1,0,0:0:0
256,192,206062,5,8,0:0:0
256,192,206153,1,8,0:0:0
256,192,206243,5,0,0:0:0
256,192,206334,5,8,0:0:0
256,192,206425,1,8,0:0:0
256,192,206516,5,4,0:0:0
256,192,206808,5,8,0:0:0
256,192,206955,5,0,0:0:0
256,192,207101,1,0,0:0:0
256,192,207174,1,0,0:0:0
256,192,207247,1,0,0:0:0
256,192,207394,5,8,0:0:0
256,192,207540,5,0,0:0:0
256,192,207686,5,8,0:0:0
256,192,207843,5,0,0:0:0
256,192,208001,5,8,0:0:0
256,192,208159,5,0,0:0:0
256,192,208317,1,0,0:0:0
256,192,208475,1,0,0:0:0
256,192,208633,1,0,0:0:0
256,192,208712,1,0,0:0:0
256,192,208791,1,0,0:0:0
256,192,208949,1,4,0:0:0
256,192,209177,1,0,0:0:0
256,192,209406,5,8,0:0:0
256,192,209634,5,0,0:0:0
256,192,209759,1,0,0:0:0
256,192,209884,5,8,0:0:0
256,192,210134,5,0,0:0:0
256,192,210384,1,0,0:0:0
256,192,210517,1,0,0:0:0
256,192,210650,5,8,0:0:0
256,192,210784,1,8,0:0:0
256,192,210917,5,0,0:0:0
256,192,211050,1,0,0:0:0
256,192,211184,5,12,0:0:0
