osu file format v11

[General]
AudioFilename: Kakuzetsu Thanatos.mp3
AudioLeadIn: 1000
PreviewTime: 68164
Countdown: 0
SampleSet: Normal
StackLeniency: 0.4
Mode: 0
LetterboxInBreaks: 0

[Editor]
DistanceSpacing: 1
BeatDivisor: 4
GridSize: 4

[Metadata]
Title:Kakuzetsu Thanatos
TitleUnicode:隔絶≡タナトス
Artist:Rohi
ArtistUnicode:ろひ
Creator:NatsumeRin
Version:Skystar
Source:Vocaloid
Tags:Kagamine Rin Amamiya Yuko Pokie RLC hs714 qoot8123
BeatmapID:215906
BeatmapSetID:76396

[Difficulty]
HPDrainRate:6
CircleSize:4
OverallDifficulty:8
ApproachRate:9
SliderMultiplier:2.4
SliderTickRate:1

[Events]
//Background and Video events
0,0,"BG.JPG"
Video,0,"PV.flv"
//Break Periods
2,87869,96670
//Storyboard Layer 0 (Background)
//Storyboard Layer 1 (Fail)
//Storyboard Layer 2 (Pass)
//Storyboard Layer 3 (Foreground)
//Storyboard Sound Samples
//Background Colour Transformations
3,100,163,162,255

[TimingPoints]
70,300,4,2,1,20,1,0
970,-166.666666666667,4,2,1,20,0,0
4270,-166.666666666667,4,2,1,25,0,0
4870,-166.666666666667,4,2,1,30,0,0
5470,-166.666666666667,4,2,1,20,0,0
5620,-166.666666666667,4,2,1,5,0,0
5770,-166.666666666667,4,2,1,20,0,0
6070,-100,4,2,1,20,0,0
6670,-100,4,2,1,15,0,0
6707,-100,4,2,1,10,0,0
7270,-100,4,2,1,20,0,0
7870,-100,4,2,1,15,0,0
7907,-100,4,2,1,10,0,0
8470,-166.666666666667,4,2,1,30,0,0
8620,-166.666666666667,4,2,1,5,0,0
8770,-166.666666666667,4,1,1,20,0,0
9070,-166.666666666667,4,1,1,25,0,0
9370,-166.666666666667,4,1,1,30,0,0
9670,-166.666666666667,4,1,1,35,0,0
9970,-166.666666666667,4,1,1,40,0,0
10270,-166.666666666667,4,1,1,45,0,0
10570,-100,4,2,1,60,0,0
10607,-100,4,1,1,30,0,0
10870,-100,4,1,1,70,0,1
10945,-100,4,1,1,70,0,0
15670,-100,4,1,1,70,0,1
15745,-100,4,1,1,70,0,0
19870,-166.666666666667,4,1,1,50,0,0
20320,-125,4,1,1,50,0,0
28870,-125,4,1,1,45,0,0
29470,-125,4,1,1,50,0,0
30070,-100,4,1,1,70,0,1
30145,-100,4,1,1,70,0,0
34870,-100,4,1,1,70,0,1
34945,-100,4,1,1,70,0,0
39070,-166.666666666667,4,1,1,60,0,0
39520,-125,4,1,3,60,0,0
46870,-125,4,1,1,30,0,0
47470,-125,4,1,1,35,0,0
47770,-125,4,1,1,40,0,0
48070,-125,4,1,1,45,0,0
48970,-166.666666666667,4,1,1,50,0,0
58870,-125,4,1,3,50,0,0
63670,-125,4,1,1,70,0,0
63970,-125,4,1,1,50,0,0
64720,-125,4,1,1,70,0,0
64795,-125,4,1,1,50,0,0
64870,-125,4,1,1,70,0,0
65170,-125,4,1,1,50,0,0
65920,-125,4,1,1,70,0,0
66145,-125,4,1,1,50,0,0
66220,-125,4,1,1,70,0,0
66295,-125,4,1,1,50,0,0
66520,-125,4,1,1,70,0,0
66595,-125,4,1,1,50,0,0
66670,-125,4,1,1,70,0,0
66745,-125,4,1,1,50,0,0
66820,-125,4,1,1,70,0,0
66895,-125,4,1,1,50,0,0
67120,-125,4,1,1,70,0,0
67195,-125,4,1,1,50,0,0
67270,-125,4,1,1,70,0,0
68170,-166.666666666667,4,2,1,50,0,0
68470,-100,4,1,1,80,0,1
69070,-125,4,1,1,80,0,1
69370,-100,4,1,1,80,0,1
70270,-125,4,1,1,80,0,1
70570,-100,4,1,1,80,0,1
71470,-125,4,1,1,80,0,1
71695,-100,4,1,1,80,0,1
72070,-125,4,1,1,80,0,1
72370,-100,4,1,1,80,0,1
73195,-100,4,1,1,80,0,0
73270,-100,4,1,1,80,0,1
76870,-100,4,1,1,80,0,0
78070,-100,4,1,1,80,0,1
78670,-125,4,1,1,80,0,1
78895,-100,4,1,1,80,0,1
79870,-125,4,1,1,80,0,1
80170,-100,4,1,1,80,0,1
81070,-125,4,1,1,80,0,1
81295,-100,4,1,1,80,0,1
81670,-125,4,1,1,80,0,1
81970,-100,4,1,1,80,0,1
82795,-100,4,1,1,80,0,0
82870,-100,4,1,1,80,0,1
86470,-100,4,1,1,80,0,0
87670,-100,4,1,1,80,0,1
87745,-100,4,1,1,80,0,0
97270,-200,4,1,1,40,0,0
97570,-125,4,1,1,50,0,0
104470,-125,4,1,1,60,0,0
106870,-100,4,1,1,70,0,1
106945,-100,4,1,1,70,0,0
111670,-100,4,1,1,70,0,1
111745,-100,4,1,1,70,0,0
116470,-125,4,1,3,60,0,0
123670,-125,4,1,1,30,0,0
124270,-125,4,1,1,35,0,0
124570,-125,4,1,1,40,0,0
124870,-125,4,1,1,45,0,0
125770,-166.666666666667,4,1,1,50,0,0
135670,-125,4,1,3,50,0,0
140470,-125,4,1,1,70,0,0
140770,-125,4,1,1,50,0,0
141520,-125,4,1,1,70,0,0
141595,-125,4,1,1,50,0,0
141670,-125,4,1,1,70,0,0
141970,-125,4,1,1,50,0,0
142720,-125,4,1,1,70,0,0
142945,-125,4,1,1,50,0,0
143020,-125,4,1,1,70,0,0
143095,-125,4,1,1,50,0,0
143320,-125,4,1,1,70,0,0
143395,-125,4,1,1,50,0,0
143470,-125,4,1,1,70,0,0
143545,-125,4,1,1,50,0,0
143620,-125,4,1,1,70,0,0
143695,-125,4,1,1,50,0,0
143920,-125,4,1,1,70,0,0
143995,-125,4,1,1,50,0,0
144070,-125,4,1,1,70,0,0
144970,-166.666666666667,4,2,1,50,0,0
145270,-166.666666666667,4,2,1,70,0,1
145345,-166.666666666667,4,2,1,50,0,0
150070,-166.666666666667,4,1,1,20,0,0
151270,-166.666666666667,4,1,1,30,0,0
154870,-166.666666666667,4,1,1,70,0,1
154945,-166.666666666667,4,1,1,40,0,0
159670,-125,4,1,1,80,0,0
159745,-125,4,1,1,50,0,0
160720,-125,4,1,1,80,0,0
160795,-125,4,1,1,50,0,0
160870,-125,4,1,1,80,0,0
160945,-125,4,1,1,50,0,0
161920,-125,4,1,1,80,0,0
161995,-125,4,1,1,50,0,0
162070,-125,4,1,1,80,0,0
162145,-125,4,1,1,50,0,0
162670,-125,4,1,1,80,0,0
162745,-125,4,1,1,50,0,0
163270,-125,4,1,1,80,0,0
163345,-125,4,1,1,50,0,0
163570,-125,4,1,1,80,0,0
163645,-125,4,1,1,50,0,0
163870,-125,4,1,1,80,0,0
163945,-125,4,1,1,50,0,0
164170,-125,4,1,1,80,0,0
164245,-125,4,1,1,50,0,0
164470,-166.666666666667,4,2,3,80,0,0
164770,300,4,1,1,80,1,1
165370,-125,4,1,1,80,0,1
165595,-100,4,1,1,80,0,1
166570,-125,4,1,1,80,0,1
166870,-100,4,1,1,80,0,1
167770,-125,4,1,1,80,0,1
167995,-100,4,1,1,80,0,1
168370,-125,4,1,1,80,0,1
168670,-100,4,1,1,80,0,1
169495,-100,4,1,1,80,0,0
169570,-100,4,1,1,80,0,1
173170,-100,4,1,1,80,0,0
174370,-100,4,1,1,80,0,1
174970,-125,4,1,1,80,0,1
175195,-100,4,1,1,80,0,1
176170,-125,4,1,1,80,0,1
176395,-100,4,1,1,80,0,1
177370,-125,4,1,1,80,0,1
177595,-100,4,1,1,80,0,1
177970,-125,4,1,1,80,0,1
178270,-100,4,1,1,80,0,1
179095,-100,4,1,1,80,0,0
179170,-100,4,1,1,80,0,1
182770,-100,4,1,1,80,0,0
183970,292.682926829268,4,1,1,80,1,1
184043,-100,4,1,1,80,0,0
188652,285.714285714286,4,1,1,85,1,1
188723,-100,4,1,1,85,0,0
193223,279.06976744186,4,1,1,50,1,0
193223,-166.666666666667,4,1,1,50,0,0
193502,-100,4,1,1,90,0,1
193571,-100,4,1,1,90,0,0
202153,272.727272727273,4,1,1,90,1,1
202221,-100,4,1,1,70,0,0
202425,-100,4,1,1,90,0,0
202562,-100,4,1,1,70,0,0
202698,-100,4,1,1,90,0,0
202834,-100,4,1,1,70,0,0
202971,-100,4,1,1,90,0,0
203107,-100,4,1,1,70,0,0
203243,-100,4,1,1,90,0,0
203380,-100,4,1,1,70,0,0
203516,-100,4,1,1,90,0,0
203653,-100,4,1,1,70,0,0
203789,-100,4,1,1,90,0,0
203925,-100,4,1,1,70,0,0
204062,-100,4,1,1,90,0,0
204198,-100,4,1,1,70,0,0
204334,-100,4,1,1,90,0,0
204471,-100,4,1,1,70,0,0
204607,-100,4,1,1,90,0,0
204743,-100,4,1,1,70,0,0
204880,-100,4,1,1,90,0,0
205016,-100,4,1,1,70,0,0
205153,-100,4,1,1,90,0,0
205289,-100,4,1,1,70,0,0
205425,-100,4,1,1,90,0,0
205562,-100,4,1,1,70,0,0
205698,-100,4,1,1,90,0,0
205834,-100,4,1,1,70,0,0
205971,-100,4,1,1,80,0,0
206516,292.682926829268,4,1,1,75,1,0
206662,-100,4,1,1,60,0,0
206808,-100,4,1,1,75,0,0
206955,-100,4,1,1,60,0,0
207101,-100,4,1,1,75,0,0
207247,-100,4,1,1,60,0,0
207394,-100,4,1,1,75,0,0
207540,-100,4,1,1,60,0,0
207686,315.789473684211,4,1,1,60,1,0
207686,-125,4,1,1,60,0,0
207843,-125,4,1,1,50,0,0
208001,-125,4,1,1,60,0,0
208159,-125,4,1,1,50,0,0
208317,-125,4,1,1,60,0,0
208475,-125,4,1,1,50,0,0
208633,-125,4,1,1,60,0,0
208791,-125,4,1,1,50,0,0
208949,342.857142857143,4,1,1,50,1,0
209634,375,4,1,1,50,1,0
209634,-125,4,1,1,50,0,0
210384,400,4,1,1,50,1,0
210384,-166.666666666667,4,1,1,50,0,0
211184,-166.666666666667,4,1,1,80,0,0

[Colours]
Combo1 : 192,192,192
Combo2 : 64,0,128
Combo3 : 0,232,232
Combo4 : 222,22,28
Combo5 : 108,108,183
Combo6 : 255,255,74

[HitObjects]
184,56,970,1,0,0:0:0
152,136,1120,1,2,0:0:0
80,184,1270,1,2,0:0:0
256,80,1870,5,2,0:0:0
213,186,2095,1,2,0:0:0
117,250,2320,2,0,P|80:260|40:248,1,71.9999978027344,0|2,0:0|0:0,0:0:0
256,80,3070,5,2,0:0:0
299,186,3295,1,2,0:0:0
395,250,3520,2,0,P|432:260|472:248,1,71.9999978027344,0|2,0:0|0:0,0:0:0
368,112,4270,5,2,0:0:0
256,160,4495,1,2,0:0:0
144,112,4720,1,0,0:0:0
92,180,4870,5,2,0:0:0
256,248,5095,1,2,0:0:0
420,180,5320,1,0,0:0:0
349,32,5470,6,0,P|320:48|298:79,1,71.9999978027344,2|0,0:0|0:0,0:0:0
256,160,5770,1,2,0:0:0
256,160,6070,5,2,0:0:0
256,160,6670,6,0,P|236:188,4,30,4|0|0|0|0,0:0|0:0|0:0|0:0|0:0,0:0:0
256,160,7270,5,2,0:0:0
256,160,7870,6,0,P|276:188,4,30,4|0|0|0|0,0:0|0:0|0:0|0:0|0:0,0:0:0
256,160,8470,6,0,P|256:236,1,71.9999978027344,2|0,0:0|0:0,0:0:0
228,296,8770,5,0,0:0:0
248,364,8920,1,0,0:0:0
160,280,9070,5,0,0:0:0
132,352,9220,1,0,0:0:0
112,224,9370,5,0,0:0:0
40,260,9520,1,0,0:0:0
112,152,9670,5,0,0:0:0
16,144,9820,1,0,0:0:0
132,84,9970,5,0,0:0:0
64,16,10120,1,0,0:0:0
188,40,10270,5,0,0:0:0
296,76,10420,1,0,0:0:0
256,184,10570,6,0,P|256:224,7,30,8|0|0|0|0|0|0|0,0:0|0:0|0:0|0:0|0:0|0:0|0:0|0:0,0:0:0
256,214,10870,2,0,P|320:232|320:232|372:236|372:236|432:256,1,180,4|0,0:0|0:0,0:0:0
430,255,11170,5,8,0:0:0
308,332,11320,1,0,0:0:0
164,328,11470,2,0,P|112:292|100:240,1,120
212,104,11770,6,0,P|248:92|276:96,1,60,8|0,0:0|0:0,0:0:0
380,160,11920,2,0,P|358:162|322:150,1,60
212,20,12070,2,0,P|156:44|128:104,1,120
164,328,12370,6,0,P|196:328|224:316,1,60,8|0,0:0|0:0,0:0:0
292,280,12520,2,0,P|300:312|300:344,1,60
96,380,12670,2,0,P|64:320|100:268|100:268|88:240|96:200,1,180
32,156,12970,6,0,P|88:128|144:144,1,120,8|0,0:0|0:0,0:0:0
196,200,13195,1,0,0:0:0
239,266,13270,2,0,P|176:276|128:240,1,120
168,72,13570,6,0,P|192:88|207:114,1,60,8|0,0:0|0:0,0:0:0
240,264,13720,2,0,P|264:244|276:208,1,60
244,24,13870,2,0,P|276:76|288:140,1,120
120,232,14170,6,0,P|121:209|113:173,1,60,8|0,0:0|0:0,0:0:0
92,36,14320,2,0,P|84:72|88:104,1,60,0|0,0:0|0:0,0:0:0
49,284,14470,2,0,P|100:332|164:308|164:308|217:323,1,180
280,380,14770,2,0,P|340:368|380:324,1,120,8|0,0:0|0:0,0:0:0
464,204,15070,6,0,P|472:160,1,40,8|0,0:0|0:0,0:0:0
392,168,15170,1,0,0:0:0
316,144,15270,1,0,0:0:0
244,180,15370,5,8,0:0:0
164,176,15470,1,0,0:0:0
84,172,15570,1,0,0:0:0
28,228,15670,6,0,P|72:260|120:240|120:240|160:264|200:244,1,180,4|0,0:0|0:0,0:0:0
198,244,15970,5,8,0:0:0
60,340,16120,1,0,0:0:0
84,172,16270,2,0,P|60:48,1,120
264,24,16570,6,0,P|252:82,1,60,8|0,0:0|0:0,0:0:0
316,144,16720,2,0,P|304:202,1,60
368,264,16870,2,0,P|256:308,1,120
84,172,17170,6,0,P|143:195,1,60,8|0,0:0|0:0,0:0:0
176,112,17320,2,0,P|235:135,1,60
272,56,17470,2,0,P|372:40|372:40|392:76|436:80,1,180
440,4,17770,2,0,P|448:136,1,120,8|0,0:0|0:0,0:0:0
464,296,18070,5,4,0:0:0
304,308,18270,1,0,0:0:0
220,173,18470,1,0,0:0:0
436,216,18670,6,0,P|464:184,2,40,8|0|0,0:0|0:0|0:0,0:0:0
304,308,18870,1,0,0:0:0
164,231,19070,1,0,0:0:0
372,160,19270,6,0,P|400:128,2,40,8|0|0,0:0|0:0|0:0,0:0:0
304,308,19470,1,0,0:0:0
144,311,19670,1,0,0:0:0
300,224,19870,6,0,P|292:80,1,143.999995605469,4|0,0:0|0:0,0:0:0
292,80,20320,1,0,0:0:0
372,160,20470,1,4,0:0:0
300,224,20620,1,2,0:0:0
324,132,20770,1,8,0:0:0
388,60,20920,1,2,0:0:0
476,24,21070,2,0,P|480:72|460:116,1,96,0|2,0:0|0:0,0:0:0
368,332,21370,6,0,P|364:284|384:240,1,96,8|2,0:0|0:0,0:0:0
456,304,21670,1,0,0:0:0
372,352,21820,1,2,0:0:0
276,352,21970,1,8,0:0:0
200,292,22120,1,2,0:0:0
168,200,22270,2,0,P|176:100,1,96,0|2,0:0|0:0,0:0:0
476,24,22570,6,0,P|468:119,1,96,8|2,0:0|0:0,0:0:0
436,212,22870,1,0,0:0:0
456,304,23020,1,2,0:0:0
488,212,23170,1,0,0:0:0
392,232,23320,1,2,0:0:0
300,264,23470,2,0,P|324:304|368:328,1,96,0|2,0:0|0:0,0:0:0
168,200,23770,6,0,P|144:160|100:136,1,96,8|2,0:0|0:0,0:0:0
68,48,24070,1,0,0:0:0
148,104,24220,1,2,0:0:0
168,200,24370,1,8,0:0:0
104,272,24520,1,2,0:0:0
12,300,24670,2,0,P|102:362,1,96,0|2,0:0|0:0,0:0:0
300,264,24970,6,0,P|210:202,1,96,8|2,0:0|0:0,0:0:0
128,188,25270,1,0,0:0:0
224,176,25420,1,2,0:0:0
300,116,25570,1,8,0:0:0
272,24,25720,1,2,0:0:0
204,92,25870,2,0,P|156:96|112:80,1,96,0|2,0:0|0:0,0:0:0
12,300,26170,6,0,P|60:296|104:312,1,96,8|2,0:0|0:0,0:0:0
192,352,26470,1,0,0:0:0
288,364,26620,1,2,0:0:0
376,324,26770,1,8,0:0:0
420,236,26920,1,2,0:0:0
412,140,27070,2,0,P|440:44,1,96,0|2,0:0|0:0,0:0:0
204,92,27370,6,0,P|232:188,1,96,8|2,0:0|0:0,0:0:0
284,264,27670,1,0,0:0:0
380,280,27820,1,2,0:0:0
424,193,27970,1,8,0:0:0
354,123,28120,1,2,0:0:0
284,264,28270,5,0,0:0:0
173,375,28420,1,2,0:0:0
197,218,28570,1,8,0:0:0
269,360,28720,1,2,0:0:0
128,287,28870,6,0,P|100:244,3,48
28,200,29170,2,0,P|42:150,3,48
88,80,29470,5,0,0:0:0
116,88,29545,1,0,0:0:0
144,92,29620,1,0,0:0:0
172,92,29695,1,0,0:0:0
200,80,29770,5,0,0:0:0
240,56,29845,1,0,0:0:0
288,44,29920,1,0,0:0:0
336,44,29995,1,0,0:0:0
384,56,30070,2,0,P|432:68|464:112|468:160|468:160|488:192,1,180,4|0,0:0|0:0,0:0:0
488,192,30370,5,8,0:0:0
344,172,30520,1,0,0:0:0
200,188,30670,2,0,P|180:248|200:304,1,120
348,340,30970,6,0,P|380:328|412:328,1,60,8|0,0:0|0:0,0:0:0
314,256,31120,2,0,P|284:256|256:248,1,60
392,248,31270,2,0,P|404:120,1,120
216,40,31570,6,0,P|212:76|216:104,1,60,8|0,0:0|0:0,0:0:0
176,269,31720,2,0,P|204:272|236:268,1,60
256,180,31870,2,0,P|196:200|152:160|152:160|120:180|80:172,1,180
104,96,32170,6,0,P|116:216,1,120,8|0,0:0|0:0,0:0:0
176,268,32395,1,0,0:0:0
232,324,32470,2,0,P|244:204,1,120
104,96,32770,6,0,P|112:176,1,60,8|0,0:0|0:0,0:0:0
176,268,32920,2,0,P|184:188,1,60
84,240,33070,2,0,P|88:300|124:348,1,120
291,318,33370,6,0,P|232:324,1,60,8|0,0:0|0:0,0:0:0
344,246,33520,2,0,P|404:252,1,60
376,344,33670,2,0,P|440:352|484:305|484:305|496:232,1,180
448,184,33970,2,0,P|465:65,1,120,8|0,0:0|0:0,0:0:0
300,28,34270,6,0,P|308:72,1,40,8|0,0:0|0:0,0:0:0
228,60,34370,1,0,0:0:0
168,116,34470,1,0,0:0:0
92,92,34570,5,8,0:0:0
92,172,34670,1,0,0:0:0
116,248,34770,1,0,0:0:0
160,316,34870,6,0,P|200:332|200:332|240:320|240:320|272:272|320:276,1,180,4|0,0:0|0:0,0:0:0
312,352,35170,5,8,0:0:0
200,244,35320,1,0,0:0:0
232,92,35470,2,0,P|288:68|344:80,1,120
452,212,35770,6,0,P|456:244|448:272,1,60,8|0,0:0|0:0,0:0:0
392,332,35920,2,0,P|420:352|456:356,1,60
312,352,36070,2,0,P|252:360|196:336,1,120
88,204,36370,6,0,P|88:144,1,60,8|0,0:0|0:0,0:0:0
120,60,36520,2,0,P|60:56,1,60
172,132,36670,2,0,P|199:114|204:88|204:88|260:132|324:104,1,180
344,188,36970,2,0,P|388:152|400:88,1,120,8|0,0:0|0:0,0:0:0
272,20,37270,5,4,0:0:0
264,24,37470,1,0,0:0:0
120,60,37670,1,0,0:0:0
308,104,37870,6,0,P|352:92,2,40,8|0|0,0:0|0:0|0:0,0:0:0
300,104,38070,1,0,0:0:0
128,80,38270,1,0,0:0:0
344,188,38470,6,0,P|388:176,2,40,8|0|0,0:0|0:0|0:0,0:0:0
336,184,38670,1,0,0:0:0
136,100,38870,1,0,0:0:0
380,272,39070,6,0,P|304:272|256:224,1,143.999995605469,4|0,0:0|0:0,0:0:0
216,140,39520,1,0,0:0:0
216,140,39670,1,4,0:0:0
284,208,39820,1,2,2:0:0
280,304,39970,1,8,0:2:0
196,352,40120,1,2,2:0:0
100,340,40270,2,0,P|12:284,1,96,0|2,0:0|2:0,0:0:0
192,28,40570,6,0,P|280:84,1,96,8|2,0:2|2:0,0:0:0
356,128,40870,1,0,0:0:0
448,148,41020,1,2,2:0:0
416,56,41170,1,8,0:2:0
324,88,41320,1,2,2:0:0
360,176,41470,2,0,P|352:224|368:268,1,96,0|2,0:0|2:0,0:0:0
100,340,41770,6,0,P|108:292|92:248,1,96,8|2,0:2|2:0,0:0:0
8,204,42070,1,0,0:0:0
84,148,42220,1,2,2:0:0
180,144,42370,1,8,0:2:0
260,196,42520,1,2,2:0:0
276,292,42670,2,0,P|192:352,1,96,0|2,0:0|2:0,0:0:0
360,176,42970,6,0,P|438:120,1,96,8|2,0:2|2:0,0:0:0
504,48,43270,1,0,0:0:0
412,80,43420,1,2,2:0:0
316,76,43570,1,8,0:2:0
220,64,43720,1,2,2:0:0
156,136,43870,2,0,P|128:92|124:48,1,96,0|2,0:0|2:0,0:0:0
276,292,44170,6,0,P|304:336|308:380,1,96,8|2,0:2|2:0,0:0:0
212,364,44470,1,4,0:0:0
276,292,44620,1,2,2:0:0
372,272,44770,1,8,0:2:0
464,296,44920,1,2,2:0:0
396,364,45070,2,0,P|391:269,1,96,0|2,0:0|2:0,2:0:0
156,136,45370,6,0,P|161:231,1,96,8|2,0:2|2:0,0:0:0
116,316,45670,1,0,0:0:0
76,228,45820,1,2,2:0:0
76,132,45970,1,8,0:2:0
140,60,46120,1,2,2:0:0
232,36,46270,2,0,P|280:48|328:40,1,96,0|2,0:0|2:0,0:0:0
396,364,46570,6,0,P|348:352|300:360,1,96,8|2,0:2|2:0,0:0:0
188,272,46870,1,0,0:0:0
188,272,46945,1,0,0:0:0
188,272,47020,2,0,P|144:292,1,48
60,332,47170,1,0,0:0:0
60,332,47245,1,0,0:0:0
60,332,47320,2,0,P|56:283,1,48
112,208,47470,2,0,P|80:168,3,48
152,112,47770,2,0,P|203:113,3,48
272,56,48070,6,0,P|288:104,1,48
356,56,48220,2,0,P|372:104,1,48
464,104,48370,2,0,P|448:152,1,48
512,216,48520,2,0,P|468:242,1,48
504,328,48670,1,8,0:0:0
504,328,48970,6,0,P|360:340,1,143.999995605469,0|0,2:0|0:0,0:0:0
504,328,49720,5,0,0:0:0
360,340,49870,2,0,P|328:340|304:320|304:320|272:348|228:348,1,143.999995605469,8|0,0:0|2:0,0:0:0
356,260,50470,5,0,0:0:0
228,348,50770,1,0,0:0:0
216,192,51070,2,0,P|220:144|220:144|240:100|240:100|244:52,1,143.999995605469,8|0,0:0|2:0,0:0:0
309,0,51670,5,0,0:0:0
160,76,51895,1,0,0:0:0
300,168,52120,2,0,P|292:239,1,71.9999978027344,0|8,0:0|0:0,0:0:0
216,300,52570,1,0,2:0:0
216,300,52870,6,0,P|284:332|348:316,2,143.999995605469,0|0|8,0:0|0:0|0:0,0:0:0
348,316,53620,6,0,P|403:294|455:334|455:334|471:286|432:240,1,215.999993408203,0|0,2:0|0:0,0:0:0
348,316,54520,5,0,0:0:0
432,240,54670,2,0,P|436:92,1,143.999995605469,8|0,0:0|2:0,0:0:0
435,96,55270,5,0,0:0:0
432,240,55570,1,0,0:0:0
296,272,55870,2,0,P|260:284|224:272|224:272|188:260|152:272,1,143.999995605469,8|0,0:0|2:0,0:0:0
90,206,56470,5,0,0:0:0
184,348,56695,1,0,0:0:0
260,196,56920,2,0,P|300:188|344:200,1,71.9999978027344,0|8,0:0|0:0,0:0:0
365,116,57370,1,0,2:0:0
365,116,57670,6,0,P|292:108|224:120,2,143.999995605469,0|0|8,0:0|0:0|0:0,0:0:0
444,336,58870,5,4,0:0:0
452,324,58945,1,0,0:0:0
348,356,59095,1,0,0:0:0
356,344,59170,1,8,0:2:0
252,344,59320,1,0,0:0:0
164,308,59470,5,0,0:0:0
132,328,59545,1,0,0:0:0
92,328,59620,1,0,0:0:0
60,304,59695,1,0,0:0:0
52,268,59770,5,8,0:2:0
72,236,59845,1,0,0:0:0
108,220,59920,2,0,P|96:172,1,48
184,208,60070,6,0,P|160:108,1,96
180,28,60370,1,8,0:2:0
96,176,60520,1,0,0:0:0
108,220,60595,1,0,0:0:0
120,264,60670,1,0,0:0:0
256,176,60820,1,0,0:0:0
268,220,60895,1,0,0:0:0
280,264,60970,1,8,0:2:0
404,316,61120,5,0,0:0:0
464,232,61270,1,0,0:0:0
476,224,61345,1,0,0:0:0
456,128,61495,1,0,0:0:0
468,120,61570,1,8,0:2:0
384,56,61720,1,0,0:0:0
284,32,61870,5,0,0:0:0
244,32,61945,1,0,0:0:0
208,48,62020,1,0,0:0:0
184,80,62095,1,0,0:0:0
188,120,62170,5,8,0:2:0
220,140,62245,1,0,0:0:0
260,144,62320,2,0,P|312:136,1,48
352,208,62470,6,0,P|257:223,1,96
224,312,62770,1,8,0:2:0
352,208,62920,1,0,0:0:0
372,176,62995,1,0,0:0:0
392,144,63070,1,0,0:0:0
260,144,63220,1,0,0:0:0
267,107,63295,1,0,0:0:0
275,70,63370,1,8,0:2:0
151,115,63520,1,0,0:0:0
39,126,63670,5,4,0:0:0
64,316,63820,2,0,P|48:268|68:220,1,96,4|0,0:0|0:0,0:0:0
128,272,64120,5,0,0:0:0
224,276,64270,1,0,0:0:0
252,284,64345,1,0,0:0:0
280,292,64420,1,0,0:0:0
308,300,64495,1,0,0:0:0
336,308,64570,1,0,0:0:0
364,316,64645,1,0,0:0:0
392,324,64720,2,0,P|440:320,1,48
496,272,64870,5,4,0:0:0
376,124,65020,2,0,P|424:128|468:104,1,96,4|0,0:0|0:0,0:0:0
324,32,65320,5,0,0:0:0
288,44,65395,1,0,0:0:0
252,56,65470,1,0,0:0:0
304,180,65620,1,0,0:0:0
268,192,65695,1,0,0:0:0
232,204,65770,1,0,0:0:0
112,144,65920,1,0,0:0:0
236,292,66070,6,0,P|276:320,1,48,4|0,0:0|0:0,0:0:0
352,336,66220,1,4,0:0:0
388,328,66295,1,0,0:0:0
420,304,66370,1,0,0:0:0
440,272,66445,1,0,0:0:0
448,236,66520,5,0,0:0:0
440,208,66595,1,0,0:0:0
432,180,66670,1,4,0:0:0
424,152,66745,1,0,0:0:0
416,124,66820,1,4,0:0:0
408,96,66895,1,0,0:0:0
400,68,66970,2,0,P|436:28,3,48
400,68,67270,5,4,0:0:0
440,172,68170,6,0,P|472:168|508:148,1,71.9999978027344,2|2,0:0|0:0,0:0:0
440,172,68470,5,4,0:0:0
272,188,68620,1,0,0:0:0
124,264,68770,2,0,P|116:324|144:376,1,120,8|0,0:0|0:0,0:0:0
303,278,69070,6,0,P|272:188,1,96
300,108,69295,1,8,0:0:0
300,108,69370,2,0,P|240:108|196:148,1,120,0|8,0:0|0:0,0:0:0
124,264,69670,5,0,0:0:0
256,363,69820,1,0,0:0:0
272,188,69970,2,0,P|400:184,1,120,8|0,0:0|0:0,0:0:0
292,24,70270,6,0,P|216:32|156:68,1,144,0|8,0:0|0:0,0:0:0
88,32,70570,2,0,P|84:96|120:136,1,120,0|8,0:0|0:0,0:0:0
272,188,70870,5,0,0:0:0
428,252,71020,1,0,0:0:0
296,356,71170,2,0,P|232:360|176:324,1,120,8|0,0:0|0:0,0:0:0
180,160,71470,6,0,P|272:188,1,96
316,260,71695,1,8,0:0:0
316,260,71770,2,0,P|352:216|348:152,1,120,0|8,0:0|0:0,0:0:0
388,308,72070,6,0,P|428:244|436:176,1,144,0|8,0:0|0:0,0:0:0
408,100,72370,2,0,P|356:76|296:96,1,120,0|8,0:0|0:0,0:0:0
180,160,72670,6,0,P|136:152,1,40
164,240,72770,1,0,0:0:0
192,316,72870,1,0,0:0:0
152,248,72970,5,0,0:0:0
204,308,73070,1,0,0:0:0
284,324,73170,1,0,0:0:0
364,332,73270,6,0,P|300:248|292:172,1,180,4|0,0:0|0:0,0:0:0
291,176,73570,1,8,0:0:0
200,56,73720,2,0,P|164:104|152:168,1,120
112,296,74020,1,0,0:0:0
64,300,74095,1,0,0:0:0
20,320,74170,2,0,P|36:260|24:200,1,120,8|0,0:0|0:0,0:0:0
208,112,74470,5,0,0:0:0
104,208,74620,1,0,0:0:0
4,108,74770,1,8,0:0:0
108,12,74920,1,0,0:0:0
204,108,75070,5,0,0:0:0
0,112,75220,1,0,0:0:0
212,116,75370,1,8,0:0:0
8,104,75520,2,0,P|28:48,1,60
108,12,75670,6,0,P|164:36|228:24,1,120
296,132,75970,2,0,P|352:108|416:120,1,120,8|0,0:0|0:0,0:0:0
368,228,76270,5,0,0:0:0
224,216,76420,1,0,0:0:0
424,316,76570,1,8,0:0:0
280,328,76720,1,0,0:0:0
120,356,76870,6,0,P|136:176,1,180,4|4,0:0|0:0,0:0:0
148,328,77320,2,0,P|152:288,3,40,4|0|0|8,0:0|0:0|0:0|0:0,0:0:0
148,328,77620,1,0,0:0:0
148,328,77695,1,0,0:0:0
148,328,77770,1,8,0:0:0
24,252,77920,1,0,0:0:0
56,112,78070,5,4,0:0:0
212,172,78220,1,0,0:0:0
376,152,78370,2,0,P|432:128|456:68,1,120,8|0,0:0|0:0,0:0:0
224,76,78670,6,0,P|212:172,1,96
260,240,78895,1,8,0:0:0
260,240,78970,2,0,P|200:252|148:224,1,120,0|8,0:0|0:0,0:0:0
56,112,79270,5,0,0:0:0
224,76,79420,1,0,0:0:0
376,152,79570,2,0,P|404:204|400:268,1,120,8|0,0:0|0:0,0:0:0
256,328,79870,6,0,P|188:328|116:300,1,144,0|8,0:0|0:0,0:0:0
40,320,80170,2,0,P|48:260|96:220,1,120,0|8,0:0|0:0,0:0:0
224,76,80470,5,0,0:0:0
260,240,80620,1,0,0:0:0
384,352,80770,2,0,P|444:348|496:308,1,120,8|0,0:0|0:0,0:0:0
344,192,81070,6,0,P|260:240,1,96
188,284,81295,1,8,0:0:0
188,284,81370,2,0,P|176:224|204:176,1,120,0|8,0:0|0:0,0:0:0
384,352,81670,6,0,P|320:368|240:356,1,144,0|8,0:0|0:0,0:0:0
164,372,81970,2,0,P|116:332|96:280,1,120,0|8,0:0|0:0,0:0:0
192,44,82270,6,0,P|152:64,1,40
248,104,82370,1,0,0:0:0
256,184,82470,1,0,0:0:0
236,108,82570,5,0,0:0:0
280,40,82670,1,0,0:0:0
360,24,82770,1,0,0:0:0
444,36,82870,6,0,P|472:116|468:212,1,180,4|0,0:0|0:0,0:0:0
468,210,83170,1,8,0:0:0
348,316,83320,2,0,P|288:320|232:288,1,120
100,196,83620,1,0,0:0:0
52,192,83695,1,0,0:0:0
8,176,83770,2,0,P|56:212|84:264,1,120,8|0,0:0|0:0,0:0:0
236,291,84070,5,0,0:0:0
95,359,84220,1,0,0:0:0
170,220,84370,1,8,0:0:0
190,377,84520,1,0,0:0:0
84,264,84670,5,0,0:0:0
160,128,84820,1,0,0:0:0
312,157,84970,1,8,0:0:0
332,310,85120,1,0,0:0:0
332,310,85195,1,0,0:0:0
332,310,85270,6,0,P|452:296,1,120
451,296,85570,1,8,0:0:0
360,48,85720,2,0,P|312:158,1,120
312,157,86020,1,0,0:0:0
488,332,86170,2,0,P|440:221,1,120,8|0,0:0|0:0,0:0:0
360,48,86470,5,4,0:0:0
360,48,86695,1,4,0:0:0
360,48,86920,2,0,P|404:52,2,40,4|0|0,0:0|0:0|0:0,0:0:0
360,48,87070,6,0,P|300:64|244:52,1,120,8|0,0:0|0:0,0:0:0
172,60,87295,1,0,0:0:0
104,36,87370,2,0,P|56:72|48:140,1,120,8|0,0:0|0:0,0:0:0
52,176,87570,2,0,P|80:212,2,40,0|0|4,0:0|0:0|0:0,0:0:0
28,64,97270,6,0,P|68:60|68:60|92:96|144:100,1,120,0|4,0:0|0:0,0:0:0
256,112,97720,1,0,0:0:0
256,112,97795,1,0,0:0:0
256,112,97870,2,0,P|308:112|344:88,1,96
108,196,98170,6,0,P|153:222|196:219,1,96,8|0,0:0|0:0,0:0:0
312,208,98470,1,0,0:0:0
420,164,98620,1,0,0:0:0
472,60,98770,1,8,0:0:0
508,168,98920,1,0,0:0:0
472,276,99070,2,0,P|424:292|376:280,1,96
316,336,99295,1,0,0:0:0
316,336,99370,2,0,P|264:328|224:296,1,96,8|0,0:0|0:0,0:0:0
48,228,99670,6,0,P|64:180|64:180|68:128|68:128|104:108|104:108|140:72,1,192,0|8,0:0|0:0,0:0:0
252,72,100120,1,0,0:0:0
252,72,100195,1,0,0:0:0
252,72,100270,2,0,P|348:60,1,96
68,128,100570,6,0,P|157:165,1,96,8|0,0:0|0:0,0:0:0
260,208,100870,1,0,0:0:0
364,252,101020,1,0,0:0:0
260,208,101170,1,8,0:0:0
364,252,101320,1,0,0:0:0
468,296,101470,6,0,P|472:256,2,32,8|0|0,0:0|0:0|0:0,0:0:0
416,352,101670,1,0,0:0:0
340,364,101770,1,8,0:0:0
264,356,101870,1,0,0:0:0
192,332,101970,1,0,0:0:0
116,340,102070,6,0,P|84:348|76:312|76:312|40:304|12:264|20:216,1,160,4|8,0:0|0:0,0:0:0
44,108,102520,1,0,0:0:0
44,108,102595,1,0,0:0:0
44,108,102670,2,0,P|76:72|124:52,1,96
190,217,102970,2,0,P|152:236|100:232,1,96,8|0,0:0|0:0,0:0:0
132,148,103270,5,0,0:0:0
240,104,103420,1,0,0:0:0
315,193,103570,1,8,0:0:0
254,291,103720,1,0,0:0:0
140,264,103870,2,0,P|71:249|23:193,1,144
44,108,104170,2,0,P|76:72|124:52,1,96,8|0,0:0|0:0,0:0:0
249,65,104470,5,4,0:0:0
354,190,104670,1,0,0:0:0
269,327,104870,1,0,0:0:0
109,289,105070,6,0,P|72:308,2,32,8|0|0,0:0|0:0|0:0,0:0:0
109,289,105270,1,0,0:0:0
98,127,105470,1,0,0:0:0
249,66,105670,6,0,P|268:28,2,32,8|0|0,0:0|0:0|0:0,0:0:0
249,66,105870,1,0,0:0:0
354,190,106070,1,0,0:0:0
269,327,106270,5,4,0:0:0
269,327,106870,6,0,P|300:328|300:328|336:352|376:348|408:320|408:320|440:320,1,180,4|0,0:0|0:0,0:0:0
440,320,107170,5,8,0:0:0
269,327,107320,1,0,0:0:0
311,154,107470,2,0,P|316:212|348:264,1,120
436,104,107770,6,0,P|424:80|400:56,1,60,8|0,0:0|0:0,0:0:0
304,40,107920,2,0,P|276:40|248:56,1,60
216,152,108070,2,0,P|152:164|100:144,1,120
168,28,108370,6,0,P|228:36,1,60,8|0,0:0|0:0,0:0:0
296,108,108520,2,0,P|356:116,1,60
452,96,108670,2,0,P|460:144|440:184|396:208|396:208|416:248,1,180
488,300,108970,2,0,P|432:328|364:316,1,120,8|0,0:0|0:0,0:0:0
332,256,109195,1,0,0:0:0
268,208,109270,2,0,P|256:268|288:320,1,120
488,300,109570,6,0,P|496:288|496:288|492:240,1,60,8|0,0:0|0:0,0:0:0
452,96,109720,2,0,P|444:108|444:108|448:156,1,60
412,228,109870,2,0,P|388:248|388:248|300:252,1,120
160,368,110170,6,0,P|172:376|172:376|220:372,1,60,8|0,0:0|0:0,0:0:0
364,332,110320,2,0,P|352:324|352:324|304:328,1,60
232,292,110470,2,0,P|212:272|212:272|212:196|212:196|252:180|260:140,1,180
188,124,110770,2,0,P|200:184|248:216,1,120,8|0,0:0|0:0,0:0:0
324,212,110995,1,0,0:0:0
400,200,111070,6,0,P|436:232,2,40,8|0|0,0:0|0:0|0:0,0:0:0
428,124,111270,1,0,0:0:0
380,60,111370,1,8,0:0:0
304,36,111470,1,0,0:0:0
224,44,111570,1,0,0:0:0
144,56,111670,6,0,P|96:88|116:160|116:160|104:196|64:208,1,180,4|0,0:0|0:0,0:0:0
56,288,111970,6,0,P|112:272|168:232,1,120,8|0,0:0|0:0,0:0:0
348,236,112270,2,0,P|398:270|454:286,1,120
332,347,112570,6,0,P|320:344|320:344|272:352,1,60,8|0,0:0|0:0,0:0:0
348,236,112720,2,0,P|335:232|335:232|287:240,1,60
328,128,112870,2,0,P|205:149,1,120
424,68,113170,6,0,P|440:96|440:132,1,60,8|0,0:0|0:0,0:0:0
328,128,113320,2,0,P|328:168|316:200,1,60
216,148,113470,2,0,P|134:192|54:168,1,180
56,168,113770,2,0,P|107:203|127:255,1,120,8|0,0:0|0:0,0:0:0
332,348,114070,5,4,0:0:0
216,148,114270,1,0,0:0:0
100,348,114470,1,0,0:0:0
340,292,114670,6,0,P|380:292,2,40,8|0|0,0:0|0:0|0:0,0:0:0
197,172,114870,1,0,0:0:0
165,355,115070,1,0,0:0:0
348,236,115270,6,0,P|388:236,2,40,8|0|0,0:0|0:0|0:0,0:0:0
177,196,115470,1,0,0:0:0
229,363,115670,1,0,0:0:0
251,264,115870,5,4,0:0:0
251,264,116170,1,0,0:0:0
260,228,116245,1,0,0:0:0
268,192,116320,1,0,0:0:0
276,156,116395,1,0,0:0:0
284,120,116470,5,0,0:0:0
333,40,116620,1,2,2:0:0
422,62,116770,1,8,0:2:0
430,155,116920,1,2,2:0:0
344,190,117070,2,0,P|336:240|336:240|344:284,1,96,0|2,0:0|2:0,0:0:0
92,364,117370,6,0,P|100:320|100:320|92:270,1,96,8|2,0:2|2:0,0:0:0
36,192,117670,1,0,0:0:0
60,100,117820,1,2,2:0:0
156,92,117970,1,8,0:2:0
36,192,118120,1,2,2:0:0
156,92,118270,2,0,P|204:80|232:44,1,96,0|2,0:0|2:0,0:0:0
344,192,118570,6,0,P|295:198|263:231,1,96,8|2,0:2|2:0,0:0:0
344,284,118870,1,0,0:0:0
440,272,119020,1,2,2:0:0
492,192,119170,1,8,0:2:0
484,96,119320,1,2,2:0:0
396,60,119470,2,0,P|396:108|396:108|376:152,1,96,0|2,0:0|2:0,0:0:0
156,92,119770,6,0,P|156:44|156:44|176:0,1,96,8|2,0:2|2:0,0:0:0
248,68,120070,1,0,0:0:0
176,128,120220,1,2,2:0:0
88,96,120370,1,8,0:2:0
72,4,120520,1,2,2:0:0
160,36,120670,2,0,P|180:80|176:128,1,96,0|2,0:0|2:0,0:0:0
396,60,120970,6,0,P|392:108|412:152,1,96,8|2,0:2|2:0,0:0:0
476,220,121270,1,0,0:0:0
492,316,121420,1,2,2:0:0
404,356,121570,1,8,0:2:0
312,324,121720,1,2,2:0:0
236,264,121870,2,0,P|188:264|188:264|136:288,1,96,0|2,0:0|2:0,0:0:0
160,36,122170,6,0,P|208:36|208:36|260:60,1,96,8|2,0:2|2:0,0:0:0
328,112,122470,1,0,0:0:0
372,196,122620,1,2,2:0:0
466,181,122770,1,8,0:2:0
480,88,122920,1,2,2:0:0
395,45,123070,2,0,P|384:92|404:144,1,96,0|2,0:0|2:0,0:0:0
236,264,123370,6,0,P|247:217|227:165,1,96,8|2,0:2|2:0,0:0:0
148,220,123670,2,0,P|144:276,3,48
152,224,123970,1,0,0:0:0
156,196,124045,1,0,0:0:0
152,168,124120,1,0,0:0:0
140,144,124195,1,0,0:0:0
108,120,124270,5,0,0:0:0
68,120,124345,1,0,0:0:0
40,148,124420,1,0,0:0:0
36,188,124495,1,0,0:0:0
48,224,124570,2,0,P|44:276,3,48
152,224,124870,6,0,P|148:276,1,48
240,360,125020,2,0,P|243:312,1,48
236,168,125170,2,0,P|232:220,1,48
324,304,125320,2,0,P|328:252,1,48
320,112,125470,1,8,0:0:0
320,112,125770,6,0,P|464:120,1,143.999995605469,0|4,2:0|0:0,0:0:0
320,112,126520,5,0,0:0:0
463,119,126670,1,8,0:0:0
320,112,127270,5,0,0:0:0
320,112,127570,1,0,0:0:0
196,184,127870,2,0,P|160:248|96:264,1,143.999995605469,8|0,0:0|0:0,0:0:0
20,140,128470,5,0,0:0:0
20,140,128695,1,0,0:0:0
20,140,128920,2,0,P|32:68,1,71.9999978027344,0|8,0:0|0:0,0:0:0
31,68,129370,5,0,0:0:0
172,104,129670,1,0,0:0:0
300,168,129970,2,0,P|372:164|428:116,1,143.999995605469,0|8,0:0|0:0,0:0:0
172,104,130420,6,0,P|224:200|196:304,1,215.999993408203,0|0,2:0|0:0,0:0:0
172,104,131320,5,0,0:0:0
199,298,131470,1,8,0:0:0
199,298,132070,5,0,0:0:0
284,184,132370,1,0,0:0:0
284,184,132670,2,0,P|212:176|168:120,1,143.999995605469,8|0,0:0|0:0,0:0:0
284,36,133270,5,0,0:0:0
284,36,133495,1,0,0:0:0
284,36,133720,2,0,P|312:104,1,71.9999978027344,0|8,0:0|0:0,0:0:0
336,244,134170,1,0,0:0:0
312,100,134470,6,0,P|384:96|448:136,2,143.999995605469,0|0|8,0:0|0:0|0:0,0:0:0
64,324,135670,5,4,0:0:0
64,324,135745,1,0,0:0:0
180,340,135895,1,0,0:0:0
180,340,135970,2,0,P|276:332,1,96,8|0,0:2|0:0,0:0:0
388,364,136270,5,0,0:0:0
396,336,136345,1,0,0:0:0
416,316,136420,1,0,0:0:0
440,304,136495,1,0,0:0:0
468,304,136570,5,8,0:2:0
448,260,136645,1,0,0:0:0
456,212,136720,2,0,P|472:160,1,48
464,92,136870,6,0,P|420:112|396:156,1,96
372,252,137170,1,8,0:2:0
464,92,137320,2,0,P|456:32,1,48
388,28,137470,1,0,0:0:0
256,152,137620,2,0,P|263:91,1,48
198,68,137770,1,8,0:2:0
5,58,137920,5,0,0:0:0
37,155,138070,1,0,0:0:0
55,110,138145,1,0,0:0:0
28,256,138295,1,0,0:0:0
39,302,138370,2,0,P|84:320|132:312,1,96,8|0,0:2|0:0,0:0:0
212,260,138670,5,0,0:0:0
240,252,138745,1,0,0:0:0
268,256,138820,1,0,0:0:0
292,268,138895,1,0,0:0:0
308,292,138970,5,8,0:2:0
304,340,139045,1,0,0:0:0
260,360,139120,2,0,P|212:360,1,48
140,360,139270,6,0,P|156:312|192:288,1,96
348,320,139570,1,8,0:2:0
140,360,139720,1,0,0:0:0
100,356,139795,1,0,0:0:0
60,352,139870,1,0,0:0:0
136,216,140020,1,0,0:0:0
97,225,140095,1,0,0:0:0
58,235,140170,1,8,0:2:0
83,83,140320,1,0,0:0:0
16,127,140470,5,4,0:0:0
204,172,140620,2,0,P|252:180|296:160,1,96,4|0,0:0|0:0,0:0:0
376,112,140920,5,0,0:0:0
424,28,141070,1,0,0:0:0
444,48,141145,1,0,0:0:0
460,72,141220,1,0,0:0:0
468,100,141295,1,0,0:0:0
468,128,141370,1,0,0:0:0
460,156,141445,1,0,0:0:0
444,180,141520,2,0,P|448:228,1,48
456,304,141670,5,4,0:0:0
268,344,141820,2,0,P|220:336|176:352,1,96,4|0,0:0|0:0,0:0:0
200,200,142120,5,0,0:0:0
236,212,142195,1,0,0:0:0
272,224,142270,1,0,0:0:0
280,72,142420,1,0,0:0:0
309,95,142495,1,0,0:0:0
339,119,142570,1,0,0:0:0
384,268,142720,1,0,0:0:0
268,344,142870,6,0,P|220:336,1,48,4|0,0:0|0:0,0:0:0
148,356,143020,1,4,0:0:0
108,352,143095,1,0,0:0:0
72,336,143170,1,0,0:0:0
44,308,143245,1,0,0:0:0
32,272,143320,5,0,0:0:0
44,248,143395,1,0,0:0:0
52,220,143470,1,4,0:0:0
56,192,143545,1,0,0:0:0
52,164,143620,1,4,0:0:0
44,136,143695,1,0,0:0:0
28,112,143770,2,0,P|20:64,3,48
28,112,144070,5,4,0:0:0
72,212,144970,6,0,P|40:216|4:236,1,71.9999978027344,2|2,0:0|0:0,0:0:0
76,216,145270,5,4,0:1:0
80,220,145570,1,2,0:0:0
84,224,145870,5,2,0:0:0
188,248,146095,1,2,0:0:0
288,208,146320,1,0,0:0:0
332,148,146470,5,2,0:0:0
336,144,146770,1,2,0:0:0
340,140,147070,5,2,0:0:0
264,64,147295,1,2,0:0:0
156,68,147520,1,0,0:0:0
104,116,147670,6,0,P|88:148|92:188,1,71.9999978027344,2|0,0:0|0:0,0:0:0
144,232,147970,2,0,P|160:200|156:160,1,71.9999978027344,2|0,0:0|0:0,0:0:0
104,116,148270,5,2,0:0:0
132,244,148495,1,2,0:0:0
252,292,148720,1,2,0:0:0
336,280,148870,5,0,0:0:0
224,212,149095,1,2,0:0:0
336,280,149320,1,2,0:0:0
424,280,149470,6,0,P|472:340,1,71.9999978027344,2|0,0:0|0:0,0:0:0
336,280,149770,2,0,P|320:208,1,71.9999978027344,2|0,0:0|0:0,0:0:0
308,124,150070,5,0,0:0:0
360,56,150220,1,0,0:0:0
360,56,150295,1,0,0:0:0
360,56,150370,1,0,0:0:0
448,48,150520,1,0,0:0:0
376,100,150670,5,0,0:0:0
280,76,150820,1,0,0:0:0
180,56,150970,1,0,0:0:0
88,92,151120,1,0,0:0:0
88,92,151195,1,0,0:0:0
88,92,151270,5,0,0:0:0
60,176,151420,1,0,0:0:0
128,232,151570,1,0,0:0:0
56,280,151720,1,0,0:0:0
124,336,151870,5,0,0:0:0
224,348,152020,1,0,0:0:0
292,276,152170,1,0,0:0:0
392,288,152320,1,0,0:0:0
392,288,152395,1,0,0:0:0
392,288,152470,6,0,P|436:192|428:84,2,215.999993408203,0|0|0,0:0|0:0|0:0,0:0:0
356,120,153670,6,0,P|356:180|336:228,2,107.999996704102,0|0|0,0:0|0:0|0:0,0:0:0
356,120,154270,1,0,0:0:0
60,316,154870,5,4,0:0:0
200,116,155170,1,2,0:0:0
60,316,155470,5,0,0:0:0
124,280,155695,1,2,0:0:0
188,244,155920,1,2,0:0:0
304,328,156070,5,2,0:0:0
60,316,156370,1,2,0:0:0
304,328,156670,5,0,0:0:0
376,320,156895,1,2,0:0:0
448,312,157120,1,2,0:0:0
496,176,157270,5,2,0:0:0
304,328,157570,1,2,0:0:0
496,176,157870,5,0,0:0:0
440,128,158095,1,2,0:0:0
384,80,158320,1,2,0:0:0
244,44,158470,5,2,0:0:0
261,115,158695,1,2,0:0:0
278,187,158920,1,0,0:0:0
196,304,159070,5,2,0:0:0
244,44,159370,1,2,0:0:0
196,304,159670,2,0,P|140:296,1,48,4|0,0:0|0:0,0:0:0
200,308,159820,5,0,0:0:0
224,320,159895,1,0,0:0:0
252,324,159970,1,0,0:0:0
280,320,160045,1,0,0:0:0
304,308,160120,1,0,0:0:0
324,284,160195,1,0,0:0:0
348,268,160270,1,0,0:0:0
376,260,160345,1,0,0:0:0
404,264,160420,1,0,0:0:0
428,280,160495,1,0,0:0:0
436,308,160570,1,0,0:0:0
428,336,160645,1,0,0:0:0
404,352,160720,2,0,P|356:368,1,48
252,236,160870,6,0,P|268:188,1,48,4|0,0:0|0:0,0:0:0
256,240,161020,5,0,0:0:0
236,220,161095,1,0,0:0:0
208,212,161170,1,0,0:0:0
180,208,161245,1,0,0:0:0
152,212,161320,1,0,0:0:0
124,224,161395,1,0,0:0:0
104,248,161470,1,0,0:0:0
96,276,161545,1,0,0:0:0
104,304,161620,1,0,0:0:0
124,324,161695,1,0,0:0:0
152,336,161770,1,0,0:0:0
180,336,161845,1,0,0:0:0
208,332,161920,2,0,P|256:348,1,48
372,260,162070,6,0,P|326:244,1,48,4|0,0:0|0:0,0:0:0
376,264,162220,5,0,0:0:0
380,236,162295,1,0,0:0:0
384,208,162370,1,0,0:0:0
388,180,162445,1,0,0:0:0
392,152,162520,1,0,0:0:0
396,124,162595,1,0,0:0:0
400,96,162670,2,0,P|432:56,1,48,4|0,0:0|0:0,0:0:0
404,100,162820,5,0,0:0:0
376,96,162895,1,0,0:0:0
348,92,162970,1,0,0:0:0
320,88,163045,1,0,0:0:0
292,84,163120,1,0,0:0:0
264,80,163195,1,0,0:0:0
236,76,163270,2,0,P|200:44,1,48,4|0,0:0|0:0,0:0:0
264,156,163420,5,0,0:0:0
236,152,163495,1,0,0:0:0
208,148,163570,2,0,P|172:116,1,48,4|0,0:0|0:0,0:0:0
236,228,163720,5,0,0:0:0
208,224,163795,1,0,0:0:0
180,220,163870,2,0,P|144:188,1,48,4|0,0:0|0:0,0:0:0
208,300,164020,5,0,0:0:0
180,296,164095,1,0,0:0:0
152,292,164170,2,0,P|116:260,1,48,4|0,0:0|0:0,0:0:0
200,372,164320,5,0,0:0:0
160,368,164395,1,0,0:0:0
124,364,164470,2,0,P|36:284,1,107.999996704102,8|0,0:0|2:0,0:0:0
44,291,164770,5,4,0:0:0
104,136,164920,1,0,0:0:0
260,76,165070,2,0,P|320:76|368:112,1,120,8|0,0:0|0:0,0:0:0
288,312,165370,6,0,P|200:276,1,96
120,244,165595,1,8,0:0:0
120,244,165670,2,0,P|92:196|104:136,1,120,0|8,0:0|0:0,0:0:0
260,76,165970,5,0,0:0:0
376,196,166120,1,0,0:0:0
292,344,166270,2,0,P|232:360|176:344,1,120,8|0,0:0|0:0,0:0:0
120,88,166570,6,0,P|176:72|260:76,1,144,0|8,0:0|0:0,0:0:0
292,156,166870,2,0,P|340:120|348:64,1,120,0|8,0:0|0:0,0:0:0
120,88,167170,5,0,0:0:0
116,256,167320,1,0,0:0:0
216,120,167470,2,0,P|192:-4,1,120,8|0,0:0|0:0,0:0:0
116,256,167770,6,0,P|168:336,1,96
252,356,167995,1,8,0:0:0
252,356,168070,2,0,P|312:364|364:340,1,120,0|8,0:0|0:0,0:0:0
285,135,168370,6,0,P|216:140|152:176,1,144,0|8,0:0|0:0,0:0:0
116,256,168670,2,0,P|132:316|180:352,1,120,0|8,0:0|0:0,0:0:0
344,336,168970,6,0,P|336:288,1,40
424,324,169070,5,0,0:0:0
480,268,169170,1,0,0:0:0
403,247,169270,1,0,0:0:0
460,192,169370,1,0,0:0:0
383,171,169470,1,0,0:0:0
440,116,169570,6,0,P|408:92|360:108|360:108|320:140|264:124,1,180,4|0,0:0|0:0,0:0:0
269,125,169870,1,8,0:0:0
124,52,170020,1,0,0:0:0
124,52,170095,1,0,0:0:0
124,52,170170,2,0,P|120:112|80:156,1,120
296,48,170470,2,0,P|316:104|368:132,1,120,8|0,0:0|0:0,0:0:0
160,196,170770,6,0,P|136:232|88:248|48:236|48:236|-4:264,1,180
1,261,171070,1,8,0:0:0
176,348,171220,1,0,0:0:0
176,348,171295,1,0,0:0:0
176,348,171370,2,0,P|240:344|240:344|304:360,1,120
160,196,171670,2,0,P|216:176|216:176|260:128,1,120,8|0,0:0|0:0,0:0:0
260,60,171895,1,0,0:0:0
260,60,171970,5,0,0:0:0
420,113,172120,1,0,0:0:0
419,280,172270,1,8,0:0:0
258,331,172420,2,0,P|196:324|196:324|140:336,1,120
139,336,172720,5,0,0:0:0
160,196,172870,1,8,0:0:0
124,60,173020,1,0,0:0:0
52,180,173170,6,0,P|139:336,1,180,4|4,0:0|0:0,0:0:0
84,192,173620,2,0,P|104:228,3,40,4|0|0|8,0:0|0:0|0:0|0:0,0:0:0
84,192,173920,1,0,0:0:0
84,192,173995,1,0,0:0:0
84,192,174070,1,8,0:0:0
124,60,174220,1,0,0:0:0
264,36,174370,5,4,0:0:0
268,204,174520,1,0,0:0:0
400,308,174670,2,0,P|460:300|504:256,1,120,8|0,0:0|0:0,0:0:0
372,92,174970,6,0,P|280:120,1,96
268,204,175195,1,8,0:0:0
268,204,175270,2,0,P|272:264|240:312,1,120,0|8,0:0|0:0,0:0:0
80,256,175570,5,0,0:0:0
104,88,175720,1,0,0:0:0
264,36,175870,2,0,P|320:60|376:48,1,120,8|0,0:0|0:0,0:0:0
396,256,176170,6,0,P|344:216|268:204,1,144,0|8,0:0|0:0,0:0:0
396,256,176470,2,0,P|336:272|316:324,1,120,0|8,0:0|0:0,0:0:0
484,316,176770,5,0,0:0:0
456,152,176920,1,0,0:0:0
308,76,177070,2,0,P|312:136|352:184,1,120,8|0,0:0|0:0,0:0:0
136,152,177370,6,0,P|184:156|228:136,1,96
168,76,177595,1,8,0:0:0
168,76,177670,2,0,P|148:136|168:192,1,120,0|8,0:0|0:0,0:0:0
216,348,177970,6,0,P|152:300|88:300,1,144,0|8,0:0|0:0,0:0:0
160,352,178270,2,0,P|216:328|248:276,1,120,0|8,0:0|0:0,0:0:0
240,112,178570,6,0,P|256:72,1,40
168,76,178670,5,0,0:0:0
136,152,178770,1,0,0:0:0
56,156,178870,1,0,0:0:0
76,232,178970,1,0,0:0:0
20,288,179070,1,0,0:0:0
88,328,179170,6,0,P|144:352|204:344,1,120,4|0,0:0|0:0,0:0:0
328,208,179470,2,0,P|272:184|212:192,1,120,8|0,0:0|0:0,0:0:0
160,352,179770,5,0,0:0:0
256,184,179920,1,0,0:0:0
201,345,180070,1,8,0:0:0
214,190,180220,1,0,0:0:0
220,228,180295,1,0,0:0:0
236,260,180370,6,0,P|284:300|340:312,1,120
496,188,180670,2,0,P|448:148|392:136,1,120,8|0,0:0|0:0,0:0:0
236,260,180970,5,0,0:0:0
496,188,181120,1,0,0:0:0
260,284,181270,1,8,0:0:0
472,164,181420,1,0,0:0:0
440,144,181495,1,0,0:0:0
404,140,181570,6,0,P|284:128,1,120
284,128,181870,1,8,0:0:0
336,356,182020,2,0,P|406:258,1,120
406,258,182320,1,0,0:0:0
184,72,182470,2,0,P|254:169,1,120,8|0,0:0|0:0,0:0:0
336,356,182770,5,4,0:0:0
336,356,182995,1,4,0:0:0
336,356,183220,2,0,P|380:360,2,40,4|0|0,0:0|0:0|0:0,0:0:0
336,356,183370,6,0,P|280:332|224:344,1,120,8|0,0:0|0:0,0:0:0
152,344,183595,1,0,0:0:0
80,344,183670,2,0,P|32:316|16:252,1,120,8|0,0:0|0:0,0:0:0
28,212,183870,2,0,P|40:172,2,40,0|0|4,0:0|0:0|0:0,0:0:0
80,344,184116,5,0,0:0:0
116,344,184189,1,0,0:0:0
152,344,184262,1,8,0:0:0
284,280,184409,1,0,0:0:0
420,332,184555,2,0,P|468:296|472:236,1,120
316,40,184848,6,0,P|328:100,1,60,8|0,0:0|0:0,0:0:0
392,180,184994,2,0,P|428:128,1,60
312,176,185140,2,0,P|276:168|256:136|256:136|228:148|200:136,1,120
32,216,185433,6,0,P|32:248|44:272,1,60,8|0,0:0|0:0,0:0:0
160,248,185579,2,0,P|132:232|105:230,1,60
112,308,185726,2,0,P|152:336|196:316|196:316|228:316,1,120
360,112,186018,6,0,P|320:84|276:104|276:104|244:104,1,120,8|0,0:0|0:0,0:0:0
168,88,186238,1,0,0:0:0
108,40,186311,2,0,P|80:80|100:124|100:124|100:156,1,120
112,308,186604,6,0,P|136:320|172:320,1,60,8|0,0:0|0:0,0:0:0
264,356,186750,2,0,P|296:355|320:343,1,60
372,256,186896,2,0,P|432:240|496:260,1,120
220,248,187189,6,0,P|248:264|280:272,1,60,8|0,0:0|0:0,0:0:0
372,256,187335,2,0,P|372:220|388:188,1,60
472,156,187482,2,0,P|492:120|492:120|468:68|412:52|376:76,1,180
324,140,187774,2,0,P|264:156|208:136,1,120,8|0,0:0|0:0,0:0:0
52,88,188067,6,0,P|44:48,2,40,8|0|0,0:0|0:0|0:0,0:0:0
88,160,188262,1,0,0:0:0
80,240,188360,6,0,P|124:252,1,40,8|0,0:0|0:0,0:0:0
80,268,188457,2,0,P|120:272,1,40,8|0,0:0|0:0,0:0:0
80,296,188555,2,0,P|120:296,1,40,8|0,0:0|0:0,0:0:0
80,324,188652,2,0,P|172:308|172:308|196:348|244:348,1,180,4|0,0:0|0:0,0:0:0
244,268,188937,5,8,0:0:0
400,328,189080,1,0,0:0:0
492,188,189223,2,0,P|448:144|444:84,1,120
400,328,189509,6,0,P|364:320|344:304,1,60,8|0,0:0|0:0,0:0:0
244,268,189652,2,0,P|216:276|184:276,1,60
104,208,189794,2,0,P|68:256|12:272,1,120
44,48,190080,6,0,P|76:36|104:36,1,60,8|0,0:0|0:0,0:0:0
208,16,190223,2,0,P|236:24|260:44,1,60
364,76,190366,2,0,P|404:96|416:148|396:188|396:188|416:248,1,180
480,288,190652,2,0,P|428:316|364:304,1,120,8|0,0:0|0:0,0:0:0
208,352,190937,5,4,0:0:0
160,200,191128,1,0,0:0:0
112,48,191318,1,0,0:0:0
8,248,191509,6,0,P|16:292,2,40,12|0|0,0:0|0:0|0:0,0:0:0
8,248,191700,1,0,0:0:0
160,200,191890,1,0,0:0:0
312,152,192080,5,8,0:0:0
348,160,192152,1,0,0:0:0
384,168,192223,2,0,P|416:192,3,40,0|0|0|8,0:0|0:0|0:0|0:0,0:0:0
384,256,192437,5,0,0:0:0
384,256,192509,2,0,P|428:268,3,40,0|0|0|8,0:0|0:0|0:0|0:0,0:0:0
480,312,192723,5,0,0:0:0
440,340,192794,1,0,0:0:0
392,340,192866,1,0,0:0:0
348,328,192937,1,0,0:0:0
312,296,193009,1,0,0:0:0
288,256,193080,2,0,P|328:236,2,40
288,256,193223,6,0,P|232:212|224:128,1,143.999995605469,0|4,0:0|0:0,0:0:0
388,32,193641,1,0,0:0:0
388,32,193711,1,0,0:0:0
388,32,193781,2,0,P|416:84|472:104,1,120
164,48,194060,6,0,P|119:87|60:86,1,120,8|0,0:0|0:0,0:0:0
28,204,194339,1,0,0:0:0
56,320,194478,1,0,0:0:0
174,327,194618,1,8,0:0:0
218,217,194757,1,0,0:0:0
129,141,194897,2,0,P|88:184|80:244,1,120
56,320,195106,1,0,0:0:0
56,320,195176,2,0,P|120:316|156:272,1,120,8|0,0:0|0:0,0:0:0
256,96,195455,6,0,P|276:88|276:88|280:76|280:76|288:84|288:84|300:80|300:80|308:88|308:88|312:76|312:76|352:60|352:60|404:80|404:80|468:72,1,240,0|8,0:0|0:0,0:0:0
496,188,195874,1,0,0:0:0
496,188,195943,1,0,0:0:0
496,188,196013,2,0,P|437:199|437:199|389:243,1,120
256,96,196292,6,0,P|197:84|197:84|149:40,1,120,8|0,0:0|0:0,0:0:0
32,32,196571,1,0,0:0:0
88,140,196711,1,0,0:0:0
56,24,196850,1,8,0:0:0
60,144,196990,1,0,0:0:0
40,260,197129,6,0,P|-8:264,2,40,8|0|0,0:0|0:0|0:0,0:0:0
120,268,197316,1,0,0:0:0
164,336,197409,1,8,0:0:0
240,360,197502,1,0,0:0:0
320,364,197595,1,0,0:0:0
396,340,197688,6,0,P|432:336|440:308|440:308|496:296|528:216|488:152,1,240,4|8,0:0|0:0,0:0:0
480,64,198106,1,0,0:0:0
480,64,198176,1,0,0:0:0
480,64,198246,2,0,P|434:33|371:35,1,120
312,212,198525,2,0,P|360:233|424:221,1,120,8|0,0:0|0:0,0:0:0
264,104,198804,5,0,0:0:0
250,291,198943,1,0,0:0:0
372,148,199083,1,8,0:0:0
189,193,199223,1,0,0:0:0
364,264,199362,2,0,P|448:240|496:160,1,180
464,88,199641,2,0,P|420:46|360:40,1,120,8|0,0:0|0:0,0:0:0
263,65,199920,5,12,0:0:0
243,327,200106,1,0,0:0:0
414,127,200292,1,0,0:0:0
158,190,200478,6,0,P|116:196,2,40,8|0|0,0:0|0:0|0:0,0:0:0
158,190,200664,1,0,0:0:0
403,298,200850,1,0,0:0:0
263,66,201036,6,0,P|248:28,2,40,8|0|0,0:0|0:0|0:0,0:0:0
263,66,201223,1,0,0:0:0
243,327,201409,1,0,0:0:0
414,127,201595,5,12,0:0:0
414,127,202153,5,4,0:0:0
376,216,202289,1,8,0:0:0
263,66,202425,5,0,0:0:0
172,104,202562,2,0,P|112:108|64:72,1,120,8|0,0:0|0:0,0:0:0
36,288,202834,5,8,0:0:0
36,288,202903,1,0,0:0:0
36,288,202971,2,0,P|80:248|144:248,1,120,0|8,0:0|0:0,0:0:0
356,296,203243,2,0,P|412:292|456:244,1,120,0|8,0:0|0:0,0:0:0
263,66,203516,5,0,0:0:0
376,216,203653,1,8,0:0:0
172,104,203789,1,0,0:0:0
414,127,203925,1,8,0:0:0
263,66,204062,2,0,P|136:68,1,120,0|8,0:0|0:0,0:0:0
36,288,204334,5,0,0:0:0
144,232,204471,1,8,0:0:0
264,232,204607,1,0,0:0:0
380,264,204743,1,8,0:0:0
464,352,204880,5,0,0:0:0
320,344,205016,1,8,0:0:0
284,204,205153,1,0,0:0:0
406,126,205289,1,8,0:0:0
432,148,205357,1,0,0:0:0
460,172,205425,6,0,P|404:192|348:176,1,120,0|8,0:0|0:0,0:0:0
208,64,205698,2,0,P|152:48|96:68,1,120,0|8,0:0|0:0,0:0:0
24,248,205971,6,0,P|4:288,1,40,8|0,0:0|0:0,0:0:0
88,296,206062,1,8,0:0:0
168,312,206153,1,8,0:0:0
244,292,206243,1,8,0:0:0
292,228,206334,1,8,0:0:0
308,148,206425,1,8,0:0:0
300,72,206516,6,0,P|420:44,1,120,4|8,0:0|0:0,0:0:0
291,228,206808,2,0,P|408:256,1,120,0|8,0:0|0:0,0:0:0
300,72,207101,5,0,0:0:0
392,52,207247,1,8,0:0:0
292,228,207394,1,0,0:0:0
384,252,207540,1,8,0:0:0
408,256,207613,1,0,0:0:0
432,260,207686,6,0,P|440:308|416:348,1,96,0|8,0:0|0:0,0:0:0
292,228,208001,2,0,P|261:190|261:143,1,96,0|8,0:0|0:0,0:0:0
392,52,208317,5,0,0:0:0
488,116,208475,1,8,0:0:0
500,232,208633,1,0,0:0:0
428,324,208791,1,8,0:0:0
412,320,208870,1,0,0:0:0
396,316,208949,5,4,0:0:0
159,273,209177,1,0,0:0:0
313,89,209406,1,0,0:0:0
330,321,209634,6,0,P|325:385,1,64,4|0,0:0|0:0,0:0:0
157,225,209884,2,0,P|103:189,1,64
323,129,210134,2,0,P|380:100,1,64
263,304,210384,6,0,P|215:314,1,47.9999985351563,4|0,0:0|0:0,0:0:0
164,186,210650,2,0,P|178:140,1,47.9999985351563,4|0,0:0|0:0,0:0:0
315,160,210917,2,0,P|346:195,1,47.9999985351563,4|0,0:0|0:0,0:0:0
245,216,211184,5,4,0:0:0
