osu file format v11

[General]
AudioFilename: Kakuzetsu Thanatos.mp3
AudioLeadIn: 1000
PreviewTime: 68164
Countdown: 0
SampleSet: Soft
StackLeniency: 0.5
Mode: 0
LetterboxInBreaks: 0

[Editor]
DistanceSpacing: 1
BeatDivisor: 6
GridSize: 4

[Metadata]
Title:Kakuzetsu Thanatos
TitleUnicode:隔絶≡タナトス
Artist:Rohi
ArtistUnicode:ろひ
Creator:NatsumeRin
Version:RLC
Source:Vocaloid
Tags:Kagamine Rin Amamiya Yuko Pokie RLC hs714 qoot8123
BeatmapID:216133
BeatmapSetID:76396

[Difficulty]
HPDrainRate:6
CircleSize:4
OverallDifficulty:7
ApproachRate:9
SliderMultiplier:2
SliderTickRate:1

[Events]
//Background and Video events
0,0,"BG.JPG"
Video,0,"PV.flv"
//Break Periods
2,87870,95470
2,145470,154270
//Storyboard Layer 0 (Background)
//Storyboard Layer 1 (Fail)
//Storyboard Layer 2 (Pass)
//Storyboard Layer 3 (Foreground)
//Storyboard Sound Samples
//Background Colour Transformations
3,100,163,162,255

[TimingPoints]
70,300,4,2,1,70,1,0
970,-200,4,2,1,70,0,0
9070,-166.666666666667,4,2,1,70,0,0
9670,-125,4,2,1,70,0,0
10270,-100,4,2,1,70,0,0
10570,-100,4,1,1,70,0,0
19870,-166.666666666667,4,1,1,40,0,0
20470,-125,4,2,1,70,0,0
30070,-100,4,1,1,70,0,0
39070,-166.666666666667,4,1,1,40,0,0
39670,-125,4,2,1,70,0,0
48970,-200,4,1,2,70,0,0
58870,-125,4,2,2,70,0,0
66820,-100,4,1,1,70,0,0
68170,-100,4,2,1,5,0,0
68470,-83.3333333333333,4,1,1,90,0,1
77470,-83.3333333333333,4,1,1,90,0,0
78070,-83.3333333333333,4,1,1,90,0,1
87670,-83.3333333333333,4,1,1,70,0,0
97570,-125,4,1,1,70,0,1
97645,-125,4,1,1,70,0,0
106270,-166.666666666667,4,1,1,40,0,0
106870,-100,4,1,1,70,0,0
115870,-166.666666666667,4,1,1,40,0,0
116170,-166.666666666667,4,1,1,70,0,0
116470,-125,4,2,1,70,0,0
125770,-200,4,1,2,70,0,0
135670,-125,4,2,2,70,0,0
145270,-166.666666666667,4,1,1,70,0,0
154870,-166.666666666667,4,2,1,70,0,0
159670,-125,4,1,1,70,0,0
164470,-125,4,1,1,20,0,0
164770,300,4,1,1,90,1,1
164770,-83.3333333333333,4,1,1,90,0,1
173770,-83.3333333333333,4,1,1,90,0,0
174370,-83.3333333333333,4,1,1,90,0,1
183970,292.682926829268,4,1,1,70,1,0
188652,285.714285714286,4,1,1,70,1,0
193223,279.06976744186,4,1,1,70,1,0
193502,-100,4,1,1,70,0,1
193571,-100,4,1,1,70,0,0
201595,-166.666666666667,4,1,1,40,0,0
202153,272.727272727273,4,1,1,70,1,0
202153,-125,4,1,1,70,0,0
206516,292.682926829268,4,1,1,70,1,0
207686,315.789473684211,4,1,1,70,1,0
208949,342.857142857143,4,1,1,70,1,0
209634,375,4,1,1,70,1,0
210384,400,4,1,1,70,1,0

[Colours]
Combo1 : 192,192,192
Combo2 : 64,0,128
Combo3 : 0,232,232
Combo4 : 222,22,28
Combo5 : 108,108,183
Combo6 : 255,255,74

[HitObjects]
78,290,970,1,2,0:0:0
117,226,1120,1,2,0:0:0
182,190,1270,2,0,P|255:169|345:183,1,150,2|0,0:0|0:0,0:0:0
397,206,1870,2,0,P|451:236|470:254,2,75,2|2|2,0:0|0:0|0:0,0:0:0
327,176,2470,6,0,P|254:168|181:189,1,150,2|0,0:0|0:0,0:0:0
120,233,3070,2,0,P|79:279|71:303,2,75,2|2|2,0:0|0:0|0:0,0:0:0
181,189,3670,6,0,P|216:135|219:38,1,150,2|0,0:0|0:0,0:0:0
294,29,4270,2,0,P|312:64|343:87,2,75,2|2|2,0:0|0:0|0:0,0:0:0
387,153,4870,6,0,P|415:117|421:77,2,75,2|2|2,0:0|0:0|0:0,0:0:0
312,166,5470,1,2,0:0:0
165,135,5770,1,2,0:0:0
133,281,6070,5,2,0:0:0
101,213,6220,1,0,0:0:0
70,144,6370,1,0,0:0:0
38,76,6520,1,0,0:0:0
124,297,7270,5,2,0:0:0
112,206,7420,1,0,0:0:0
53,146,7570,1,0,0:0:0
44,53,7720,1,0,0:0:0
162,312,8470,6,0,P|95:313,1,50,2|0,0:0|0:0,0:0:0
234,265,8770,2,0,P|292:263,1,50,0|2,0:0|0:0,0:0:0
357,343,9070,6,0,P|276:347,1,59.9999981689454,0|0,0:0|0:0,0:0:0
149,183,9370,2,0,P|229:183,1,59.9999981689454,2|0,0:0|0:0,0:0:0
461,241,9670,6,0,P|369:237,1,80,2|0,0:0|0:0,0:0:0
260,96,9970,2,0,P|356:90,1,80,2|0,0:0|0:0,0:0:0
444,119,10270,5,2,0:0:0
301,287,10570,2,2,P|234:284|195:243,1,100,0|2,0:0|0:0,0:0:0
160,104,10870,5,4,0:0:0
160,104,11020,1,0,0:0:0
270,203,11170,1,8,0:0:0
102,252,11320,1,0,0:0:0
270,203,11470,6,0,P|144:210,1,100
41,212,11770,1,8,0:0:0
150,312,11920,1,0,0:0:0
189,175,12070,6,0,P|288:169,1,100
433,169,12370,1,8,0:0:0
353,258,12520,1,0,0:0:0
304,136,12670,6,0,P|178:143,1,100,0|8,0:0|0:0,0:0:0
264,24,12970,2,0,P|390:17,1,100,8|0,0:0|0:0,0:0:0
462,182,13270,5,0,0:0:0
462,182,13420,1,0,0:0:0
363,176,13570,1,8,0:0:0
510,90,13720,1,0,0:0:0
508,268,13870,6,0,P|435:270|397:294,1,100,0|0,0:0|0:0,0:0:0
475,363,14170,1,8,0:0:0
475,363,14320,1,0,0:0:0
357,278,14470,6,0,P|408:246|458:236,1,100,0|0,0:0|0:0,0:0:0
475,363,14770,1,8,0:0:0
475,363,14920,1,0,0:0:0
344,222,15070,6,2,P|312:251|295:279,1,66.6666666666667
299,143,15270,2,2,P|336:121|372:111,1,66.6666666666667,0|0,0:0|0:0,0:0:0
184,159,15470,2,2,P|159:195|146:230,1,66.6666666666667
230,61,15670,6,0,P|115:74,1,100,4|0,0:0|0:0,0:0:0
5,49,15970,1,8,0:0:0
5,49,16120,1,0,0:0:0
164,102,16270,6,0,P|279:89,1,100
420,44,16570,1,8,0:0:0
420,44,16720,1,0,0:0:0
276,119,16870,6,0,P|161:132,1,100
36,147,17170,1,8,0:0:0
36,147,17320,1,0,0:0:0
210,160,17470,6,0,P|325:147,1,100,0|8,0:0|0:0,0:0:0
429,327,17770,2,0,P|314:340,1,100,8|0,0:0|0:0,0:0:0
124,279,18070,6,0,P|120:203|121:122,2,133.333333333333,2|2|2,0:0|0:0|0:0,0:0:0
124,279,18670,6,2,P|68:290,2,33.3333333333333,2|0|2,0:0|0:0|0:0,0:0:0
203,262,18870,2,2,P|250:261|277:269,1,66.6666666666667
345,289,19070,2,2,P|384:310|406:340,1,66.6666666666667
445,261,19270,6,2,P|478:295,2,33.3333333333333,2|0|2,0:0|0:0|0:0,0:0:0
500,202,19470,2,2,P|457:179|442:148,1,66.6666666666667
406,95,19670,2,2,P|394:65|390:18,1,66.6666666666667
501,75,19870,6,2,P|446:134|341:114,1,179.999994506836,8|0,0:3|0:0,0:0:0
303,62,20470,5,4,0:0:0
187,29,20620,1,2,0:0:0
109,120,20770,2,0,P|121:222,1,80,8|2,0:0|0:0,0:0:0
247,363,21070,2,0,P|265:291|253:191,1,160,2|8,0:0|0:0,0:0:0
186,109,21520,1,8,0:0:0
303,62,21670,6,0,P|361:72|390:66,1,80,0|2,0:0|0:0,0:0:0
512,119,21970,2,0,P|459:120|422:136,1,80,8|2,0:0|0:0,0:0:0
453,344,22270,2,0,P|494:297|476:191,1,160,2|10,0:0|0:0,0:0:0
355,148,22720,1,10,0:0:0
293,307,22870,6,0,P|209:326,1,80,0|2,0:0|0:0,0:0:0
127,268,23170,2,0,P|43:287,1,80,8|2,0:0|0:0,0:0:0
26,198,23470,2,0,P|61:190|61:190|75:180|75:180|99:188|99:188|115:179|115:179|179:167,1,160,2|8,0:0|0:0,0:0:0
285,220,23920,1,8,0:0:0
152,89,24070,6,0,P|167:48|198:13,1,80,0|2,0:0|0:0,0:0:0
265,33,24370,2,0,P|242:37|189:20,1,80,8|2,0:0|0:0,0:0:0
53,75,24670,2,0,P|104:26|189:20,1,160,2|10,0:0|0:0,0:0:0
270,121,25120,1,10,0:0:0
144,285,25270,6,0,P|135:310|135:310|145:362,1,80,0|2,0:0|0:0,0:0:0
161,186,25569,2,0,P|170:161|170:161|159:108,1,80,8|2,0:0|0:0,0:0:0
151,238,25870,2,0,P|322:211,1,160,2|8,0:0|0:0,0:0:0
393,284,26320,1,8,0:0:0
454,76,26470,6,0,P|466:140|461:174,1,80,0|2,0:0|0:0,0:0:0
308,80,26770,2,0,P|296:16|301:-18,1,80,8|2,0:0|0:0,0:0:0
376,152,27070,2,0,P|311:174|222:110,1,160,0|10,0:0|0:0,0:0:0
116,109,27520,1,10,0:0:0
237,233,27670,6,0,P|175:252|149:286,1,80,0|2,0:0|0:0,0:0:0
230,319,27970,1,8,0:0:0
291,169,28120,1,2,0:0:0
94,212,28270,6,0,P|79:275|95:314,1,80,0|2,0:0|0:0,0:0:0
165,261,28570,1,8,0:0:0
66,134,28720,1,10,0:0:0
4,325,28870,6,0,P|51:369|93:374,1,80,0|2,0:0|0:0,0:0:0
203,176,29170,2,0,P|155:131|113:126,1,80,8|2,0:0|0:0,0:0:0
111,239,29470,6,0,P|153:275,3,40
171,292,29770,1,8,0:0:0
280,340,29920,1,8,0:0:0
333,196,30070,5,4,0:0:0
333,196,30220,1,0,0:0:0
370,89,30370,1,8,0:0:0
276,26,30520,1,0,0:0:0
244,134,30670,6,0,P|255:259,1,100
204,361,30970,1,8,0:0:0
317,273,31120,1,0,0:0:0
214,210,31270,6,0,P|205:110,1,100
162,8,31570,1,8,0:0:0
275,73,31720,1,0,0:0:0
175,98,31870,6,0,P|186:223,1,100,0|8,0:0|0:0,0:0:0
77,375,32170,2,0,P|68:275,1,100,8|0,0:0|0:0,0:0:0
59,133,32470,5,0,0:0:0
59,133,32620,1,0,0:0:0
11,213,32770,1,8,0:0:0
106,55,32920,1,0,0:0:0
270,154,33070,6,0,P|210:157|154:136,1,100
32,60,33370,1,8,0:0:0
183,46,33520,1,0,0:0:0
215,203,33670,6,0,P|278:204|326:183,1,100
425,123,33970,1,8,0:0:0
341,98,34120,1,0,0:0:0
381,211,34270,6,2,P|343:235|310:245,1,66.6666666666667
244,333,34470,2,2,P|300:333|337:323,1,66.6666666666667
463,213,34670,2,2,P|459:269|450:300,1,66.6666666666667
403,355,34870,5,4,0:0:0
403,355,35020,1,0,0:0:0
381,211,35170,1,8,0:0:0
481,329,35320,1,0,0:0:0
323,269,35470,2,0,P|434:284,1,100
333,145,35770,1,8,0:0:0
333,145,35920,1,0,0:0:0
365,308,36070,6,0,P|266:295,1,100
306,115,36370,1,8,0:0:0
306,115,36520,1,0,0:0:0
224,256,36670,6,0,P|335:271,1,100,0|8,0:0|0:0,0:0:0
318,38,36970,1,8,0:0:0
196,105,37120,1,0,0:0:0
274,216,37270,6,0,P|199:209|116:231,2,133.333333333333,2|2|2,0:0|0:0|0:0,0:0:0
380,189,37870,6,2,P|423:200,2,33.3333333333333,2|0|2,0:0|0:0|0:0,0:0:0
312,145,38070,2,2,P|289:110|280:74,1,66.6666666666667
176,48,38270,2,2,P|199:83|208:119,1,66.6666666666667
132,189,38470,6,2,P|89:200,2,33.3333333333333,2|0|2,0:0|0:0|0:0,0:0:0
208,211,38670,2,2,P|223:293,1,66.6666666666667
295,249,38870,2,2,P|310:333,1,66.6666666666667
280,164,39070,6,2,P|341:145|437:209,1,179.999994506836,4|0,0:3|0:0,0:0:0
200,136,39670,6,0,P|224:96|267:76,1,80,4|2,0:0|0:0,0:0:0
220,216,39970,2,0,P|172:225|132:213,1,80,8|2,0:0|0:0,0:0:0
7,312,40270,2,0,P|60:291|169:329,1,160,2|8,0:0|0:0,0:0:0
251,329,40720,1,8,0:0:0
313,256,40870,6,0,P|301:162,1,80,0|2,0:0|0:0,0:0:0
378,313,41170,2,0,P|403:234,1,80,8|2,0:0|0:0,0:0:0
480,54,41470,2,0,P|434:103|344:91,1,160,2|10,0:0|0:0,0:0:0
234,50,41920,1,10,0:0:0
142,127,42070,6,0,P|156:238,1,80,0|2,0:0|0:0,0:0:0
49,291,42370,2,0,P|63:180,1,80,8|2,0:0|0:0,0:0:0
48,99,42670,2,0,P|191:106,1,120,2|0,0:0|0:0,0:0:0
235,144,42970,2,0,P|333:149,1,80,8|8,0:0|0:0,0:0:0
482,174,43270,6,0,P|483:125|473:87,1,80,0|2,0:0|0:0,0:0:0
386,183,43570,2,0,P|344:157|290:147,1,80,8|2,0:0|0:0,0:0:0
328,268,43870,2,0,P|259:279|203:331,1,120,2|0,0:0|0:0,0:0:0
126,282,44170,2,0,P|132:241|159:193,1,80,10|10,0:0|0:0,0:0:0
300,351,44470,5,4,0:0:0
221,218,44620,1,2,0:0:0
333,64,44770,2,0,P|322:144,1,80,8|2,0:0|0:0,0:0:0
189,61,45070,2,0,P|251:92|333:64,1,160,2|8,0:0|0:0,0:0:0
401,12,45520,1,8,0:0:0
261,11,45670,5,0,0:0:0
244,113,45820,1,2,0:0:0
312,190,45970,1,8,0:0:0
385,263,46120,1,2,0:0:0
363,361,46270,2,0,P|327:299|225:289,1,160,0|10,0:0|0:0,0:0:0
161,344,46720,1,10,0:0:0
263,362,46870,5,0,0:0:0
202,229,47020,1,2,0:0:0
312,191,47170,2,0,P|330:87,1,80,8|2,0:0|0:0,0:0:0
170,89,47470,5,0,0:0:0
170,89,47620,1,2,0:0:0
202,229,47770,2,0,P|184:333,1,80,8|10,0:0|0:0,0:0:0
248,112,48070,5,0,0:0:0
341,36,48220,1,2,0:0:0
442,101,48370,1,8,0:0:0
410,217,48520,1,2,0:0:0
291,224,48670,1,0,0:0:0
291,224,48970,6,0,P|224:221,1,50
180,333,49270,2,0,P|115:341|42:286,1,150,4|0,0:3|0:0,0:0:0
102,150,49870,2,0,P|88:46,1,100,8|0,0:0|0:0,0:0:0
88,50,50470,6,0,P|55:100,1,50
209,55,50770,2,0,P|179:99,1,50
349,63,51070,2,0,P|283:155,1,100,8|0,0:0|0:0,0:0:0
197,182,51520,1,0,0:0:0
400,147,51670,6,0,P|450:168|469:190,2,75,8|0|0,0:3|0:0|0:0,0:0:0
370,303,52270,2,0,P|314:340|224:319,1,150,8|0,0:0|0:0,0:0:0
168,253,52870,5,0,0:0:0
6,371,53170,1,0,0:0:0
235,327,53470,6,0,P|314:340|370:303,1,150,8|0,0:0|0:0,0:0:0
400,208,54070,6,0,P|421:48,1,150,4|0,0:3|0:0,0:0:0
285,75,54670,1,8,0:0:0
285,75,54970,2,0,P|216:82,1,50
75,104,55270,5,0,0:0:0
199,203,55570,1,0,0:0:0
52,259,55870,1,8,0:0:0
52,259,56170,2,0,P|102:245,1,50
148,322,56470,6,0,P|232:330,2,75,8|0|0,0:3|0:0|0:0,0:0:0
237,228,57070,2,0,P|316:254|350:328,1,150,8|0,0:0|0:0,0:0:0
293,368,57670,5,0,0:0:0
279,142,57970,1,0,0:0:0
455,190,58270,2,0,P|397:166|362:91,1,150,8|0,0:0|0:0,0:0:0
362,90,58870,6,0,P|351:221,2,120,4|0|2,0:0|0:0|0:0,0:0:0
230,125,59470,1,2,0:0:0
214,124,59545,1,0,0:0:0
198,120,59620,1,2,0:0:0
182,114,59695,1,0,0:0:0
168,104,59770,1,10,0:0:0
156,93,59845,1,0,0:0:0
146,79,59920,1,2,0:0:0
139,64,59995,1,0,0:0:0
133,49,60070,6,0,P|115:149,1,80,2|2,0:0|0:0,0:0:0
214,124,60370,2,0,P|224:230,1,80,8|2,0:0|0:0,0:0:0
314,100,60670,2,0,P|362:265,1,160,2|10,0:0|0:0,0:0:0
428,212,61120,1,2,0:0:0
432,291,61270,6,0,P|397:328|351:331,1,80,0|2,0:0|0:0,0:0:0
229,341,61570,2,0,P|264:304|310:301,1,80,8|2,0:0|0:0,0:0:0
179,267,61870,2,0,P|131:255|108:230,1,80,0|2,0:0|0:0,0:0:0
71,163,62170,2,0,P|64:110|79:68,1,80,8|2,0:0|0:0,0:0:0
140,46,62470,5,0,0:0:0
210,83,62620,1,2,0:0:0
143,127,62770,1,8,0:0:0
273,36,62920,2,0,P|297:89|301:142,1,80,2|0,0:0|0:0,0:0:0
283,234,63220,2,0,P|291:189|378:120,1,160,2|2,0:0|0:0,0:0:0
370,252,63670,5,0,0:0:0
205,294,63820,2,0,P|194:249|202:196,2,80,2|8|2,0:0|0:0|0:0,0:0:0
225,113,64270,1,2,0:0:0
205,78,64345,1,0,0:0:0
170,58,64420,1,2,0:0:0
130,55,64495,1,0,0:0:0
91,66,64570,2,0,P|50:97|39:138,1,80,10|2,0:0|0:0,0:0:0
136,152,64870,5,0,0:0:0
124,245,65020,2,0,P|162:245|198:224,2,80,2|8|2,0:0|0:0|0:0,0:0:0
383,124,65470,2,0,P|325:143|276:230,1,160,2|10,0:0|0:0,0:0:0
285,309,65920,1,2,0:0:0
423,344,66070,5,0,0:0:0
437,207,66220,2,0,P|362:221|381:300,1,160,2|2,0:0|0:0,0:0:0
503,254,66670,5,0,0:0:0
461,135,66820,2,0,P|406:123|280:226,1,200,2|2,0:0|0:0,0:0:0
256,192,67270,12,0,68170,0:0:0
283,28,68470,6,0,P|310:80|308:162,1,119.999996337891,4|0,0:0|0:0,0:0:0
130,322,68770,2,0,P|125:259|151:190,1,119.999996337891,8|0,0:0|0:0,0:0:0
233,104,69070,6,0,P|157:132|91:115,1,119.999996337891
72,190,69295,2,0,P|145:219|200:319,1,179.999994506836,8|8,0:0|0:0,0:0:0
197,302,69670,6,0,P|245:256|307:242,1,119.999996337891
501,148,69970,2,0,P|431:188|377:183,1,119.999996337891,8|0,0:0|0:0,0:0:0
325,49,70270,6,0,P|196:65,1,119.999996337891
135,47,70495,2,0,P|129:125|60:207,1,179.999994506836,8|8,0:0|0:0,0:0:0
67,202,70870,6,0,P|143:190|193:207,1,119.999996337891
204,314,71170,2,0,P|177:256|188:193,1,119.999996337891,8|0,0:0|0:0,0:0:0
372,208,71470,6,0,P|240:237,1,119.999996337891
246,159,71695,2,0,P|308:214|294:308,1,179.999994506836,8|8,0:0|0:0,0:0:0
164,132,72070,6,0,P|199:87|280:87,1,119.999996337891
367,102,72295,2,0,P|284:100|246:59,1,119.999996337891,8|0,0:0|0:0,0:0:0
327,28,72520,1,8,0:0:0
456,109,72670,6,2,P|453:154|453:154|460:196,2,79.9999975585938,2|2|2,0:0|0:0|0:0,0:0:0
372,210,72970,6,2,P|375:255|375:255|368:297,2,79.9999975585938
275,222,73270,5,4,0:0:0
139,270,73420,1,2,0:0:0
164,124,73570,1,8,0:0:0
223,285,73720,5,2,0:0:0
112,193,73870,1,0,0:0:0
247,142,74020,1,2,0:0:0
287,281,74170,2,0,P|194:206,1,119.999996337891,10|0,0:0|0:0,0:0:0
60,252,74470,5,0,0:0:0
86,115,74620,1,2,0:0:0
218,68,74770,1,8,0:0:0
224,283,74920,5,2,0:0:0
112,191,75070,1,0,0:0:0
138,54,75220,1,2,0:0:0
332,124,75370,2,0,P|233:192,1,119.999996337891,10|0,0:0|0:0,0:0:0
396,61,75670,5,0,0:0:0
361,208,75820,1,2,0:0:0
497,163,75970,1,8,0:0:0
396,61,76120,2,0,P|433:205,1,119.999996337891,2|0,0:0|0:0,0:0:0
479,323,76420,5,2,0:0:0
361,208,76570,1,8,0:0:0
212,285,76720,1,2,0:0:0
108,159,76870,6,0,P|57:217|59:336,2,179.999994506836,0|2|2,0:0|0:0|0:0,0:0:0
332,292,77470,2,0,P|392:294|441:233,1,119.999996337891,0|2,0:0|0:0,0:0:0
440,220,77695,1,2,0:0:0
432,184,77770,1,2,0:0:0
273,223,77920,2,0,P|277:171,4,29.9999990844727,2|0|0|0|4,0:0|0:0|0:0|0:0|0:0,0:0:0
213,365,78220,5,0,0:0:0
184,194,78370,2,0,P|135:158|64:141,1,119.999996337891,8|0,0:0|0:0,0:0:0
209,97,78670,6,0,P|269:63|308:11,1,119.999996337891
372,90,78895,2,0,P|375:173|440:257,1,179.999994506836,8|8,0:0|0:0,0:0:0
320,260,79270,6,0,P|243:265|197:289,1,119.999996337891
469,358,79570,2,0,P|463:301|429:249,1,119.999996337891,8|0,0:0|0:0,0:0:0
272,345,79870,6,0,P|337:348|388:303,1,119.999996337891
375,192,80095,2,0,P|411:124|374:26,1,179.999994506836,8|8,0:0|0:0,0:0:0
263,188,80470,6,0,P|308:208|375:192,1,119.999996337891
177,135,80770,2,0,P|177:276,1,119.999996337891,8|0,0:0|0:0,0:0:0
123,69,81070,6,0,P|78:49|11:65,1,119.999996337891
53,232,81295,2,0,P|127:220|177:134,1,179.999994506836,8|8,0:0|0:0,0:0:0
259,31,81670,6,0,P|277:114|334:161,1,119.999996337891
363,173,81895,2,0,P|430:184|492:167,1,119.999996337891,8|0,0:0|0:0,0:0:0
474,100,82120,5,8,0:0:0
298,139,82270,2,2,P|291:179|291:179|304:225,2,79.9999975585938
375,258,82570,2,2,P|382:297|382:297|369:343,2,79.9999975585938
213,112,82870,5,4,0:0:0
82,173,83020,1,2,0:0:0
199,259,83170,1,8,0:0:0
129,101,83320,5,2,0:0:0
115,248,83470,1,0,0:0:0
244,188,83620,1,2,0:0:0
165,182,83770,5,10,0:0:0
165,182,83920,1,0,0:0:0
150,324,84070,5,0,0:0:0
280,261,84220,1,2,0:0:0
291,123,84370,1,8,0:0:0
93,281,84520,5,2,0:0:0
208,366,84670,1,0,0:0:0
338,303,84820,1,2,0:0:0
198,258,84970,5,10,0:0:0
198,258,85120,1,0,0:0:0
406,349,85270,6,0,P|443:254|390:108,1,239.999992675781,0|8,0:0|0:0,0:0:0
102,125,85720,2,0,P|86:188|103:252,1,119.999996337891,2|0,0:0|0:0,0:0:0
208,366,86020,1,2,0:0:0
272,181,86170,2,0,P|257:54,1,119.999996337891,8|2,0:0|0:0,0:0:0
284,283,86470,6,0,P|362:253|455:276,2,179.999994506836,0|2|2,0:0|0:0|0:0,0:0:0
168,226,87070,2,0,P|112:259|31:236,1,119.999996337891,0|2,0:0|0:0,0:0:0
39,223,87295,1,2,0:0:0
24,189,87370,1,2,0:0:0
120,341,87520,1,2,0:0:0
272,181,87670,1,4,0:0:0
256,192,96070,12,0,97270,0:0:0
53,242,97570,5,12,0:0:0
150,252,97720,2,0,P|194:234|231:195,1,80,2|0,0:0|0:0,0:0:0
145,166,98020,2,0,P|157:115|155:60,1,80,2|8,0:0|0:0,0:0:0
99,13,98320,1,2,0:0:0
316,64,98470,6,0,P|232:111,1,80,0|2,0:0|0:0,0:0:0
377,118,98770,2,0,P|293:165,1,80,8|2,0:0|0:0,0:0:0
340,9,99070,2,0,P|276:58|177:99,1,160,2|10,0:0|0:0,0:0:0
110,113,99520,1,2,0:0:0
14,104,99670,6,0,P|29:195,1,80,0|2,0:0|0:0,0:0:0
103,276,99970,1,8,0:0:0
274,192,100120,2,0,P|283:134|256:10,1,160,2|2,0:0|0:0,0:0:0
193,189,100570,2,0,P|187:245|195:284,1,80,8|2,0:0|0:0,0:0:0
299,321,100870,6,0,P|382:324,1,80,0|2,0:0|0:0,0:0:0
398,243,101170,2,0,P|481:246,1,80,8|2,0:0|0:0,0:0:0
481,162,101470,6,2,P|428:162,1,53.3333333333333
332,190,101670,2,2,P|278:190,1,53.3333333333333,2|2,0:0|0:0,0:0:0
202,262,101870,2,2,P|148:262,1,53.3333333333333
24,361,102070,6,0,P|89:381|186:335,1,160,4|8,0:0|0:0,0:0:0
278,294,102520,1,2,0:0:0
160,72,102670,2,0,P|158:113|163:176,1,80,0|2,0:0|0:0,0:0:0
342,107,102970,2,0,P|344:66|339:3,1,80,8|2,0:0|0:0,0:0:0
254,132,103270,6,0,P|252:173|257:236,1,80,0|2,0:0|0:0,0:0:0
436,167,103570,2,0,P|438:126|433:63,1,80,8|2,0:0|0:0,0:0:0
223,58,103870,2,0,P|217:149|224:229,1,160,2|10,0:0|0:0,0:0:0
309,300,104320,1,2,0:0:0
506,252,104470,6,0,P|379:246,2,106.666666666667,2|2|2,0:0|0:0|0:0,0:0:0
342,159,105070,6,2,P|331:205,2,26.6666666666667,2|0|2,0:0|0:0|0:0,0:0:0
271,84,105270,2,2,P|224:77|195:81,1,53.3333333333333
162,144,105470,2,2,P|126:175|110:193,1,53.3333333333333
155,276,105670,6,2,P|166:322,2,26.6666666666667,2|0|2,0:0|0:0|0:0,0:0:0
226,201,105870,2,2,P|273:194|302:198,1,53.3333333333333
335,261,106070,2,2,P|371:292|387:310,1,53.3333333333333
455,298,106270,6,2,P|426:221|485:207|445:117,1,179.999994506836,4|0,0:3|0:0,0:0:0
369,174,106870,5,4,0:0:0
369,174,107020,1,0,0:0:0
290,69,107170,1,8,0:0:0
186,216,107320,1,0,0:0:0
116,113,107470,6,0,P|168:126|231:119,1,100
98,38,107770,1,8,0:0:0
76,177,107920,1,0,0:0:0
213,123,108070,6,0,P|186:181|188:230,1,100
268,306,108370,1,8,0:0:0
302,186,108520,1,0,0:0:0
185,215,108670,6,0,P|133:212|76:233,1,100,0|8,0:0|0:0,0:0:0
352,124,108970,2,0,P|404:120|461:141,1,100,8|0,0:0|0:0,0:0:0
397,241,109270,5,0,0:0:0
397,241,109420,1,0,0:0:0
290,235,109570,1,8,0:0:0
236,135,109720,1,0,0:0:0
310,48,109870,6,0,P|317:163,1,100
181,245,110170,1,8,0:0:0
181,245,110320,1,0,0:0:0
213,23,110470,6,0,P|310:48,1,100
181,245,110770,1,8,0:0:0
181,245,110920,1,0,0:0:0
162,67,111070,6,2,P|213:23,1,66.6666666666667
112,152,111270,2,2,P|89:76,1,66.6666666666667
181,245,111470,2,2,P|108:222,1,66.6666666666667
267,217,111670,5,4,0:0:0
267,217,111820,1,0,0:0:0
216,145,111970,1,8,0:0:0
356,222,112120,1,0,0:0:0
353,67,112270,6,0,P|320:78|320:78|251:72,1,100
132,73,112570,1,8,0:0:0
191,222,112720,1,0,0:0:0
334,148,112870,6,0,P|367:137|367:137|436:143,1,100
356,222,113170,1,8,0:0:0
273,95,113320,1,0,0:0:0
212,193,113470,6,0,P|179:204|179:204|110:198,1,100,0|8,0:0|0:0,0:0:0
393,275,113770,2,0,P|426:264|426:264|495:270,1,100,8|0,0:0|0:0,0:0:0
198,317,114070,6,0,P|145:335|145:335|51:328,2,133.333333333333,2|2|2,0:0|0:0|0:0,0:0:0
463,167,114670,6,2,P|477:217,2,33.3333333333333,2|0|2,0:0|0:0|0:0,0:0:0
425,96,114870,2,2,P|394:62|367:43,1,66.6666666666667
337,123,115070,2,2,P|283:122|251:132,1,66.6666666666667
311,203,115270,6,2,P|325:253,2,33.3333333333333,2|0|2,0:0|0:0|0:0,0:0:0
231,212,115470,2,2,P|186:229|155:258,1,66.6666666666667
244,304,115670,2,2,P|230:345|225:381,1,66.6666666666667
145,324,115870,6,2,P|87:299|51:245,1,119.999996337891,4|0,0:3|0:0,0:0:0
45,225,116245,1,0,0:0:0
42,195,116320,1,0,0:0:0
46,165,116395,1,0,0:0:0
56,134,116470,6,0,P|86:90|127:69,1,80,4|2,0:0|0:0,0:0:0
164,154,116770,2,0,P|219:139|261:143,1,80,8|2,0:0|0:0,0:0:0
349,320,117070,2,0,P|296:317|224:216,1,160,2|8,0:0|0:0,0:0:0
311,96,117520,1,8,0:0:0
383,175,117670,6,0,P|338:178|285:189,1,80,0|2,0:0|0:0,0:0:0
54,246,117970,2,0,P|99:248|152:260,1,80,8|2,0:0|0:0,0:0:0
219,341,118270,1,2,0:0:0
230,333,118570,1,10,0:0:0
325,344,118720,1,10,0:0:0
417,319,118870,6,0,P|422:278|422:278|417:236,1,80,0|2,0:0|0:0,0:0:0
252,140,119170,2,0,P|247:181|247:181|252:223,1,80,8|2,0:0|0:0,0:0:0
336,71,119470,2,0,P|272:107|183:60,1,160,2|8,0:0|0:0,0:0:0
102,54,119920,1,8,0:0:0
81,216,120070,6,0,P|102:165|104:123,1,80,0|2,0:0|0:0,0:0:0
165,334,120370,2,0,P|201:363|248:374,1,80,8|2,0:0|0:0,0:0:0
159,250,120670,1,2,0:0:0
175,253,120970,1,10,0:0:0
263,214,121120,1,10,0:0:0
343,265,121270,6,0,P|349:291|349:291|342:352,1,80,4|2,0:0|0:0,0:0:0
405,169,121570,2,0,P|399:143|399:143|406:82,1,80,8|2,0:0|0:0,0:0:0
314,137,121870,2,0,P|276:121|276:121|261:106|261:106|235:114|235:114|219:99|219:99|159:80,1,160,2|8,0:0|0:0,0:0:0
97,18,122320,1,8,0:0:0
43,97,122470,6,0,P|27:153|24:183,1,80,0|2,0:0|0:0,0:0:0
200,280,122770,2,0,P|198:224|193:183,1,80,8|2,0:0|0:0,0:0:0
13,325,123070,2,0,P|134:317,1,120,2|0,0:0|0:0,0:0:0
198,362,123370,2,0,P|291:354,1,80,10|10,0:0|0:0,0:0:0
371,274,123670,5,0,0:0:0
165,193,123820,1,2,0:0:0
304,122,123970,1,8,0:0:0
219,56,124120,1,2,0:0:0
290,18,124270,5,0,0:0:0
263,110,124420,1,2,0:0:0
239,203,124570,1,8,0:0:0
214,295,124720,1,10,0:0:0
371,274,124870,5,0,0:0:0
165,193,125020,1,2,0:0:0
304,122,125170,1,8,0:0:0
219,56,125320,1,2,0:0:0
290,18,125470,1,0,0:0:0
290,18,125770,6,0,P|349:29,1,50
493,149,126070,2,0,P|463:212|387:233,1,150,4|0,0:3|0:0,0:0:0
244,184,126670,2,0,P|186:176|129:191,1,100,8|0,0:0|0:0,0:0:0
145,184,127270,6,0,P|154:116,1,50
68,226,127570,2,0,P|9:207,1,50
86,310,127870,2,0,P|-5:370,1,100,8|0,0:0|0:0,0:0:0
148,262,128320,1,0,0:0:0
255,334,128470,6,0,P|274:336|327:323,2,75,8|0|0,0:3|0:0|0:0,0:0:0
148,262,129070,2,0,P|122:201|129:106,1,150,8|0,0:0|0:0,0:0:0
169,51,129670,5,0,0:0:0
14,26,129970,1,0,0:0:0
124,118,130270,2,0,P|122:201|148:262,1,150,8|0,0:0|0:0,0:0:0
239,200,130870,6,0,P|290:203|290:203|339:190|339:190|399:193,1,150,4|0,0:3|0:0,0:0:0
408,276,131470,2,0,P|356:272|356:272|308:286|308:286|248:283,1,150,8|0,0:0|0:0,0:0:0
180,262,132070,5,0,0:0:0
284,120,132370,1,0,0:0:0
371,358,132670,1,8,0:0:0
473,204,132970,2,0,P|414:209,1,50
289,315,133270,6,0,P|239:317|210:308,2,75,8|0|0,0:3|0:0|0:0,0:0:0
363,248,133870,2,0,P|372:181|319:107,1,150,8|0,0:0|0:0,0:0:0
249,93,134470,5,0,0:0:0
433,117,134770,1,0,0:0:0
451,352,135070,2,0,P|442:285|495:211,1,150,8|0,0:0|0:0,0:0:0
484,217,135670,6,0,P|345:248,2,120,6|0|2,0:0|0:0|0:0,0:0:0
320,323,136270,1,2,0:0:0
304,318,136345,1,0,0:0:0
289,312,136420,1,2,0:0:0
275,302,136495,1,0,0:0:0
264,290,136570,1,10,0:0:0
255,276,136645,1,0,0:0:0
248,261,136720,1,2,0:0:0
243,245,136795,1,0,0:0:0
238,229,136870,6,0,P|212:272|180:297,1,80,2|2,0:0|0:0,0:0:0
215,120,137170,2,0,P|197:74|197:37,1,80,8|2,0:0|0:0,0:0:0
157,180,137470,2,0,P|93:197|33:133,1,160,2|10,0:0|0:0,0:0:0
53,54,137920,1,2,0:0:0
86,278,138070,6,0,P|109:328|110:374,1,80,0|2,0:0|0:0,0:0:0
110,119,138370,2,0,P|134:77|143:33,1,80,8|2,0:0|0:0,0:0:0
288,96,138670,2,0,P|197:122,2,80,0|2|8,0:0|0:0|0:0,0:0:0
367,103,139120,1,2,0:0:0
444,121,139270,6,0,P|458:174|449:222,1,80,0|2,0:0|0:0,0:0:0
420,271,139570,1,8,0:0:0
354,316,139720,2,0,P|340:263|349:215,1,80,2|0,0:0|0:0,0:0:0
383,169,140020,2,0,P|312:210|240:186,1,160,2|2,0:0|0:0,0:0:0
179,71,140470,5,0,0:0:0
152,282,140620,2,0,P|164:231|160:178,2,80,2|8|2,0:0|0:0|0:0,0:0:0
207,367,141070,1,2,0:0:0
229,333,141145,1,0,0:0:0
257,305,141220,1,2,0:0:0
294,290,141295,1,0,0:0:0
333,286,141370,2,0,P|441:299,1,80,10|2,0:0|0:0,0:0:0
301,201,141670,5,0,0:0:0
382,134,141820,2,0,P|481:142,2,80,2|8|2,0:0|0:0|0:0,0:0:0
303,118,142270,2,0,P|243:112|171:30,1,160,2|10,0:0|0:0,0:0:0
123,128,142720,1,2,0:0:0
38,144,142870,5,0,0:0:0
60,301,143020,2,0,P|62:254|56:205,1,80,2|8,0:0|0:0,0:0:0
8,74,143320,1,2,0:0:0
154,203,143470,5,0,0:0:0
132,360,143620,2,0,P|130:313|136:264,1,80,2|8,0:0|0:0,0:0:0
222,161,143920,1,2,0:0:0
256,192,144070,12,4,145270,0:0:0
89,130,154870,5,2,0:0:0
89,130,155170,1,2,0:0:0
89,130,155470,2,0,P|71:183|71:183|70:203|70:203|55:234,2,89.9999972534181,2|0|0,0:0|0:0|0:0,0:0:0
151,64,156070,6,0,P|201:52|201:52|226:52|226:52|272:43,1,119.999996337891,2|2,0:0|0:0,0:0:0
268,43,156670,2,0,P|305:86|305:86|308:124|308:124,2,89.9999972534181,2|0|0,0:0|0:0|0:0,0:0:0
226,126,157270,6,0,P|216:173|216:173|216:201|216:201|194:241,1,119.999996337891,2|2,0:0|0:0,0:0:0
194,239,157870,2,0,P|145:255|145:255|114:251|114:251|94:257,2,89.9999972534181,2|0|0,0:0|0:0|0:0,0:0:0
256,295,158470,6,0,P|305:310|305:310|336:306|336:306|356:312,2,89.9999972534181,2|0|0,0:0|0:0|0:0,0:0:0
315,218,159070,2,0,P|340:190|340:190|348:166|348:166|371:156|371:156|399:129,2,119.999996337891,2|0|0,0:0|0:0|0:0,0:0:0
259,159,159820,5,0,0:0:0
280,81,159970,2,0,P|297:46|297:46|346:31,1,80
197,63,160270,2,0,P|157:57|157:57|128:15,2,80
173,146,160720,1,4,0:0:0
97,191,160870,6,0,P|74:232|74:232|65:271,1,80,4|0,0:0|0:0,0:0:0
167,256,161170,2,0,P|188:291|188:291|195:350,1,80
318,225,161470,2,0,P|295:266|295:266|286:305,2,80
392,193,161920,1,4,0:0:0
471,203,162070,5,4,0:0:0
471,171,162670,1,4,0:0:0
456,142,163270,5,4,0:0:0
398,86,163570,1,4,0:0:0
318,81,163870,1,4,0:0:0
247,118,164170,2,0,P|194:130|194:130|152:110|152:110|88:125,1,160,4|2,0:0|0:0,0:0:0
139,324,164770,6,0,P|150:265|150:265|136:202,1,119.999996337891,4|0,0:0|0:0,0:0:0
318,80,165070,2,0,P|307:139|307:139|321:202,1,119.999996337891,8|0,0:0|0:0,0:0:0
466,280,165370,6,0,P|398:261|327:281,1,119.999996337891
269,258,165595,2,0,P|350:228|387:138,1,179.999994506836,8|8,0:0|0:0,0:0:0
177,129,165970,6,0,P|208:157|208:157|298:165,1,119.999996337891
109,61,166270,2,0,P|78:33|78:33|-12:25,1,119.999996337891,8|0,0:0|0:0,0:0:0
233,67,166570,6,0,P|301:69|359:28,1,119.999996337891
425,111,166795,2,0,P|390:192|431:298,1,179.999994506836,8|8,0:0|0:0,0:0:0
507,319,167170,5,0,0:0:0
318,176,167320,1,0,0:0:0
463,21,167470,2,0,P|338:45,1,119.999996337891,8|0,0:0|0:0,0:0:0
256,224,167770,6,0,P|182:218|137:173,1,119.999996337891
71,125,167995,2,0,P|56:331,1,179.999994506836,8|8,0:0|0:0,0:0:0
227,145,168370,6,0,P|248:87|235:15,1,119.999996337891
329,104,168595,2,0,P|374:144|436:154,1,119.999996337891,8|0,0:0|0:0,0:0:0
340,221,168820,1,8,0:0:0
452,79,168970,6,2,P|456:41|456:41|452:0,2,79.9999975585938
418,248,169270,2,2,P|414:286|414:286|418:327,2,79.9999975585938
432,154,169570,5,4,0:0:0
506,284,169720,1,2,0:0:0
343,287,169870,1,8,0:0:0
493,201,170020,5,2,0:0:0
347,181,170170,1,0,0:0:0
430,62,170320,1,2,0:0:0
418,248,170470,2,0,P|298:259,1,119.999996337891,10|2,0:0|0:0,0:0:0
174,307,170770,5,0,0:0:0
307,350,170920,1,2,0:0:0
174,307,171070,1,8,0:0:0
347,181,171220,5,2,0:0:0
230,227,171370,1,0,0:0:0
347,181,171520,1,2,0:0:0
260,28,171670,2,0,P|266:95|266:95|257:149,1,119.999996337891,10|2,0:0|0:0,0:0:0
193,306,171970,5,0,0:0:0
176,160,172120,1,2,0:0:0
311,210,172270,1,10,0:0:0
137,239,172420,2,0,P|71:226|36:169,1,119.999996337891,2|0,0:0|0:0,0:0:0
110,330,172720,5,2,0:0:0
231,227,172870,1,10,0:0:0
280,367,173020,1,2,0:0:0
311,210,173170,6,0,P|383:189|485:246,2,179.999994506836,0|2|2,0:0|0:0|0:0,0:0:0
377,108,173770,6,0,P|369:49|317:15,1,119.999996337891,0|2,0:0|0:0,0:0:0
286,10,173995,1,2,0:0:0
252,21,174070,1,2,0:0:0
183,136,174220,1,2,0:0:0
0,83,174370,6,0,P|80:88|80:88|132:104,1,119.999996337891,4|0,0:0|0:0,0:0:0
205,353,174670,2,0,P|169:280|169:280|157:228,1,119.999996337891,8|0,0:0|0:0,0:0:0
319,39,174970,6,0,P|273:106|273:106|234:142,1,119.999996337891
174,156,175195,2,0,P|276:161|339:246,1,179.999994506836,8|8,0:0|0:0,0:0:0
456,297,175570,6,0,P|443:237|443:237|455:176,1,119.999996337891
226,247,175870,2,0,P|239:307|239:307|227:368,1,119.999996337891,8|0,0:0|0:0,0:0:0
338,210,176170,6,0,P|325:150|325:150|337:89,1,119.999996337891
277,48,176395,2,0,P|199:85|110:23,1,179.999994506836,8|8,0:0|0:0,0:0:0
375,18,176770,6,0,P|505:39,1,119.999996337891
286,133,177070,2,0,P|356:250,1,119.999996337891,8|0,0:0|0:0,0:0:0
141,177,177370,6,0,P|143:323,1,119.999996337891
104,332,177595,2,0,P|103:135,1,179.999994506836,8|8,0:0|0:0,0:0:0
420,215,177970,6,0,P|380:283|330:294,1,119.999996337891
272,288,178195,2,0,P|217:248|201:192,1,119.999996337891,8|0,0:0|0:0,0:0:0
264,165,178420,1,8,0:0:0
143,270,178570,6,2,P|102:266|102:266|61:274,2,79.9999975585938
226,85,178870,2,2,P|267:89|267:89|308:81,2,79.9999975585938
145,62,179170,5,4,0:0:0
71,185,179320,1,2,0:0:0
214,190,179470,1,8,0:0:0
87,114,179620,5,2,0:0:0
207,268,179770,1,0,0:0:0
297,111,179920,1,2,0:0:0
130,237,180070,2,0,P|139:364,1,119.999996337891,10|2,0:0|0:0,0:0:0
71,185,180370,5,0,0:0:0
214,190,180520,1,2,0:0:0
372,195,180670,1,8,0:0:0
295,265,180820,5,2,0:0:0
236,170,180970,1,0,0:0:0
184,70,181120,1,2,0:0:0
322,71,181270,5,10,0:0:0
204,155,181420,1,2,0:0:0
459,244,181570,6,0,P|496:149|443:3,1,239.999992675781,2|10,0:0|0:0,0:0:0
92,23,182020,2,0,P|76:86|93:150,1,119.999996337891,2|0,0:0|0:0,0:0:0
354,310,182320,1,2,0:0:0
190,236,182470,2,0,P|63:251,1,119.999996337891,8|2,0:0|0:0,0:0:0
290,252,182770,6,0,P|368:222|461:245,2,179.999994506836,0|2|2,0:0|0:0|0:0,0:0:0
70,250,183370,2,0,P|37:194|60:113,1,119.999996337891,0|2,0:0|0:0,0:0:0
58,108,183595,1,2,0:0:0
80,79,183670,1,2,0:0:0
151,285,183820,1,2,0:0:0
316,233,183970,5,4,0:0:0
316,233,184116,1,8,0:0:0
396,190,184262,1,0,0:0:0
235,230,184409,1,8,0:0:0
229,85,184555,6,0,P|313:156,1,100,0|8,0:0|0:0,0:0:0
465,226,184848,1,0,0:0:0
387,115,184994,1,8,0:0:0
316,233,185140,6,0,P|239:168,1,100,0|8,0:0|0:0,0:0:0
124,143,185433,1,0,0:0:0
122,262,185579,1,8,0:0:0
242,245,185726,6,0,P|318:309,1,100,0|8,0:0|0:0,0:0:0
318,109,186018,2,0,P|241:44,1,100,8|8,0:0|0:0,0:0:0
101,111,186311,5,0,0:0:0
101,111,186457,1,8,0:0:0
43,45,186604,1,0,0:0:0
155,183,186750,1,8,0:0:0
0,227,186896,6,0,P|75:232|117:259,1,100,0|8,0:0|0:0,0:0:0
217,269,187189,1,0,0:0:0
217,269,187335,1,8,0:0:0
425,216,187482,6,0,P|350:211|308:184,1,100,0|8,0:0|0:0,0:0:0
217,269,187774,1,0,0:0:0
217,269,187920,1,8,0:0:0
157,82,188067,6,2,P|196:114|210:131,2,66.6666666666667
281,114,188360,2,2,P|312:78,4,33.3333333333333,2|0|2|0|2,0:0|0:0|0:0|0:0|0:0,0:0:0
281,114,188652,6,0,P|314:225,1,100,4|8,0:0|0:0,0:0:0
252,312,188937,1,0,0:0:0
252,312,189080,1,8,0:0:0
154,234,189223,6,0,P|187:123,1,100,0|8,0:0|0:0,0:0:0
252,312,189508,1,0,0:0:0
252,312,189651,1,8,0:0:0
73,333,189794,6,0,P|118:341|171:334,1,100,0|8,0:0|0:0,0:0:0
349,164,190080,2,0,P|319:198|299:248,1,100,0|8,0:0|0:0,0:0:0
201,251,190366,2,0,P|168:208|153:166,1,100,0|8,0:0|0:0,0:0:0
331,331,190652,2,0,P|384:324|429:332,1,100,8|8,0:0|0:0,0:0:0
257,201,190937,6,0,P|258:335,2,133.333333333333,2|2|2,0:0|0:0|0:0,0:0:0
256,64,191509,2,2,P|256:20,2,33.3333333333333,2|0|2,0:0|0:0|0:0,0:0:0
190,102,191699,2,2,P|157:110|157:110|116:110,1,66.6666666666667
322,102,191890,2,2,P|355:110|355:110|396:110,1,66.6666666666667
256,192,192080,12,4,193223,0:3:0
336,41,193502,5,4,0:0:0
376,153,193641,2,0,P|384:206|384:206|376:261,2,100,8|0|8,0:0|0:0|0:0,0:0:0
143,135,194060,2,0,P|135:82|135:82|143:27,1,100,0|8,0:0|0:0,0:0:0
295,208,194339,6,0,P|179:215,1,100,0|8,0:0|0:0,0:0:0
92,197,194618,1,0,0:0:0
92,197,194757,1,8,0:0:0
196,124,194897,2,0,P|312:131,1,100,0|8,0:0|0:0,0:0:0
406,117,195176,1,0,0:0:0
406,117,195315,1,8,0:0:0
348,30,195455,6,2,P|142:59,1,200,4|0,0:3|0:0,0:0:0
178,240,195874,2,0,P|190:187|184:125,1,100,8|0,0:0|0:0,0:0:0
110,179,196153,1,8,0:0:0
128,331,196292,2,0,P|192:329|244:302,1,100,0|8,0:0|0:0,0:0:0
332,165,196571,6,0,P|326:198|293:255,1,100,0|8,0:0|0:0,0:0:0
313,351,196850,2,0,P|297:308|293:254,1,100,0|8,0:0|0:0,0:0:0
374,285,197129,2,2,P|384:320|384:320|388:356,2,66.6666666666667
247,178,197409,2,2,P|237:143|237:143|233:107,2,66.6666666666667
337,22,197688,6,2,P|136:86,1,200,4|0,0:3|0:0,0:0:0
144,178,198107,1,8,0:0:0
199,257,198247,2,0,P|201:302|189:355,1,100,0|8,0:0|0:0,0:0:0
102,273,198525,2,0,P|166:271|218:244,1,100,0|8,0:0|0:0,0:0:0
310,110,198804,6,0,P|303:142|270:199,1,100,0|8,0:0|0:0,0:0:0
303,373,199083,2,0,P|286:329|282:276,1,100,0|8,0:0|0:0,0:0:0
208,32,199362,2,0,P|224:75|228:128,1,100,0|8,0:0|0:0,0:0:0
228,128,199641,2,0,P|264:75|305:57,1,100,8|8,0:0|0:0,0:0:0
294,59,199920,6,2,P|155:102,2,133.333333333333,4|2|2,0:3|0:0|0:0,0:0:0
368,113,200478,6,2,P|375:167,2,33.3333333333333,2|0|2,0:0|0:0|0:0,0:0:0
294,142,200664,2,2,P|287:216,1,66.6666666666667
219,157,200850,2,2,P|195:232,1,66.6666666666667
73,248,201036,6,2,P|65:302,2,33.3333333333333,2|0|2,0:0|0:0|0:0,0:0:0
149,282,201222,2,2,P|156:356,1,66.6666666666667
231,305,201408,2,2,P|255:380,1,66.6666666666667
317,282,201595,6,2,P|368:266|438:151,1,179.999994506836,4|0,0:3|0:0,0:0:0
322,58,202153,6,2,P|200:182,1,160,8|0,0:3|0:0,0:0:0
171,82,202562,1,8,0:0:0
206,250,202698,2,0,P|211:232|209:172,1,80,0|8,0:0|0:0,0:0:0
160,315,202971,2,0,P|216:333|254:320,1,80,8|8,0:0|0:0,0:0:0
355,240,203243,6,0,P|300:255|272:281,1,80,0|8,0:0|0:0,0:0:0
289,165,203516,2,0,P|191:174,1,80,0|8,0:0|0:0,0:0:0
244,90,203789,2,0,P|201:80|167:48,1,80,0|8,0:0|0:0,0:0:0
334,87,204062,1,8,0:0:0
334,87,204198,1,8,0:0:0
282,18,204334,6,2,P|230:184,1,160,8|0,0:3|0:0,0:0:0
200,265,204743,1,8,0:0:0
283,231,204880,2,0,P|278:219|234:170,1,80,0|8,0:0|0:0,0:0:0
213,361,205153,2,0,P|254:340|275:304,1,80,8|8,0:0|0:0,0:0:0
229,90,205425,6,0,P|235:186,1,80,0|8,0:0|0:0,0:0:0
272,313,205698,2,0,P|278:217,1,80,0|8,0:0|0:0,0:0:0
153,207,205971,2,2,P|100:198,2,53.3333333333333
315,146,206243,2,2,P|367:137,2,53.3333333333333
358,53,206516,6,2,P|158:108,1,200,8|8,0:3|0:0,0:0:0
223,263,206955,2,0,P|235:198|211:157,1,100
143,302,207247,1,0,0:0:0
372,311,207394,2,0,P|260:331,1,100,8|0,0:0|0:0,0:0:0
323,214,207686,6,0,P|442:218,1,100
148,227,208001,2,0,P|29:231,1,100,8|0,0:0|0:0,0:0:0
385,128,208317,2,0,P|499:113,1,100
125,90,208633,2,0,P|17:79,1,100,8|0,0:0|0:0,0:0:0
195,45,208949,6,2,P|246:51|246:51|281:44|281:44|328:49,2,133.333333333333,4|2|2,0:3|0:0|0:0,0:0:0
252,335,209634,6,2,P|264:388,2,33.3333333333333,2|0|2,0:0|0:0|0:0,0:0:0
233,256,209884,2,2,P|231:223|231:223|245:184,1,66.6666666666667
293,129,210134,2,2,P|324:112|324:112|366:114,1,66.6666666666667
325,207,210384,6,2,P|357:228,2,33.3333333333333,2|0|2,0:0|0:0|0:0,0:0:0
207,111,210650,2,2,P|165:105|165:105|121:107,1,66.6666666666667
64,228,210917,2,2,P|106:234|106:234|150:232,1,66.6666666666667
265,53,211184,5,4,0:0:0
