osu file format v11

[General]
AudioFilename: Kakuzetsu Thanatos.mp3
AudioLeadIn: 1000
PreviewTime: 68164
Countdown: 0
SampleSet: Soft
StackLeniency: 0.4
Mode: 0
LetterboxInBreaks: 0

[Editor]
Bookmarks: 19264,198525
DistanceSpacing: 1
BeatDivisor: 4
GridSize: 8

[Metadata]
Title:Kakuzetsu Thanatos
TitleUnicode:隔絶≡タナトス
Artist:Rohi
ArtistUnicode:ろひ
Creator:NatsumeRin
Version:Normal
Source:Vocaloid
Tags:Kagamine Rin Amamiya Yuko Pokie RLC hs714 qoot8123
BeatmapID:218275
BeatmapSetID:76396

[Difficulty]
HPDrainRate:3
CircleSize:3
OverallDifficulty:3
ApproachRate:5
SliderMultiplier:1.28
SliderTickRate:1

[Events]
//Background and Video events
0,0,"BG.JPG"
Video,0,"PV.flv"
//Break Periods
2,87870,96070
//Storyboard Layer 0 (Background)
//Storyboard Layer 1 (Fail)
//Storyboard Layer 2 (Pass)
//Storyboard Layer 3 (Foreground)
//Storyboard Sound Samples
//Background Colour Transformations
3,100,163,162,255

[TimingPoints]
70,300,4,2,1,20,1,0
970,-133.333333333333,4,2,1,20,0,0
6070,-133.333333333333,4,2,1,15,0,0
8470,-133.333333333333,4,2,1,25,0,0
8770,-133.333333333333,4,2,1,10,0,0
8920,-133.333333333333,4,2,1,25,0,0
9070,-133.333333333333,4,2,1,10,0,0
9370,-133.333333333333,4,2,1,25,0,0
9670,-133.333333333333,4,2,1,50,0,0
10570,-100,4,1,1,40,0,0
10870,-100,4,1,1,80,0,0
20170,-133.333333333333,4,2,1,70,0,0
29470,-133.333333333333,4,1,1,60,0,0
30070,-100,4,1,1,80,0,0
39370,-133.333333333333,4,2,1,70,0,0
46870,-133.333333333333,4,1,1,60,0,0
49270,-133.333333333333,4,1,2,80,0,0
49570,-133.333333333333,4,1,2,20,0,0
49720,-133.333333333333,4,1,2,80,0,0
51970,-133.333333333333,4,1,2,20,0,0
52120,-133.333333333333,4,1,2,80,0,0
54370,-133.333333333333,4,1,2,20,0,0
54520,-133.333333333333,4,1,2,80,0,0
58870,-133.333333333333,4,2,2,50,0,0
63670,-133.333333333333,4,1,1,70,0,0
67270,-133.333333333333,4,2,1,60,0,0
68470,-100,4,1,1,90,0,1
77470,-100,4,1,1,70,0,0
78070,-100,4,1,1,90,0,1
87670,-100,4,1,1,90,0,0
97270,-133.333333333333,4,2,1,80,0,0
97570,-133.333333333333,4,1,1,50,0,0
97720,-133.333333333333,4,1,1,70,0,0
106870,-100,4,1,1,40,0,0
108670,-100,4,1,1,80,0,0
116470,-133.333333333333,4,2,1,70,0,0
123670,-133.333333333333,4,1,1,60,0,0
126070,-133.333333333333,4,1,2,80,0,0
126370,-133.333333333333,4,1,2,20,0,0
126520,-133.333333333333,4,1,2,80,0,0
131170,-133.333333333333,4,1,2,20,0,0
131320,-133.333333333333,4,1,2,80,0,0
135670,-133.333333333333,4,2,2,50,0,0
140470,-133.333333333333,4,1,1,70,0,0
140770,-133.333333333333,4,1,1,20,0,0
141670,-133.333333333333,4,1,1,70,0,0
141970,-133.333333333333,4,1,1,20,0,0
142870,-133.333333333333,4,1,1,70,0,0
143170,-133.333333333333,4,1,1,20,0,0
143470,-133.333333333333,4,1,1,70,0,0
143770,-133.333333333333,4,1,1,20,0,0
144070,-133.333333333333,4,2,1,60,0,0
144970,-133.333333333333,4,2,1,30,0,0
145270,-133.333333333333,4,1,1,40,0,0
145570,-133.333333333333,4,2,1,40,0,0
152770,-133.333333333333,4,2,1,20,0,0
152920,-133.333333333333,4,2,1,40,0,0
153070,-133.333333333333,4,2,1,20,0,0
153370,-133.333333333333,4,2,1,40,0,0
154870,-133.333333333333,4,1,1,40,0,0
155170,-133.333333333333,4,2,1,40,0,0
159670,-133.333333333333,4,1,1,80,0,0
163270,-100,4,1,1,90,0,0
164470,-100,4,2,1,10,0,0
164770,300,4,1,1,90,1,1
173770,-100,4,1,1,70,0,0
174370,-100,4,1,1,90,0,1
183970,292.682926829268,4,1,1,80,1,0
188360,-100,4,2,1,90,0,0
188652,285.714285714286,4,1,1,80,1,0
192080,-100,4,1,1,60,0,0
193223,279.06976744186,4,2,1,80,1,0
193223,-100,4,2,1,80,0,0
193502,-100,4,1,1,80,0,0
197688,-100,4,1,1,80,0,0
202153,272.727272727273,4,1,1,80,1,0
206516,292.682926829268,4,1,1,80,1,0
206516,-133.333333333333,4,1,1,80,0,0
207686,315.789473684211,4,1,1,75,1,0
207686,-133.333333333333,4,1,1,75,0,0
208949,342.857142857143,4,1,1,20,1,0
209634,375,4,1,1,20,1,0
210384,400,4,1,1,20,1,0
211184,-133.333333333333,4,2,1,80,0,0

[Colours]
Combo1 : 192,192,192
Combo2 : 64,0,128
Combo3 : 0,232,232
Combo4 : 222,22,28
Combo5 : 108,108,183
Combo6 : 255,255,74

[HitObjects]
312,312,970,1,2,0:0:0
400,280,1270,1,2,0:0:0
432,88,1870,6,0,P|360:80|296:128,1,144.000005493164,2|2,0:0|0:0,0:0:0
280,160,2470,1,0,0:0:0
104,240,3070,6,0,P|72:176|96:104,1,144.000005493164,2|0,0:0|0:0,0:0:0
120,72,3670,1,2,0:0:0
184,256,4270,6,0,P|248:272|317:237,1,144.000005493164,2|2,0:0|0:0,0:0:0
352,208,4870,2,0,P|375:137|360:72,1,144.000005493164,2|0,0:0|0:0,0:0:0
328,40,5470,5,2,0:0:0
256,104,5770,1,2,0:0:0
184,168,6070,1,4,0:0:0
328,256,7270,5,4,0:0:0
184,336,8470,6,0,P|120:360|40:344,2,144.000005493164,2|2|2,0:0|0:0|0:0,0:0:0
240,256,9670,6,0,P|224:176,2,72.0000027465821,2|2|0,0:0|0:0|0:0,0:0:0
272,288,10270,2,0,P|313:308|376:296,1,96.0000036621095,2|0,0:0|0:0,0:0:0
480,264,10870,5,0,0:0:0
440,144,11170,1,8,0:0:0
320,184,11470,2,0,P|192:184,1,128,0|8,0:0|0:0,0:0:0
80,240,12070,2,0,P|59:177|88:112,1,128,0|8,0:0|0:0,0:0:0
184,56,12670,2,0,P|240:32|328:56,1,128,0|8,0:0|0:0,0:0:0
424,96,13270,5,0,0:0:0
408,224,13570,1,8,0:0:0
280,256,13870,2,0,P|216:256|152:208,1,128,0|8,0:0|0:0,0:0:0
120,104,14470,1,0,0:0:0
40,200,14770,1,8,0:0:0
80,320,15070,1,0,0:0:0
336,360,15670,6,0,P|280:232,1,128,4|8,0:0|0:0,0:0:0
408,272,16270,2,0,P|416:208|384:152,1,128,0|8,0:0|0:0,0:0:0
304,56,16870,2,0,P|176:72,1,128,0|8,0:0|0:0,0:0:0
248,176,17470,2,0,P|194:204|126:186,1,128,0|8,0:0|0:0,0:0:0
56,88,18070,5,4,0:0:0
312,120,18670,5,4,0:0:0
64,168,19270,5,4,0:0:0
320,200,19870,5,4,0:0:0
320,200,20470,6,0,P|309:251|331:296,2,96.0000036621095,2|8|2,0:0|0:0|0:0,0:0:0
376,120,21370,1,8,0:0:0
280,112,21670,2,0,P|232:104|192:64,1,96.0000036621095,2|10,0:0|0:0,0:0:0
104,96,22270,1,0,0:0:0
48,176,22570,1,10,0:0:0
80,264,22870,5,2,0:0:0
176,280,23170,2,0,P|200:336,2,48.0000018310548,8|0|2,0:0|0:0|0:0,0:0:0
232,200,23770,1,8,0:0:0
328,184,24070,1,2,0:0:0
424,168,24370,2,0,P|448:112,2,48.0000018310548,10|0|0,0:0|0:0|0:0,0:0:0
480,248,24970,1,10,0:0:0
440,336,25270,5,2,0:0:0
384,256,25570,2,0,P|336:232|328:184|328:184|296:232|240:232,1,192.000007324219,10|10,0:0|0:0,0:0:0
152,248,26470,1,2,0:0:0
128,152,26770,2,0,P|128:104|160:64|160:64|208:80|232:136,1,192.000007324219,10|10,0:0|0:0,0:0:0
320,152,27670,6,0,P|416:136,1,96.0000036621095,2|8,0:0|0:0,0:0:0
352,240,28270,2,0,P|448:248,1,96.0000036621095,2|8,0:0|0:0,0:0:0
328,328,28870,2,0,P|416:368,2,96.0000036621095,2|8|0,0:0|0:0|0:0,0:0:0
240,344,30070,6,0,P|176:352|104:320,1,128,0|8,0:0|0:0,0:0:0
128,200,30670,2,0,P|88:160|80:80,1,128,0|8,0:0|0:0,0:0:0
208,104,31270,1,0,0:0:0
256,224,31570,1,8,0:0:0
384,200,31870,2,0,P|424:160|432:80,1,128,0|8,0:0|0:0,0:0:0
304,104,32470,5,0,0:0:0
200,176,32770,1,8,0:0:0
152,296,33070,2,0,P|24:312,1,128,0|8,0:0|0:0,0:0:0
80,192,33670,2,0,P|88:120|136:72,1,128,0|8,0:0|0:0,0:0:0
248,40,34270,1,0,0:0:0
464,176,34870,6,0,P|424:312,1,128,4|8,0:0|0:0,0:0:0
304,264,35470,2,0,P|264:312|184:328,1,128,0|8,0:0|0:0,0:0:0
80,304,36070,1,0,0:0:0
64,176,36370,1,8,0:0:0
184,120,36670,1,0,0:0:0
272,216,36970,1,8,0:0:0
208,328,37270,5,4,0:0:0
256,80,37870,5,4,0:0:0
304,328,38470,5,4,0:0:0
168,112,39070,5,4,0:0:0
384,280,39670,6,0,P|395:230|378:184,2,96.0000036621095,2|8|2,0:0|0:0|0:0,0:0:0
304,328,40570,1,8,0:0:0
224,280,40870,2,0,P|213:230|230:184,1,96.0000036621095,2|10,0:0|0:0,0:0:0
304,136,41470,1,0,0:0:0
288,40,41770,1,10,0:0:0
192,32,42070,5,2,0:0:0
152,120,42370,2,0,P|120:152|104:256|128:312,1,192.000007324219,8|10,0:0|0:0,0:0:0
208,352,43270,1,2,0:0:0
296,320,43570,2,0,P|352:328|432:304|472:248,1,192.000007324219,10|10,0:0|0:0,0:0:0
496,160,44470,5,2,0:0:0
424,96,44770,1,8,0:0:0
400,192,45070,2,0,P|360:224|296:224,1,96.0000036621095,2|8,0:0|0:0,0:0:0
224,216,45670,1,2,0:0:0
176,136,45970,1,10,0:0:0
208,48,46270,2,0,P|160:40|112:64,1,96.0000036621095,0|10,0:0|0:0,0:0:0
80,144,46870,6,0,P|32:232,1,96.0000036621095
136,224,47470,2,0,P|128:328,1,96.0000036621095
224,264,48070,2,0,P|256:360,2,96.0000036621095
224,264,49270,6,0,P|240:168|328:152,1,192.000007324219,0|8,0:0|0:0,0:0:0
464,272,50470,2,0,P|477:322|456:376,2,96.0000036621095,0|0|8,0:0|0:0|0:0,0:0:0
400,200,51370,1,0,0:0:0
448,120,51670,6,0,P|400:64|320:56,1,144.000005493164
288,72,52270,1,8,0:0:0
352,144,52570,1,0,0:0:0
304,224,52870,2,0,P|296:336,2,96.0000036621095,0|0|8,0:0|0:0|0:0,0:0:0
120,184,54070,6,0,P|120:264|16:296,1,192.000007324219,0|8,0:0|0:0,0:0:0
64,112,55270,2,0,P|102:92|160:104,1,96.0000036621095
240,136,55870,2,0,P|272:168|280:224,1,96.0000036621095,8|0,0:0|0:0,0:0:0
272,312,56470,6,0,P|192:336,2,72.0000027465821
320,328,57070,2,0,P|368:336|416:312,1,96.0000036621095,8|0,0:0|0:0,0:0:0
472,248,57670,1,0,0:0:0
408,176,57970,1,0,0:0:0
472,104,58270,1,8,0:0:0
288,48,58870,6,0,P|238:44|184:80,1,96.0000036621095,2|0,0:0|0:0,0:0:0
168,152,59470,2,0,P|218:156|272:120,1,96.0000036621095,2|0,0:0|0:0,0:0:0
336,192,60070,1,2,0:0:0
352,288,60370,1,2,0:0:0
288,360,60670,2,0,P|192:336,1,96.0000036621095,2|0,0:0|0:0,0:0:0
104,312,61270,6,0,P|56:232|80:136,1,192.000007324219,2|2,0:0|0:0,0:0:0
136,64,62170,1,0,0:0:0
232,88,62470,2,0,P|288:88|328:64,2,96.0000036621095,2|2|0,0:0|0:0|0:0,0:0:0
392,200,63670,5,4,0:0:0
320,232,64870,5,4,0:0:0
248,264,66070,6,0,P|200:288,1,48.0000018310548,0|0,0:0|0:0,0:0:0
248,136,66670,6,0,P|200:112,1,48.0000018310548,4|0,0:0|0:0,0:0:0
72,200,67270,5,4,0:0:0
72,200,68470,6,0,P|64:136|104:80,1,128,0|8,0:0|0:0,0:0:0
224,48,69070,2,0,P|285:76|317:140,1,128,0|8,0:0|0:0,0:0:0
192,168,69670,1,0,0:0:0
232,288,69970,1,8,0:0:0
352,256,70270,2,0,P|416:256|472:216,1,128,0|8,0:0|0:0,0:0:0
480,96,70870,5,0,0:0:0
360,56,71170,1,8,0:0:0
280,152,71470,1,0,0:0:0
352,256,71770,2,0,P|342:320,1,64,8|0,0:0|0:0,0:0:0
264,336,72070,6,0,P|216:360|160:344,2,96,0|8|0,0:0|0:0|0:0,0:0:0
208,280,72670,2,0,P|184:144,1,128,0|0,0:0|0:0,0:0:0
56,96,73270,5,4,0:0:0
16,216,73570,1,8,0:0:0
64,336,73870,2,0,P|121:365|192:352,1,128,0|8,0:0|0:0,0:0:0
312,328,74470,2,0,P|373:319|432:352,2,128,0|8|0,0:0|0:0|0:0,0:0:0
224,232,75370,1,8,0:0:0
352,200,75670,5,0,0:0:0
368,72,75970,2,0,P|328:56|280:80|264:112|264:112|192:128|192:128|123:107,1,256,8|8,0:0|0:0,0:0:0
16,152,76870,6,0,P|4:101|24:56,2,96
48,224,77470,1,0,0:0:0
280,336,78070,6,0,P|344:344|400:312,1,128,4|8,0:0|0:0,0:0:0
488,224,78670,2,0,P|512:168|496:96,1,128,0|8,0:0|0:0,0:0:0
384,152,79270,1,0,0:0:0
288,64,79570,1,8,0:0:0
168,104,79870,2,0,P|104:112|40:80,1,128,0|8,0:0|0:0,0:0:0
96,208,80470,6,0,P|69:258|88:328,2,128,0|8|0,0:0|0:0|0:0,0:0:0
208,272,81370,2,0,P|288:272,1,64,8|0,0:0|0:0,0:0:0
336,320,81670,6,0,P|376:344|433:330,2,96,0|8|0,0:0|0:0|0:0,0:0:0
392,264,82270,2,0,P|432:112,1,128,0|0,0:0|0:0,0:0:0
328,56,82870,6,0,P|288:104|296:168,1,128,4|0,0:0|0:0,0:0:0
264,288,83470,2,0,P|120:328,1,128,0|8,0:0|0:0,0:0:0
24,264,84070,2,0,P|0:200|16:128,1,128,0|8,0:0|0:0,0:0:0
120,72,84670,2,0,P|264:32,1,128,0|8,0:0|0:0,0:0:0
360,80,85270,6,0,P|385:155|304:217,2,192
232,176,86470,2,0,P|220:222|236:270,2,96
304,136,87070,1,0,0:0:0
160,136,87370,1,0,0:0:0
232,16,87670,5,4,0:0:0
312,80,97270,6,0,P|288:184,1,96.0000036621095,4|12,0:0|0:0,0:0:0
328,264,97870,1,0,0:0:0
264,336,98170,2,0,P|200:360,2,48.0000018310548,8|0|0,0:0|0:0|0:0,0:0:0
232,248,98770,1,8,0:0:0
136,232,99070,2,0,P|120:184|136:136,1,96.0000036621095,0|8,0:0|0:0,0:0:0
176,56,99670,6,0,P|216:24|264:24,1,96.0000036621095,0|8,0:0|0:0,0:0:0
352,32,100270,2,0,P|397:49|424:96,1,96.0000036621095,0|8,0:0|0:0,0:0:0
376,176,100870,2,0,P|320:176,2,48.0000018310548,0|0|8,0:0|0:0|0:0,0:0:0
472,176,101470,1,0,0:0:0
344,320,102070,6,0,P|301:346|247:341,1,96.0000036621095,0|8,0:0|0:0,0:0:0
160,328,102670,1,0,0:0:0
96,256,102970,2,0,P|32:268,2,48.0000018310548,8|0|0,0:0|0:0|0:0,0:0:0
192,240,103570,1,8,0:0:0
224,152,103870,2,0,P|224:104|200:64,1,96.0000036621095,0|8,0:0|0:0,0:0:0
112,32,104470,5,4,0:0:0
304,64,105070,5,4,0:0:0
120,120,105670,5,4,0:0:0
312,152,106270,5,4,0:0:0
256,192,106870,12,0,108670,0:0:0
128,232,109270,5,0,0:0:0
176,112,109570,2,0,P|272:40|408:72,1,256,8|8,0:0|0:0,0:0:0
344,184,110470,2,0,P|384:320,2,128,0|8|0,0:0|0:0|0:0,0:0:0
128,320,111670,6,0,P|64:296|41:228,1,128,4|8,0:0|0:0,0:0:0
88,128,112270,2,0,P|152:152|175:220,1,128,0|8,0:0|0:0,0:0:0
256,304,112870,2,0,P|384:328,1,128,0|8,0:0|0:0,0:0:0
432,208,113470,2,0,P|304:184,1,128,0|8,0:0|0:0,0:0:0
256,64,114070,5,4,0:0:0
32,192,114670,5,4,0:0:0
256,320,115270,5,4,0:0:0
480,192,115870,5,4,0:0:0
296,152,116470,6,0,P|282:193|299:243,2,96.0000036621095,2|8|2,0:0|0:0|0:0,0:0:0
256,64,117370,1,8,0:0:0
160,88,117670,2,0,P|64:112,1,96.0000036621095,2|10,0:0|0:0,0:0:0
32,200,118270,1,0,0:0:0
64,288,118570,1,10,0:0:0
152,320,118870,6,0,P|200:328|256:304,1,96.0000036621095,2|8,0:0|0:0,0:0:0
304,240,119470,1,2,0:0:0
400,256,119770,2,0,P|448:232,1,48.0000018310548,10|0,0:0|0:0,0:0:0
464,192,120070,2,0,P|472:144|448:96,1,96.0000036621095,2|10,0:0|0:0,0:0:0
392,32,120670,1,0,0:0:0
360,120,120970,1,10,0:0:0
296,48,121270,6,0,P|192:48,1,96.0000036621095,2|8,0:0|0:0,0:0:0
104,48,121870,1,2,0:0:0
80,144,122170,1,8,0:0:0
152,208,122470,2,0,P|176:248|160:312,2,96.0000036621095,2|10|0,0:0|0:0|0:0,0:0:0
224,144,123370,1,10,0:0:0
304,192,123670,6,0,P|392:248,2,96.0000036621095
304,96,124570,1,0,0:0:0
304,96,124720,1,0,0:0:0
304,96,124870,6,0,P|392:40,2,96.0000036621095
304,96,126070,6,0,P|208:120|128:72,1,192.000007324219,0|8,0:0|0:0,0:0:0
24,240,127270,1,0,0:0:0
104,296,127570,1,0,0:0:0
192,256,127870,1,8,0:0:0
384,224,128470,6,0,P|395:259|381:302,2,72.0000027465821
360,184,129070,2,0,P|392:80,1,96.0000036621095,8|0,0:0|0:0,0:0:0
312,32,129670,2,0,P|272:56|216:48,1,96.0000036621095
176,136,130270,1,8,0:0:0
176,328,130870,6,0,P|103:322|48:264,1,144.000005493164
40,232,131470,1,8,0:0:0
80,144,131770,1,0,0:0:0
176,136,132070,2,0,P|226:135|272:168,1,96.0000036621095
320,240,132670,2,0,P|336:288|320:344,1,96.0000036621095,8|0,0:0|0:0,0:0:0
416,288,133270,6,0,P|480:336,2,72.0000027465821
424,240,133870,2,0,P|408:192|427:142,1,96.0000036621095,8|0,0:0|0:0,0:0:0
464,64,134470,1,0,0:0:0
376,24,134770,1,0,0:0:0
336,112,135070,1,8,0:0:0
144,128,135670,6,8,P|120:176|144:232,1,96.0000036621095,2|0,0:0|0:0,0:0:0
224,184,136270,2,0,P|248:136|224:80,1,96.0000036621095,2|0,0:0|0:0,0:0:0
168,32,136870,1,2,0:0:0
72,56,137170,1,2,0:0:0
48,152,137470,2,0,P|16:256,1,96.0000036621095,2|0,0:0|0:0,0:0:0
96,304,138070,6,0,P|184:320|264:248,1,192.000007324219,2|2,0:0|0:0,0:0:0
224,168,138970,1,0,0:0:0
272,80,139270,2,0,P|312:48|368:40,2,96.0000036621095,2|2|0,0:0|0:0|0:0,0:0:0
424,200,140470,6,0,P|368:312|216:344,1,288.000010986329,4|0,0:0|0:0,0:0:0
128,312,141670,6,0,P|112:160|216:80,1,288.000010986329,4|0,0:0|0:0,0:0:0
304,96,142870,6,0,P|336:128|344:184,1,96.0000036621095,4|0,0:0|0:0,0:0:0
296,256,143470,6,0,P|252:269|200:240,1,96.0000036621095
256,176,144070,5,4,0:0:0
256,176,144970,6,0,P|176:120,1,96.0000036621095,0|4,0:0|0:0,0:0:0
88,144,146470,5,2,0:0:0
48,232,147670,5,2,0:0:0
64,320,148870,6,0,P|32:224|56:128,1,192.000007324219,2|2,0:0|0:0,0:0:0
216,40,150070,5,0,0:0:0
312,64,151270,5,2,0:0:0
392,120,152470,6,0,P|428:178|400:264,2,144.000005493164,2|2|0,0:0|0:0|0:0,0:0:0
312,64,153670,5,2,0:0:0
192,216,154270,1,0,0:0:0
344,328,154870,5,4,0:0:0
248,336,156070,5,2,0:0:0
152,304,157270,5,2,0:0:0
104,224,158470,6,0,P|144:152|112:40,1,192.000007324219,2|2,0:0|0:0,0:0:0
32,88,159370,1,0,0:0:0
16,184,159670,5,4,0:0:0
104,224,160720,5,0,0:0:0
104,224,160870,1,4,0:0:0
184,160,161920,5,0,0:0:0
184,160,162070,2,0,P|376:160,1,192.000007324219,4|4,0:0|0:0,0:0:0
430,235,163270,6,0,P|366:251|310:219,1,128,4|4,0:0|0:0,0:0:0
311,98,163870,2,0,P|363:70|428:86,1,128,4|4,0:0|0:0,0:0:0
376,160,164470,5,0,0:0:0
376,160,164770,6,0,P|296:272,1,128,0|8,0:0|0:0,0:0:0
184,320,165370,2,0,P|120:328|56:288,1,128,0|8,0:0|0:0,0:0:0
144,192,165970,2,0,P|96:56,1,128,0|8,0:0|0:0,0:0:0
224,96,166570,2,0,P|288:96|336:48,1,128,0|8,0:0|0:0,0:0:0
456,104,167170,5,0,0:0:0
488,224,167470,1,8,0:0:0
432,336,167770,2,0,P|368:344|304:312,1,128,0|8,0:0|0:0,0:0:0
208,240,168370,6,0,P|176:280|120:284,2,96,0|8|0,0:0|0:0|0:0,0:0:0
135,209,168970,2,0,P|-1:153,1,128
56,32,169570,5,4,0:0:0
176,80,169870,1,8,0:0:0
304,48,170170,2,0,P|360:40|432:72,1,128,0|8,0:0|0:0,0:0:0
472,184,170770,1,0,0:0:0
392,288,171070,1,8,0:0:0
264,264,171370,2,0,P|208:304|136:296,1,128,0|8,0:0|0:0,0:0:0
40,240,171970,5,0,0:0:0
24,112,172270,2,0,P|74:104|112:136|112:136|160:40|160:40|224:24,1,256,8|8,0:0|0:0,0:0:0
336,56,173170,6,0,P|383:41|437:53,2,96
264,88,173770,1,0,0:0:0
464,248,174370,6,0,P|448:304|384:352,1,128,4|8,0:0|0:0,0:0:0
272,304,174970,2,0,P|120:288,1,128,0|8,0:0|0:0,0:0:0
56,192,175570,2,0,P|72:136|136:88,1,128,0|8,0:0|0:0,0:0:0
248,64,176170,2,0,P|384:32,1,128,0|8,0:0|0:0,0:0:0
480,104,176770,5,0,0:0:0
408,208,177070,1,8,0:0:0
288,248,177370,2,0,P|224:256|168:224,1,128,0|8,0:0|0:0,0:0:0
104,112,177970,6,0,P|104:56|152:16,2,96,0|8|0,0:0|0:0|0:0,0:0:0
96,192,178570,2,0,P|96:328,1,128
216,344,179170,6,0,P|280:352|344:312,1,128,4|8,0:0|0:0,0:0:0
416,224,179770,2,0,P|440:168|424:96,1,128,0|8,0:0|0:0,0:0:0
320,40,180370,1,0,0:0:0
208,96,180670,1,8,0:0:0
176,216,180970,2,0,P|136:344,1,128,0|8,0:0|0:0,0:0:0
48,248,181570,6,0,P|56:152|136:96,2,192
176,216,182770,2,0,P|224:320,2,96
208,136,183370,1,0,0:0:0
320,72,183670,1,0,0:0:0
432,144,183970,6,0,P|464:200|452:268,1,128,4|8,0:0|0:0,0:0:0
336,224,184555,2,0,P|320:280|240:312,1,128,0|8,0:0|0:0,0:0:0
208,192,185140,2,0,P|152:64,1,128,0|8,0:0|0:0,0:0:0
32,48,185726,2,0,P|88:176,1,128,0|8,0:0|0:0,0:0:0
48,288,186311,6,0,P|120:296|171:254,1,128,0|8,0:0|0:0,0:0:0
232,160,186896,2,0,P|248:96|216:32,1,128,0|8,0:0|0:0,0:0:0
344,80,187482,2,0,P|472:120,1,128,0|8,0:0|0:0,0:0:0
488,248,188067,1,0,0:0:0
488,248,188652,6,0,P|456:304|392:328,1,128,4|0,0:0|0:0,0:0:0
376,200,189223,2,0,P|328:216|248:184,1,128,0|8,0:0|0:0,0:0:0
320,80,189794,2,0,P|192:24,1,128,0|8,0:0|0:0,0:0:0
176,152,190366,2,0,P|48:96,1,128,0|8,0:0|0:0,0:0:0
80,224,190937,5,4,0:0:0
328,280,191509,5,4,0:0:0
72,312,192080,6,0,P|128:320|192:288,1,128
248,176,192652,2,0,P|310:145|366:153,1,128
488,200,193223,5,4,0:0:0
272,344,193781,1,0,0:0:0
432,144,194339,2,0,P|372:115|296:136,1,128
232,224,194897,1,0,0:0:0
32,64,195455,5,0,0:0:0
0,320,196013,1,0,0:0:0
112,88,196571,2,0,P|177:88|232:48,1,128
352,72,197129,1,0,0:0:0
440,312,197688,5,0,0:0:0
184,264,198246,1,0,0:0:0
440,224,198804,2,0,P|378:210|320:240,1,128
240,336,199362,2,0,P|184:352|120:320,1,128
48,216,199920,5,4,0:0:0
232,40,200478,5,4,0:0:0
464,144,201036,5,4,0:0:0
280,320,201595,5,4,0:0:0
48,216,202153,6,0,P|112:200|152:136,1,128,0|8,0:0|0:0,0:0:0
200,272,202698,2,0,P|232:216|232:144,1,128,0|8,0:0|0:0,0:0:0
336,232,203243,2,0,P|336:168|304:112,1,128,0|8,0:0|0:0,0:0:0
432,120,203789,2,0,P|400:72|336:40,1,128,0|8,0:0|0:0,0:0:0
208,32,204334,6,0,P|144:40|88:88,1,128,0|8,0:0|0:0,0:0:0
216,112,204880,2,0,P|176:168|176:240,1,128,0|8,0:0|0:0,0:0:0
280,160,205425,2,0,P|280:224|312:288,1,128,0|8,0:0|0:0,0:0:0
360,168,205971,2,0,P|392:216|464:240,1,128,0|8,0:0|0:0,0:0:0
432,120,206516,6,0,P|328:80|296:224,1,288.000010986329
344,280,207686,6,0,P|304:304|256:296,1,96.0000036621095
160,296,208317,2,0,P|113:303|73:279,1,96.0000036621095,0|0,0:0|0:0,0:0:0
256,192,208949,12,4,211184,0:0:0
