osu file format v11

[General]
AudioFilename: Kakuzetsu Thanatos.mp3
AudioLeadIn: 1000
PreviewTime: 68164
Countdown: 0
SampleSet: Normal
StackLeniency: 0.4
Mode: 1
LetterboxInBreaks: 0

[Editor]
DistanceSpacing: 0.8
BeatDivisor: 4
GridSize: 32

[Metadata]
Title:Kakuzetsu Thanatos
TitleUnicode:隔絶≡タナトス
Artist:Rohi
ArtistUnicode:ろひ
Creator:NatsumeRin
Version:714's Taiko Muzukashii
Source:Vocaloid
Tags:Kagamine Rin Amamiya Yuko Pokie RLC hs714 qoot8123
BeatmapID:218341
BeatmapSetID:76396

[Difficulty]
HPDrainRate:4
CircleSize:3
OverallDifficulty:4
ApproachRate:5
SliderMultiplier:1.2
SliderTickRate:1

[Events]
//Background and Video events
0,0,"BG.JPG"
//Break Periods
2,145470,153370
//Storyboard Layer 0 (Background)
//Storyboard Layer 1 (Fail)
//Storyboard Layer 2 (Pass)
//Storyboard Layer 3 (Foreground)
//Storyboard Sound Samples
//Background Colour Transformations
3,100,163,162,255

[TimingPoints]
70,300,4,1,0,90,1,0
70,-100,4,1,0,90,0,0
10670,-100,4,1,0,90,0,0
68470,-100,4,1,0,90,0,1
87670,-100,4,1,0,90,0,0
164770,300,4,1,0,90,1,1
164770,-100,4,1,0,90,0,1
183970,292.682926829268,4,1,0,90,1,0
188652,285.714285714286,4,1,0,90,1,0
193223,279.06976744186,4,1,0,90,1,0
202153,272.727272727273,4,1,0,90,1,0
206516,292.682926829268,4,1,0,90,1,0
207686,315.789473684211,4,1,0,90,1,0
208949,342.857142857143,4,1,0,90,1,0
209634,375,4,1,0,90,1,0
210384,400,4,1,0,90,1,0

[Colours]
Combo1 : 0,64,128
Combo2 : 196,0,0

[HitObjects]
160,192,970,1,0,0:0:0
352,192,1270,5,8,0:0:0
160,192,1570,5,0,0:0:0
352,192,1870,5,8,0:0:0
160,192,2470,5,0,0:0:0
160,192,2770,1,0,0:0:0
352,192,3070,5,8,0:0:0
160,192,3670,5,0,0:0:0
160,192,3970,1,0,0:0:0
352,192,4270,5,8,0:0:0
160,192,4870,5,0,0:0:0
352,192,5170,5,8,0:0:0
160,192,5470,5,0,0:0:0
352,192,5770,5,8,0:0:0
160,192,6070,5,0,0:0:0
160,192,6670,1,0,0:0:0
160,192,6970,1,0,0:0:0
352,192,7270,5,8,0:0:0
160,192,7870,5,0,0:0:0
160,192,8170,1,0,0:0:0
352,192,8470,5,8,0:0:0
160,192,9070,5,0,0:0:0
352,192,9370,5,8,0:0:0
160,192,9670,5,0,0:0:0
160,192,10270,1,0,0:0:0
352,192,10570,5,8,0:0:0
160,192,10870,5,0,0:0:0
352,192,11020,5,8,0:0:0
160,192,11170,5,0,0:0:0
352,192,11470,5,8,0:0:0
160,192,11770,5,0,0:0:0
352,192,12070,5,8,0:0:0
352,192,12370,1,8,0:0:0
160,192,12520,5,0,0:0:0
352,192,12670,5,8,0:0:0
352,192,12970,1,8,0:0:0
352,192,13270,1,8,0:0:0
160,192,13570,5,0,0:0:0
160,192,13720,1,0,0:0:0
352,192,13870,5,8,0:0:0
160,192,14170,5,0,0:0:0
160,192,14320,1,0,0:0:0
352,192,14470,5,8,0:0:0
352,192,14770,1,8,0:0:0
256,96,15070,5,4,0:0:0
256,96,15370,1,4,0:0:0
256,288,15670,5,12,0:0:0
160,192,15970,5,0,0:0:0
352,192,16270,5,8,0:0:0
160,192,16570,5,0,0:0:0
160,192,16720,1,0,0:0:0
352,192,16870,5,8,0:0:0
160,192,17170,5,0,0:0:0
160,192,17320,1,0,0:0:0
352,192,17470,5,8,0:0:0
160,192,17770,5,0,0:0:0
352,192,18070,5,8,0:0:0
352,192,18670,1,8,0:0:0
352,192,19270,1,8,0:0:0
256,96,19870,5,4,0:0:0
160,192,20170,1,0,0:0:0
352,192,20470,5,8,0:0:0
160,192,20770,5,0,0:0:0
352,192,21070,5,8,0:0:0
160,192,21370,5,0,0:0:0
160,192,21520,1,0,0:0:0
352,192,21670,5,8,0:0:0
160,192,21970,5,0,0:0:0
352,192,22270,5,8,0:0:0
160,192,22570,5,0,0:0:0
160,192,22720,1,0,0:0:0
352,192,22870,5,8,0:0:0
352,192,23170,1,8,0:0:0
160,192,23320,5,0,0:0:0
352,192,23470,5,8,0:0:0
160,192,23770,5,0,0:0:0
352,192,24070,5,8,0:0:0
160,192,24370,5,0,0:0:0
160,192,24520,1,0,0:0:0
352,192,24670,5,8,0:0:0
160,192,24970,5,0,0:0:0
352,192,25270,5,8,0:0:0
160,192,25570,5,0,0:0:0
352,192,25870,5,8,0:0:0
160,192,26170,5,0,0:0:0
160,192,26320,1,0,0:0:0
352,192,26470,5,8,0:0:0
160,192,26620,5,0,0:0:0
160,192,26770,1,0,0:0:0
160,192,26920,1,0,0:0:0
352,192,27070,5,8,0:0:0
160,192,27370,5,0,0:0:0
352,192,27670,5,8,0:0:0
160,192,27970,5,0,0:0:0
352,192,28270,5,8,0:0:0
160,192,28570,5,0,0:0:0
352,192,28870,5,8,0:0:0
160,192,29170,5,0,0:0:0
160,192,29320,1,0,0:0:0
352,192,29470,5,8,0:0:0
160,192,29770,5,0,0:0:0
352,192,30070,5,8,0:0:0
160,192,30370,5,0,0:0:0
352,192,30670,5,8,0:0:0
160,192,30970,5,0,0:0:0
160,192,31120,1,0,0:0:0
160,192,31270,1,0,0:0:0
160,192,31570,1,0,0:0:0
160,192,31870,1,0,0:0:0
160,192,32020,1,0,0:0:0
352,192,32170,5,8,0:0:0
352,192,32470,1,8,0:0:0
160,192,32770,5,0,0:0:0
160,192,32920,1,0,0:0:0
352,192,33070,5,8,0:0:0
160,192,33370,5,0,0:0:0
160,192,33520,1,0,0:0:0
352,192,33670,5,8,0:0:0
160,192,33970,5,0,0:0:0
256,288,34270,5,12,0:0:0
256,288,34570,1,12,0:0:0
256,96,34870,5,4,0:0:0
160,192,35170,1,0,0:0:0
352,192,35470,5,8,0:0:0
160,192,35770,5,0,0:0:0
352,192,36070,5,8,0:0:0
352,192,36370,1,8,0:0:0
160,192,36520,5,0,0:0:0
352,192,36670,5,8,0:0:0
160,192,36970,5,0,0:0:0
352,192,37270,5,8,0:0:0
352,192,37870,1,8,0:0:0
352,192,38470,1,8,0:0:0
256,96,39070,5,4,0:0:0
160,192,39370,1,0,0:0:0
160,192,39520,1,0,0:0:0
352,192,39670,5,8,0:0:0
160,192,39970,5,0,0:0:0
352,192,40270,5,8,0:0:0
160,192,40570,5,0,0:0:0
352,192,40720,5,8,0:0:0
160,192,40870,5,0,0:0:0
352,192,41170,5,8,0:0:0
352,192,41470,1,8,0:0:0
160,192,41770,5,0,0:0:0
160,192,41920,1,0,0:0:0
352,192,42070,5,8,0:0:0
160,192,42370,5,0,0:0:0
160,192,42520,1,0,0:0:0
352,192,42670,5,8,0:0:0
160,192,42970,5,0,0:0:0
352,192,43270,5,8,0:0:0
160,192,43570,5,0,0:0:0
352,192,43720,5,8,0:0:0
160,192,43870,5,0,0:0:0
352,192,44170,5,8,0:0:0
352,192,44470,1,8,0:0:0
160,192,44770,5,0,0:0:0
160,192,44920,1,0,0:0:0
352,192,45070,5,8,0:0:0
160,192,45370,5,0,0:0:0
160,192,45520,1,0,0:0:0
352,192,45670,5,8,0:0:0
160,192,45820,5,0,0:0:0
160,192,45970,1,0,0:0:0
160,192,46120,1,0,0:0:0
352,192,46270,5,8,0:0:0
160,192,46570,5,0,0:0:0
352,192,46870,5,8,0:0:0
160,192,47170,5,0,0:0:0
352,192,47470,5,8,0:0:0
160,192,47770,5,0,0:0:0
352,192,48070,5,8,0:0:0
160,192,48370,5,0,0:0:0
160,192,48520,1,0,0:0:0
352,192,48670,5,8,0:0:0
160,192,48970,5,0,0:0:0
160,192,49270,1,0,0:0:0
160,192,49570,1,0,0:0:0
160,192,49870,1,0,0:0:0
160,192,50170,1,0,0:0:0
352,192,50470,5,8,0:0:0
160,192,50620,5,0,0:0:0
352,192,50770,5,8,0:0:0
160,192,50920,5,0,0:0:0
352,192,51070,5,8,0:0:0
160,192,51370,5,0,0:0:0
352,192,51670,5,8,0:0:0
352,192,51970,1,8,0:0:0
160,192,52120,5,0,0:0:0
352,192,52270,5,8,0:0:0
160,192,52570,5,0,0:0:0
352,192,52870,5,8,0:0:0
160,192,53170,5,0,0:0:0
352,192,53320,5,8,0:0:0
160,192,53470,5,0,0:0:0
352,192,53620,5,8,0:0:0
160,192,54070,5,0,0:0:0
160,192,54370,1,0,0:0:0
160,192,54670,1,0,0:0:0
160,192,54970,1,0,0:0:0
160,192,55270,1,0,0:0:0
352,192,55420,5,8,0:0:0
160,192,55570,5,0,0:0:0
352,192,55720,5,8,0:0:0
160,192,55870,5,0,0:0:0
352,192,56170,5,8,0:0:0
160,192,56320,5,0,0:0:0
352,192,56470,5,8,0:0:0
160,192,56770,5,0,0:0:0
352,192,57070,5,8,0:0:0
160,192,57370,5,0,0:0:0
352,192,57670,5,8,0:0:0
352,192,57970,1,8,0:0:0
160,192,58120,5,0,0:0:0
160,192,58270,1,0,0:0:0
352,192,58420,5,8,0:0:0
160,192,58870,5,0,0:0:0
160,192,59170,1,0,0:0:0
352,192,59470,5,8,0:0:0
160,192,59770,5,0,0:0:0
160,192,59920,1,0,0:0:0
352,192,60070,5,8,0:0:0
160,192,60370,5,0,0:0:0
352,192,60670,5,8,0:0:0
160,192,60970,5,0,0:0:0
352,192,61270,5,8,0:0:0
160,192,61570,5,0,0:0:0
352,192,61870,5,8,0:0:0
160,192,62020,5,0,0:0:0
352,192,62170,5,8,0:0:0
160,192,62470,5,0,0:0:0
352,192,62770,5,8,0:0:0
160,192,62920,5,0,0:0:0
160,192,63070,1,0,0:0:0
352,192,63220,5,8,0:0:0
160,192,63670,5,0,0:0:0
160,192,63970,1,0,0:0:0
352,192,64270,5,8,0:0:0
160,192,64570,5,0,0:0:0
160,192,64870,1,0,0:0:0
352,192,65170,5,8,0:0:0
352,192,65470,1,8,0:0:0
160,192,65770,5,0,0:0:0
160,192,66070,1,0,0:0:0
160,192,66370,1,0,0:0:0
160,192,66670,1,0,0:0:0
160,192,66970,1,0,0:0:0
256,96,67270,1,4,0:0:0
160,192,68170,1,0,0:0:0
160,192,68320,1,0,0:0:0
352,192,68470,5,8,0:0:0
160,192,68770,5,0,0:0:0
352,192,69070,5,8,0:0:0
160,192,69370,5,0,0:0:0
352,192,69670,5,8,0:0:0
160,192,69970,5,0,0:0:0
160,192,70120,1,0,0:0:0
352,192,70270,5,8,0:0:0
352,192,70570,1,8,0:0:0
160,192,70870,5,0,0:0:0
352,192,71020,5,8,0:0:0
160,192,71170,5,0,0:0:0
352,192,71470,5,8,0:0:0
160,192,71620,5,0,0:0:0
352,192,71770,5,8,0:0:0
160,192,72070,5,0,0:0:0
160,192,72220,1,0,0:0:0
352,192,72370,5,8,0:0:0
256,288,72670,1,12,0:0:0
256,288,72970,1,12,0:0:0
256,96,73270,5,4,0:0:0
352,192,73570,5,8,0:0:0
160,192,73870,5,0,0:0:0
160,192,74020,1,0,0:0:0
352,192,74170,5,8,0:0:0
352,192,74470,1,8,0:0:0
160,192,74620,5,0,0:0:0
352,192,74770,5,8,0:0:0
160,192,75070,5,0,0:0:0
352,192,75370,5,8,0:0:0
160,192,75670,5,0,0:0:0
352,192,75820,5,8,0:0:0
160,192,75970,5,0,0:0:0
352,192,76120,5,8,0:0:0
160,192,76270,5,0,0:0:0
352,192,76570,5,8,0:0:0
160,192,76870,5,0,0:0:0
160,192,77020,1,0,0:0:0
160,192,77170,1,0,0:0:0
160,192,77320,1,0,0:0:0
160,192,77470,1,0,0:0:0
256,288,77770,5,12,0:0:0
160,192,78070,5,0,0:0:0
352,192,78370,5,8,0:0:0
160,192,78670,5,0,0:0:0
160,192,78820,1,0,0:0:0
352,192,78970,5,8,0:0:0
160,192,79270,5,0,0:0:0
352,192,79570,5,8,0:0:0
160,192,79870,5,0,0:0:0
160,192,80020,1,0,0:0:0
352,192,80170,5,8,0:0:0
352,192,80470,1,8,0:0:0
160,192,80620,5,0,0:0:0
352,192,80770,5,8,0:0:0
160,192,81070,5,0,0:0:0
160,192,81220,1,0,0:0:0
352,192,81370,5,8,0:0:0
352,192,81670,1,8,0:0:0
160,192,81970,5,0,0:0:0
256,288,82270,5,12,0:0:0
256,288,82570,1,12,0:0:0
256,96,82870,5,4,0:0:0
352,192,83170,5,8,0:0:0
160,192,83470,5,0,0:0:0
160,192,83620,1,0,0:0:0
352,192,83770,5,8,0:0:0
160,192,84070,5,0,0:0:0
352,192,84370,5,8,0:0:0
160,192,84670,5,0,0:0:0
160,192,84820,1,0,0:0:0
352,192,84970,5,8,0:0:0
352,192,85120,1,8,0:0:0
160,192,85270,5,0,0:0:0
352,192,85570,5,8,0:0:0
160,192,85870,5,0,0:0:0
352,192,86170,5,8,0:0:0
160,192,86470,5,0,0:0:0
160,192,86620,1,0,0:0:0
160,192,86770,1,0,0:0:0
160,192,86920,1,0,0:0:0
352,192,87070,5,8,0:0:0
160,192,87370,5,0,0:0:0
352,192,87670,5,8,0:0:0
160,192,87970,5,0,0:0:0
352,192,88270,5,8,0:0:0
160,192,88570,5,0,0:0:0
352,192,88870,5,8,0:0:0
160,192,89170,5,0,0:0:0
160,192,89320,1,0,0:0:0
352,192,89470,5,8,0:0:0
160,192,89770,5,0,0:0:0
160,192,89920,1,0,0:0:0
352,192,90070,5,8,0:0:0
160,192,90370,5,0,0:0:0
352,192,90670,5,8,0:0:0
160,192,90970,5,0,0:0:0
352,192,91270,5,8,0:0:0
160,192,91570,5,0,0:0:0
256,288,91870,5,12,0:0:0
256,288,92170,1,12,0:0:0
256,96,92470,5,4,0:0:0
352,192,92770,5,8,0:0:0
160,192,93070,5,0,0:0:0
160,192,93220,1,0,0:0:0
352,192,93370,5,8,0:0:0
160,192,93670,5,0,0:0:0
160,192,93820,1,0,0:0:0
352,192,93970,5,8,0:0:0
352,192,94270,1,8,0:0:0
352,192,94570,1,8,0:0:0
256,96,94870,5,4,0:0:0
256,96,95470,1,4,0:0:0
256,288,96070,5,12,0:0:0
160,192,96970,5,0,0:0:0
352,192,97270,5,8,0:0:0
160,192,97570,5,0,0:0:0
352,192,97870,5,8,0:0:0
160,192,98020,5,0,0:0:0
352,192,98170,5,8,0:0:0
160,192,98470,5,0,0:0:0
160,192,98620,1,0,0:0:0
352,192,98770,5,8,0:0:0
160,192,99070,5,0,0:0:0
352,192,99370,5,8,0:0:0
160,192,99670,5,0,0:0:0
160,192,99820,1,0,0:0:0
352,192,99970,5,8,0:0:0
352,192,100120,1,8,0:0:0
160,192,100270,5,0,0:0:0
160,192,100420,1,0,0:0:0
352,192,100570,5,8,0:0:0
160,192,100870,5,0,0:0:0
352,192,101170,5,8,0:0:0
256,96,101470,5,4,0:0:0
256,96,101770,1,4,0:0:0
256,288,102070,5,12,0:0:0
160,192,102370,5,0,0:0:0
352,192,102670,5,8,0:0:0
160,192,102970,5,0,0:0:0
160,192,103120,1,0,0:0:0
352,192,103270,5,8,0:0:0
352,192,103570,1,8,0:0:0
160,192,103870,5,0,0:0:0
352,192,104170,5,8,0:0:0
256,96,104470,5,4,0:0:0
256,96,105070,1,4,0:0:0
256,288,105670,5,12,0:0:0
256,288,106270,1,12,0:0:0
160,192,106870,5,0,0:0:0
160,192,107020,1,0,0:0:0
352,192,107170,5,8,0:0:0
352,192,107470,1,8,0:0:0
352,192,107770,1,8,0:0:0
160,192,108070,5,0,0:0:0
160,192,108220,1,0,0:0:0
352,192,108370,5,8,0:0:0
160,192,108670,5,0,0:0:0
352,192,108970,5,8,0:0:0
160,192,109270,5,0,0:0:0
352,192,109570,5,8,0:0:0
352,192,109870,1,8,0:0:0
160,192,110020,5,0,0:0:0
352,192,110170,5,8,0:0:0
160,192,110470,5,0,0:0:0
352,192,110770,5,8,0:0:0
256,288,111070,1,12,0:0:0
256,288,111370,1,12,0:0:0
256,96,111670,5,4,0:0:0
352,192,111970,5,8,0:0:0
160,192,112270,5,0,0:0:0
160,192,112420,1,0,0:0:0
352,192,112570,5,8,0:0:0
160,192,112870,5,0,0:0:0
352,192,113170,5,8,0:0:0
160,192,113470,5,0,0:0:0
160,192,113620,1,0,0:0:0
352,192,113770,5,8,0:0:0
352,192,114070,1,8,0:0:0
352,192,114670,1,8,0:0:0
352,192,115270,1,8,0:0:0
256,96,115870,5,4,0:0:0
160,192,116170,1,0,0:0:0
352,192,116470,5,8,0:0:0
352,192,116770,1,8,0:0:0
160,192,116920,5,0,0:0:0
352,192,117070,5,8,0:0:0
160,192,117370,5,0,0:0:0
352,192,117670,5,8,0:0:0
160,192,117970,5,0,0:0:0
352,192,118270,5,8,0:0:0
160,192,118570,5,0,0:0:0
160,192,118720,1,0,0:0:0
352,192,118870,5,8,0:0:0
160,192,119170,5,0,0:0:0
160,192,119320,1,0,0:0:0
352,192,119470,5,8,0:0:0
160,192,119770,5,0,0:0:0
352,192,120070,5,8,0:0:0
352,192,120370,5,0,0:0:0
160,192,120520,1,0,0:0:0
352,192,120670,5,8,0:0:0
160,192,120970,5,0,0:0:0
352,192,121270,5,8,0:0:0
160,192,121570,5,0,0:0:0
352,192,121870,5,8,0:0:0
160,192,122170,5,0,0:0:0
160,192,122320,1,0,0:0:0
352,192,122470,5,8,0:0:0
160,192,122770,5,0,0:0:0
160,192,122920,1,0,0:0:0
352,192,123070,5,8,0:0:0
352,192,123370,1,8,0:0:0
160,192,123670,5,0,0:0:0
352,192,123970,5,8,0:0:0
160,192,124270,5,0,0:0:0
352,192,124570,5,8,0:0:0
352,192,124870,1,8,0:0:0
160,192,125020,5,0,0:0:0
352,192,125170,5,8,0:0:0
160,192,125320,5,0,0:0:0
352,192,125470,5,8,0:0:0
160,192,125770,5,0,0:0:0
160,192,125920,1,0,0:0:0
352,192,126070,5,8,0:0:0
160,192,126370,5,0,0:0:0
160,192,126670,1,0,0:0:0
160,192,126820,1,0,0:0:0
160,192,126970,1,0,0:0:0
352,192,127270,5,8,0:0:0
352,192,127570,1,8,0:0:0
352,192,127870,1,8,0:0:0
160,192,128170,5,0,0:0:0
352,192,128320,5,8,0:0:0
160,192,128470,5,0,0:0:0
160,192,128620,1,0,0:0:0
352,192,128770,5,8,0:0:0
160,192,129070,5,0,0:0:0
352,192,129370,5,8,0:0:0
160,192,129670,5,0,0:0:0
352,192,129820,5,8,0:0:0
160,192,129970,5,0,0:0:0
352,192,130120,5,8,0:0:0
352,192,130420,1,8,0:0:0
160,192,130870,5,0,0:0:0
160,192,131170,1,0,0:0:0
160,192,131470,1,0,0:0:0
160,192,131770,1,0,0:0:0
160,192,132070,1,0,0:0:0
160,192,132370,1,0,0:0:0
160,192,132520,1,0,0:0:0
352,192,132670,5,8,0:0:0
352,192,132970,1,8,0:0:0
160,192,133270,5,0,0:0:0
352,192,133420,5,8,0:0:0
160,192,133570,5,0,0:0:0
352,192,133870,5,8,0:0:0
352,192,134170,1,8,0:0:0
160,192,134470,5,0,0:0:0
160,192,134770,1,0,0:0:0
160,192,134920,1,0,0:0:0
160,192,135070,1,0,0:0:0
352,192,135220,5,8,0:0:0
160,192,135670,5,4,0:0:0
160,192,135970,1,0,0:0:0
352,192,136270,5,8,0:0:0
160,192,136570,5,0,0:0:0
160,192,136870,1,0,0:0:0
352,192,137020,5,8,0:0:0
160,192,137170,5,0,0:0:0
160,192,137320,1,0,0:0:0
352,192,137470,5,8,0:0:0
160,192,137770,5,0,0:0:0
160,192,137920,1,0,0:0:0
352,192,138070,5,8,0:0:0
352,192,138370,1,8,0:0:0
160,192,138670,5,0,0:0:0
352,192,138970,5,8,0:0:0
160,192,139270,5,0,0:0:0
160,192,139570,1,0,0:0:0
352,192,139720,5,8,0:0:0
352,192,139870,1,8,0:0:0
352,192,140020,5,0,0:0:0
160,192,140470,1,0,0:0:0
160,192,140770,1,0,0:0:0
160,192,141070,1,0,0:0:0
160,192,141370,1,0,0:0:0
160,192,141670,1,0,0:0:0
160,192,141820,1,0,0:0:0
352,192,141970,5,8,0:0:0
352,192,142270,1,8,0:0:0
160,192,142570,5,0,0:0:0
160,192,142720,1,0,0:0:0
352,192,142870,5,8,0:0:0
160,192,143020,5,0,0:0:0
160,192,143170,1,0,0:0:0
160,192,143320,1,0,0:0:0
352,192,143470,5,8,0:0:0
160,192,143770,5,0,0:0:0
160,192,144070,1,0,0:0:0
256,96,144970,1,0,0:0:0
256,96,145270,1,4,0:0:0
352,192,154570,5,8,0:0:0
256,96,154870,5,4,0:0:0
256,96,156070,1,4,0:0:0
256,96,157270,1,4,0:0:0
160,192,158470,1,0,0:0:0
352,192,158770,5,8,0:0:0
160,192,159070,5,0,0:0:0
352,192,159370,5,8,0:0:0
256,96,159670,5,4,0:0:0
160,192,160720,1,0,0:0:0
160,192,160870,1,0,0:0:0
160,192,161920,1,0,0:0:0
160,192,162070,1,0,0:0:0
256,96,162670,1,4,0:0:0
160,192,163270,1,0,0:0:0
160,192,163570,1,0,0:0:0
160,192,163870,1,0,0:0:0
256,96,164170,1,4,0:0:0
352,192,164770,5,8,0:0:0
160,192,164920,5,0,0:0:0
352,192,165070,5,8,0:0:0
160,192,165370,5,0,0:0:0
352,192,165670,5,8,0:0:0
352,192,165970,1,8,0:0:0
160,192,166120,5,0,0:0:0
352,192,166270,5,8,0:0:0
160,192,166570,5,0,0:0:0
352,192,166870,5,8,0:0:0
160,192,167170,5,0,0:0:0
352,192,167320,5,8,0:0:0
160,192,167470,5,0,0:0:0
160,192,167620,1,0,0:0:0
352,192,167770,5,8,0:0:0
160,192,168070,5,0,0:0:0
352,192,168370,5,8,0:0:0
160,192,168670,5,0,0:0:0
256,288,168970,5,12,0:0:0
256,288,169270,1,12,0:0:0
256,96,169570,5,4,0:0:0
352,192,169870,5,8,0:0:0
160,192,170170,5,0,0:0:0
352,192,170470,5,8,0:0:0
160,192,170620,5,0,0:0:0
352,192,170770,5,8,0:0:0
160,192,171070,5,0,0:0:0
352,192,171370,5,8,0:0:0
160,192,171670,5,0,0:0:0
352,192,171970,5,8,0:0:0
352,192,172120,1,8,0:0:0
352,192,172270,1,8,0:0:0
160,192,172570,5,0,0:0:0
352,192,172870,5,8,0:0:0
160,192,173170,5,0,0:0:0
160,192,173320,1,0,0:0:0
160,192,173470,1,0,0:0:0
160,192,173620,1,0,0:0:0
352,192,173770,5,8,0:0:0
352,192,174070,1,8,0:0:0
256,96,174370,5,4,0:0:0
352,192,174670,5,8,0:0:0
160,192,174970,5,0,0:0:0
160,192,175120,1,0,0:0:0
352,192,175270,5,8,0:0:0
160,192,175570,5,0,0:0:0
160,192,175720,1,0,0:0:0
352,192,175870,5,8,0:0:0
160,192,176020,5,0,0:0:0
352,192,176170,5,8,0:0:0
352,192,176470,1,8,0:0:0
160,192,176770,5,0,0:0:0
352,192,177070,5,8,0:0:0
160,192,177370,5,0,0:0:0
160,192,177520,1,0,0:0:0
352,192,177670,5,8,0:0:0
352,192,177970,1,8,0:0:0
160,192,178120,5,0,0:0:0
352,192,178270,5,8,0:0:0
256,288,178570,1,12,0:0:0
256,288,178870,1,12,0:0:0
256,96,179170,5,4,0:0:0
352,192,179470,5,8,0:0:0
160,192,179770,5,0,0:0:0
160,192,179920,1,0,0:0:0
352,192,180070,5,8,0:0:0
160,192,180370,5,0,0:0:0
352,192,180670,5,8,0:0:0
160,192,180970,5,0,0:0:0
160,192,181120,1,0,0:0:0
352,192,181270,5,8,0:0:0
160,192,181570,5,0,0:0:0
160,192,181870,1,0,0:0:0
160,192,182170,1,0,0:0:0
160,192,182470,1,0,0:0:0
160,192,182770,1,0,0:0:0
160,192,182920,1,0,0:0:0
160,192,183070,1,0,0:0:0
160,192,183220,1,0,0:0:0
352,192,183370,5,8,0:0:0
160,192,183670,5,0,0:0:0
352,192,183970,5,8,0:0:0
160,192,184262,5,0,0:0:0
160,192,184409,1,0,0:0:0
352,192,184555,5,8,0:0:0
160,192,184848,5,0,0:0:0
352,192,185140,5,8,0:0:0
160,192,185433,5,0,0:0:0
352,192,185726,5,8,0:0:0
160,192,186018,5,0,0:0:0
160,192,186165,1,0,0:0:0
160,192,186311,1,0,0:0:0
352,192,186604,5,8,0:0:0
160,192,186896,5,0,0:0:0
352,192,187189,5,8,0:0:0
160,192,187482,5,0,0:0:0
160,192,187628,1,0,0:0:0
352,192,187774,5,8,0:0:0
352,192,188067,1,8,0:0:0
256,288,188360,1,12,0:0:0
160,192,188652,5,0,0:0:0
352,192,188937,5,8,0:0:0
160,192,189223,5,0,0:0:0
352,192,189509,5,8,0:0:0
160,192,189794,5,0,0:0:0
352,192,190080,5,8,0:0:0
160,192,190366,5,0,0:0:0
160,192,190509,1,0,0:0:0
352,192,190652,5,8,0:0:0
256,96,190937,5,4,0:0:0
256,96,191509,1,4,0:0:0
256,96,192080,1,4,0:0:0
160,192,192366,1,0,0:0:0
160,192,192652,1,0,0:0:0
160,192,192937,1,0,0:0:0
160,192,193080,1,0,0:0:0
352,192,193223,5,8,0:0:0
160,192,193502,5,0,0:0:0
352,192,193781,5,8,0:0:0
160,192,194060,5,0,0:0:0
352,192,194339,5,8,0:0:0
160,192,194618,5,0,0:0:0
352,192,194897,5,8,0:0:0
352,192,195176,1,8,0:0:0
160,192,195455,5,0,0:0:0
352,192,195734,5,8,0:0:0
160,192,196013,5,0,0:0:0
352,192,196292,5,8,0:0:0
352,192,196571,1,8,0:0:0
352,192,196850,1,8,0:0:0
352,192,197129,1,8,0:0:0
160,192,197409,5,0,0:0:0
352,192,197688,5,8,0:0:0
160,192,197967,5,0,0:0:0
352,192,198246,5,8,0:0:0
160,192,198525,5,0,0:0:0
352,192,198804,5,8,0:0:0
160,192,199083,5,0,0:0:0
352,192,199362,5,8,0:0:0
160,192,199641,5,0,0:0:0
256,288,199920,5,12,0:0:0
256,96,200478,5,4,0:0:0
256,288,201036,5,12,0:0:0
256,288,201595,1,12,0:0:0
160,192,202153,5,0,0:0:0
352,192,202425,5,8,0:0:0
160,192,202698,5,0,0:0:0
352,192,202971,5,8,0:0:0
160,192,203243,5,0,0:0:0
160,192,203380,1,0,0:0:0
352,192,203516,5,8,0:0:0
160,192,203789,5,0,0:0:0
352,192,204062,5,8,0:0:0
160,192,204334,5,0,0:0:0
352,192,204607,5,8,0:0:0
160,192,204880,5,0,0:0:0
352,192,205153,5,8,0:0:0
160,192,205425,5,0,0:0:0
160,192,205562,1,0,0:0:0
352,192,205698,5,8,0:0:0
352,192,205971,1,8,0:0:0
160,192,206243,5,0,0:0:0
352,192,206516,5,8,0:0:0
160,192,206808,5,0,0:0:0
352,192,207101,5,8,0:0:0
160,192,207394,5,0,0:0:0
352,192,207686,5,8,0:0:0
160,192,208001,5,0,0:0:0
352,192,208317,5,8,0:0:0
160,192,208633,5,0,0:0:0
256,192,208949,12,0,211184,0:0:0
