osu file format v11

[General]
AudioFilename: Kakuzetsu Thanatos.mp3
AudioLeadIn: 1000
PreviewTime: 68164
Countdown: 0
SampleSet: Normal
StackLeniency: 0.4
Mode: 0
LetterboxInBreaks: 0

[Editor]
Bookmarks: 6964
DistanceSpacing: 0.7
BeatDivisor: 4
GridSize: 4

[Metadata]
Title:Kakuzetsu Thanatos
TitleUnicode:隔絶≡タナトス
Artist:Rohi
ArtistUnicode:ろひ
Creator:NatsumeRin
Version:Pokie
Source:Vocaloid
Tags:Kagamine Rin Amamiya Yuko Pokie RLC hs714 qoot8123
BeatmapID:217651
BeatmapSetID:76396

[Difficulty]
HPDrainRate:5
CircleSize:4
OverallDifficulty:7
ApproachRate:9
SliderMultiplier:1.6
SliderTickRate:1

[Events]
//Background and Video events
0,0,"BG.JPG"
Video,0,"PV.flv"
//Break Periods
2,87869,96670
//Storyboard Layer 0 (Background)
//Storyboard Layer 1 (Fail)
//Storyboard Layer 2 (Pass)
//Storyboard Layer 3 (Foreground)
//Storyboard Sound Samples
//Background Colour Transformations
3,100,163,162,255

[TimingPoints]
70,300,4,2,1,20,1,0
970,-133.333333333333,4,2,1,20,0,0
1420,-133.333333333333,4,2,1,10,0,0
1870,-133.333333333333,4,2,1,20,0,0
2470,-133.333333333333,4,2,1,10,0,0
3070,-133.333333333333,4,2,1,20,0,0
3670,-133.333333333333,4,2,1,10,0,0
4270,-133.333333333333,4,2,1,20,0,0
6220,-133.333333333333,4,2,1,10,0,0
6670,-133.333333333333,4,2,1,15,0,0
6745,-133.333333333333,4,2,1,10,0,0
7270,-133.333333333333,4,2,1,20,0,0
7420,-133.333333333333,4,2,1,10,0,0
7870,-133.333333333333,4,2,1,15,0,0
7945,-133.333333333333,4,2,1,10,0,0
8470,-133.333333333333,4,2,1,30,0,0
9070,-133.333333333333,4,2,1,40,0,0
9670,-133.333333333333,4,2,1,50,0,0
10420,-133.333333333333,4,2,1,20,0,0
10570,-100,4,1,1,40,0,0
10870,-100,4,1,1,80,0,0
20170,-133.333333333333,4,2,1,70,0,0
24820,-133.333333333333,4,2,1,55,0,0
24970,-133.333333333333,4,2,1,70,0,0
25120,-133.333333333333,4,2,1,55,0,0
25270,-133.333333333333,4,2,1,70,0,0
26095,-133.333333333333,4,2,1,30,0,0
26170,-133.333333333333,4,2,1,70,0,0
27295,-133.333333333333,4,2,1,30,0,0
27370,-133.333333333333,4,2,1,70,0,0
29470,-133.333333333333,4,1,1,50,0,0
30070,-100,4,1,1,80,0,0
39370,-133.333333333333,4,2,1,70,0,0
40495,-133.333333333333,4,2,1,30,0,0
40570,-133.333333333333,4,2,1,70,0,0
41695,-133.333333333333,4,2,1,30,0,0
41770,-133.333333333333,4,2,1,70,0,0
42895,-133.333333333333,4,2,1,30,0,0
42970,-133.333333333333,4,2,1,70,0,0
44095,-133.333333333333,4,2,1,30,0,0
44170,-133.333333333333,4,2,1,70,0,0
45295,-133.333333333333,4,2,1,30,0,0
45370,-133.333333333333,4,2,1,70,0,0
46495,-133.333333333333,4,2,1,30,0,0
46570,-133.333333333333,4,2,1,70,0,0
46870,-133.333333333333,4,1,1,40,0,0
48970,-133.333333333333,4,2,1,40,0,0
49120,-133.333333333333,4,2,1,20,0,0
49270,-133.333333333333,4,1,2,80,0,0
58870,-133.333333333333,4,2,2,50,0,0
63670,-133.333333333333,4,1,1,70,0,0
63970,-133.333333333333,4,2,2,50,0,0
64720,-133.333333333333,4,1,1,40,0,0
64870,-133.333333333333,4,1,1,70,0,0
65170,-133.333333333333,4,2,2,50,0,0
65920,-133.333333333333,4,1,1,40,0,0
66070,-133.333333333333,4,1,1,70,0,0
66370,-133.333333333333,4,2,2,50,0,0
66520,-133.333333333333,4,1,1,40,0,0
66670,-133.333333333333,4,1,1,70,0,0
66970,-133.333333333333,4,2,2,50,0,0
67270,-133.333333333333,4,2,1,60,0,0
68470,-83.3333333333333,4,1,1,80,0,1
69370,-83.3333333333333,4,1,7,80,0,1
69520,-83.3333333333333,4,1,1,80,0,1
70570,-83.3333333333333,4,1,7,80,0,1
70720,-83.3333333333333,4,1,1,80,0,1
71770,-83.3333333333333,4,1,7,80,0,1
71920,-83.3333333333333,4,1,1,80,0,1
72370,-83.3333333333333,4,1,7,80,0,1
72520,-83.3333333333333,4,1,1,80,0,1
77320,-100,4,1,1,90,0,1
77470,-100,4,1,1,70,0,0
78070,-83.3333333333333,4,1,1,90,0,1
78970,-83.3333333333333,4,1,7,90,0,1
79120,-83.3333333333333,4,1,1,90,0,1
80170,-83.3333333333333,4,1,7,90,0,1
80320,-83.3333333333333,4,1,1,90,0,1
81370,-83.3333333333333,4,1,7,90,0,1
81520,-83.3333333333333,4,1,1,90,0,1
81970,-83.3333333333333,4,1,7,90,0,1
82120,-83.3333333333333,4,1,1,90,0,1
86920,-100,4,1,1,90,0,1
87070,-100,4,1,1,90,0,1
87670,-100,4,1,1,90,0,0
97270,-200,4,2,1,80,0,0
97570,-133.333333333333,4,1,1,50,0,0
97720,-133.333333333333,4,1,1,70,0,0
106870,-100,4,1,1,80,0,0
116170,-100,4,1,1,50,0,0
116470,-133.333333333333,4,2,1,70,0,0
117295,-133.333333333333,4,2,1,30,0,0
117370,-133.333333333333,4,2,1,70,0,0
118495,-133.333333333333,4,2,1,30,0,0
118570,-133.333333333333,4,2,1,70,0,0
119695,-133.333333333333,4,2,1,30,0,0
119770,-133.333333333333,4,2,1,70,0,0
120895,-133.333333333333,4,2,1,30,0,0
120970,-133.333333333333,4,2,1,70,0,0
122095,-133.333333333333,4,2,1,30,0,0
122170,-133.333333333333,4,2,1,70,0,0
123295,-133.333333333333,4,2,1,30,0,0
123370,-133.333333333333,4,2,1,70,0,0
123670,-133.333333333333,4,1,1,40,0,0
125770,-133.333333333333,4,2,1,40,0,0
125920,-133.333333333333,4,2,1,20,0,0
126070,-133.333333333333,4,1,2,80,0,0
135670,-133.333333333333,4,2,2,50,0,0
140470,-133.333333333333,4,1,1,70,0,0
140770,-133.333333333333,4,2,2,50,0,0
141520,-133.333333333333,4,1,1,40,0,0
141670,-133.333333333333,4,1,1,70,0,0
141970,-133.333333333333,4,2,2,50,0,0
142720,-133.333333333333,4,1,1,40,0,0
142870,-133.333333333333,4,1,1,70,0,0
143170,-133.333333333333,4,2,2,50,0,0
143320,-133.333333333333,4,1,1,40,0,0
143470,-133.333333333333,4,1,1,70,0,0
143770,-133.333333333333,4,2,2,50,0,0
144070,-133.333333333333,4,2,1,60,0,0
144970,-200,4,2,1,30,0,0
145270,-200,4,2,1,60,0,0
145570,-200,4,2,1,40,0,0
152770,-200,4,2,1,20,0,0
152920,-200,4,2,1,40,0,0
153220,-200,4,2,1,20,0,0
153370,-200,4,2,1,40,0,0
154870,-133.333333333333,4,1,1,40,0,0
155170,-133.333333333333,4,2,1,40,0,0
159670,-133.333333333333,4,1,1,80,0,0
159745,-133.333333333333,4,1,1,30,0,0
160720,-133.333333333333,4,1,1,80,0,0
160795,-133.333333333333,4,1,1,30,0,0
160870,-133.333333333333,4,1,1,80,0,0
160945,-133.333333333333,4,1,1,35,0,0
161920,-133.333333333333,4,1,1,80,0,0
161995,-133.333333333333,4,1,1,35,0,0
162070,-133.333333333333,4,1,1,80,0,0
162145,-133.333333333333,4,1,1,40,0,0
162670,-133.333333333333,4,1,1,90,0,0
162745,-133.333333333333,4,1,1,45,0,0
163270,-133.333333333333,4,1,1,90,0,0
163345,-133.333333333333,4,1,1,50,0,0
164170,-200,4,1,1,50,0,0
164470,-100,4,2,1,10,0,0
164770,300,4,1,1,90,1,1
164770,-83.3333333333333,4,1,1,90,0,1
165670,-83.3333333333333,4,1,7,90,0,1
165820,-83.3333333333333,4,1,1,90,0,1
166870,-83.3333333333333,4,1,7,90,0,1
167020,-83.3333333333333,4,1,1,90,0,1
168070,-83.3333333333333,4,1,7,90,0,1
168220,-83.3333333333333,4,1,1,90,0,1
168670,-83.3333333333333,4,1,7,90,0,1
168820,-83.3333333333333,4,1,1,90,0,1
173620,-100,4,1,1,90,0,1
173770,-100,4,1,1,70,0,0
174370,-83.3333333333333,4,1,1,90,0,1
175270,-83.3333333333333,4,1,7,90,0,1
175420,-83.3333333333333,4,1,1,90,0,1
176470,-83.3333333333333,4,1,7,90,0,1
176620,-83.3333333333333,4,1,1,90,0,1
177670,-83.3333333333333,4,1,7,90,0,1
177820,-83.3333333333333,4,1,1,90,0,1
178270,-83.3333333333333,4,1,7,90,0,1
178420,-83.3333333333333,4,1,1,90,0,1
183970,292.682926829268,4,1,1,80,1,0
188360,-100,4,2,1,90,0,0
188652,285.714285714286,4,1,1,80,1,0
192080,-100,4,1,1,60,0,0
192223,-100,4,1,1,90,0,0
192366,-100,4,1,1,60,0,0
192509,-100,4,1,1,90,0,0
192652,-100,4,1,1,60,0,0
193080,-100,4,1,1,90,0,0
193223,279.06976744186,4,2,1,80,1,0
193223,-166.666666666667,4,2,1,80,0,0
193502,-100,4,1,1,80,0,0
197129,-133.333333333333,4,1,1,80,0,0
197688,-100,4,1,1,80,0,0
202153,272.727272727273,4,1,1,80,1,0
205971,-133.333333333333,4,1,1,80,0,0
206516,292.682926829268,4,1,1,80,1,0
206516,-133.333333333333,4,1,1,80,0,0
207686,315.789473684211,4,1,1,75,1,0
207686,-133.333333333333,4,1,1,75,0,0
208949,342.857142857143,4,1,1,70,1,0
208949,-133.333333333333,4,1,1,70,0,0
209634,375,4,1,1,65,1,0
209634,-133.333333333333,4,1,1,65,0,0
210384,400,4,1,1,60,1,0
210384,-133.333333333333,4,1,1,60,0,0
211184,-133.333333333333,4,2,1,80,0,0

[Colours]
Combo1 : 192,192,192
Combo2 : 64,0,128
Combo3 : 0,232,232
Combo4 : 222,22,28
Combo5 : 108,108,183
Combo6 : 255,255,74

[HitObjects]
127,248,970,1,2,0:0:0
205,218,1120,1,0,0:0:0
284,191,1270,2,0,P|347:188|408:186,1,120.000004577637,2|2,0:0|0:0,0:0:0
262,47,1870,6,0,P|220:33|169:41,2,90.0000034332277,2|2|2,0:0|0:0|0:0,0:0:0
211,115,2470,2,0,P|202:187,1,60.0000022888184
121,157,2770,2,0,P|112:229,1,60.0000022888184,2|0,0:0|0:0,0:0:0
86,360,3070,6,0,P|131:364|175:343,2,90.0000034332277,2|2|2,0:0|0:0|0:0,0:0:0
141,271,3670,2,0,P|207:262,1,60.0000022888184
256,325,3970,2,0,P|322:316,1,60.0000022888184,2|0,0:0|0:0,0:0:0
392,349,4270,5,2,0:0:0
448,236,4495,1,2,0:0:0
346,161,4720,1,2,0:0:0
441,132,4870,5,2,0:0:0
505,292,5095,1,2,0:0:0
334,270,5320,1,2,0:0:0
201,283,5470,2,0,P|131:302,1,60.0000022888184,2|0,0:0|0:0,0:0:0
70,254,5770,2,0,P|0:273,1,60.0000022888184,2|0,0:0|0:0,0:0:0
91,113,6070,5,0,0:0:0
136,97,6220,1,0,0:0:0
183,105,6370,1,0,0:0:0
215,140,6520,1,0,0:0:0
317,110,6670,5,4,0:0:0
317,110,7270,5,2,0:0:0
281,179,7420,1,0,0:0:0
281,256,7570,1,0,0:0:0
329,317,7720,1,0,0:0:0
441,275,7870,5,4,0:0:0
441,275,8470,5,2,0:0:0
414,361,8620,1,0,0:0:0
324,357,8770,1,0,0:0:0
297,271,8920,1,2,0:0:0
371,220,9070,2,0,P|376:153,1,60.0000022888184,2|0,0:0|0:0,0:0:0
299,90,9370,2,0,P|294:149,1,60.0000022888184,2|0,0:0|0:0,0:0:0
229,213,9670,5,2,0:0:0
385,67,9895,1,2,0:0:0
178,72,10120,1,0,0:0:0
178,72,10270,2,0,P|103:68,1,60.0000022888184,2|0,0:0|0:0,0:0:0
56,163,10570,6,0,P|145:155,1,80
244,226,10870,5,4,0:0:0
342,144,11020,1,0,0:0:0
364,270,11170,1,8,0:0:0
379,268,11245,1,0,0:0:0
394,266,11320,1,0,0:0:0
409,264,11395,1,0,0:0:0
424,262,11470,2,0,P|505:251,1,80
390,371,11770,5,8,0:0:0
362,375,11845,1,0,0:0:0
334,371,11920,1,0,0:0:0
308,358,11995,1,0,0:0:0
287,338,12070,2,0,P|193:328,1,80
108,264,12370,5,8,0:0:0
109,267,12445,1,0,0:0:0
110,270,12520,1,0,0:0:0
111,273,12595,1,0,0:0:0
112,276,12670,1,0,0:0:0
12,209,12820,1,0,0:0:0
113,147,12970,2,0,P|152:155|183:189,1,80,8|0,0:0|0:0,0:0:0
245,221,13195,6,0,P|262:173,1,40,0|0,0:0|0:0,0:0:0
295,58,13420,1,0,0:0:0
375,153,13570,1,8,0:0:0
379,168,13645,1,0,0:0:0
383,183,13720,1,0,0:0:0
387,198,13795,1,0,0:0:0
391,213,13870,2,0,P|415:302,1,80
451,111,14170,5,8,0:0:0
440,89,14245,1,0,0:0:0
421,73,14320,1,0,0:0:0
398,65,14395,1,0,0:0:0
374,64,14470,2,0,P|337:67|297:95,1,80
245,221,14770,5,0,0:0:0
244,224,14845,1,0,0:0:0
243,227,14920,1,0,0:0:0
242,230,14995,1,0,0:0:0
241,233,15070,2,0,P|230:271,2,26.6666666666667
160,280,15270,6,0,P|81:272,1,53.3333333333333,0|0,0:0|0:0,0:0:0
83,192,15470,6,0,P|136:197,1,53.3333333333333,0|0,0:0|0:0,0:0:0
236,132,15670,5,4,0:0:0
331,218,15820,1,0,0:0:0
275,322,15970,1,8,0:0:0
254,334,16045,1,0,0:0:0
231,341,16120,1,0,0:0:0
207,341,16195,1,0,0:0:0
183,342,16270,2,0,P|90:333,1,80
6,164,16570,5,8,0:0:0
22,136,16645,1,0,0:0:0
47,116,16720,1,0,0:0:0
77,106,16795,1,0,0:0:0
108,104,16870,2,0,P|206:110,1,80,0|0,0:0|0:0,0:0:0
327,55,17170,5,8,0:0:0
327,55,17245,1,0,0:0:0
327,55,17320,1,0,0:0:0
327,55,17395,1,0,0:0:0
327,55,17470,1,0,0:0:0
420,185,17620,1,0,0:0:0
259,192,17770,2,0,P|179:187,1,80,8|8,0:0|0:0,0:0:0
132,244,17995,6,0,P|156:291,1,40,0|4,0:0|0:0,0:0:0
315,367,18270,1,0,0:0:0
485,305,18470,1,0,0:0:0
208,326,18670,6,0,P|237:317,2,26.6666666666667,4|0|0,0:0|0:0|0:0,0:0:0
311,289,18870,2,0,P|381:262,2,53.3333333333333,0|0|0,0:0|0:0|0:0,0:0:0
222,186,19270,6,0,P|186:176,2,26.6666666666667,4|0|0,0:0|0:0|0:0,0:0:0
123,153,19470,2,0,P|55:131,2,53.3333333333333
256,48,19870,5,4,0:0:0
256,48,20170,5,2,0:0:0
338,65,20320,1,0,0:0:0
421,57,20470,2,0,P|499:48,1,60.0000022888184,2|2,0:0|0:0,0:0:0
371,147,20770,2,0,P|436:155,1,60.0000022888184,8|2,0:0|0:0,0:0:0
490,214,21070,2,0,P|474:282|481:345,1,120.000004577637,0|8,0:0|0:0,0:0:0
409,380,21520,1,0,0:0:0
328,357,21670,6,0,P|256:355,1,60.0000022888184,2|2,0:0|0:0,0:0:0
194,262,21970,2,0,P|253:263,1,60.0000022888184,8|2,0:0|0:0,0:0:0
156,348,22270,2,0,P|100:374|29:363,1,120.000004577637,0|8,0:0|0:0,0:0:0
0,296,22720,1,2,0:0:0
56,233,22870,6,0,P|62:161,1,60.0000022888184,2|2,0:0|0:0,0:0:0
144,179,23170,2,0,P|138:107,1,60.0000022888184,8|2,0:0|0:0,0:0:0
210,235,23470,2,0,P|263:244|320:215,1,120.000004577637,0|8,0:0|0:0,0:0:0
367,145,23920,1,2,0:0:0
372,61,24070,6,0,P|443:49,1,60.0000022888184,2|2,0:0|0:0,0:0:0
453,163,24370,2,0,P|524:151,1,60.0000022888184,8|2,0:0|0:0,0:0:0
396,237,24670,1,0,0:0:0
314,215,24820,6,0,P|234:211,1,60.0000022888184,0|8,1:0|0:0,0:0:0
192,325,25120,1,0,1:0:0
255,379,25270,6,0,P|314:381,1,60.0000022888184,2|2,1:0|0:0,0:0:0
380,327,25570,2,0,P|458:322,1,60.0000022888184,8|2,0:0|0:0,0:0:0
509,276,25870,2,0,P|521:218|500:159,1,120.000004577637,0|8,0:0|0:0,0:0:0
428,120,26320,1,2,0:0:0
349,151,26470,6,0,P|261:149,1,60.0000022888184,2|2,0:0|0:0,0:0:0
182,56,26770,2,0,P|241:57,1,60.0000022888184,8|0,0:0|0:0,0:0:0
137,138,27070,2,0,P|80:162|7:146,1,120.000004577637,0|8,0:0|0:0,0:0:0
74,79,27520,1,2,0:0:0
63,242,27670,6,0,P|54:307,1,60.0000022888184,2|2,0:0|0:0,0:0:0
138,345,27970,2,0,P|142:272,1,60.0000022888184,8|2,0:0|0:0,0:0:0
223,194,28270,2,0,P|232:258,1,60.0000022888184,0|2,0:0|0:0,0:0:0
324,273,28570,2,0,P|307:201,1,60.0000022888184,8|2,0:0|0:0,0:0:0
351,140,28870,5,2,0:0:0
429,111,29020,1,0,0:0:0
500,154,29170,1,8,0:0:0
504,237,29320,1,2,0:0:0
439,291,29470,5,0,0:0:0
409,292,29545,1,0,0:0:0
380,301,29620,1,0,0:0:0
360,323,29695,1,0,0:0:0
346,349,29770,2,0,P|259:364,1,60.0000022888184
165,317,30070,5,4,0:0:0
255,226,30220,1,0,0:0:0
129,201,30370,1,8,0:0:0
124,177,30445,1,0,0:0:0
118,153,30520,1,0,0:0:0
112,129,30595,1,0,0:0:0
106,105,30670,1,0,0:0:0
17,181,30820,1,0,0:0:0
64,278,30970,5,8,0:0:0
90,296,31045,1,0,0:0:0
121,301,31120,1,0,0:0:0
152,299,31195,1,0,0:0:0
182,290,31270,1,0,0:0:0
266,216,31420,1,0,0:0:0
365,282,31570,5,8,0:0:0
365,282,31645,1,0,0:0:0
365,282,31720,1,0,0:0:0
365,282,31795,1,0,0:0:0
365,282,31870,1,0,0:0:0
241,351,32020,1,0,0:0:0
184,211,32170,2,0,P|200:163|242:138,1,80,8|0,0:0|0:0,0:0:0
295,142,32395,6,0,P|355:154,1,40
469,196,32620,1,0,0:0:0
440,35,32770,1,8,0:0:0
416,32,32845,1,0,0:0:0
392,29,32920,1,0,0:0:0
368,26,32995,1,0,0:0:0
344,23,33070,1,0,0:0:0
208,90,33220,1,0,0:0:0
278,221,33370,5,8,0:0:0
309,224,33445,1,0,0:0:0
339,215,33520,1,0,0:0:0
364,195,33595,1,0,0:0:0
380,167,33670,1,0,0:0:0
512,119,33820,1,0,0:0:0
491,256,33970,5,8,0:0:0
490,259,34045,1,0,0:0:0
489,262,34120,1,0,0:0:0
488,265,34195,1,0,0:0:0
487,268,34270,2,0,P|472:309,2,26.6666666666667
423,364,34470,6,0,P|356:360,1,53.3333333333333,0|0,0:0|0:0,0:0:0
297,307,34670,6,0,P|230:303,1,53.3333333333333
150,364,34870,5,4,0:0:0
56,290,35020,1,0,0:0:0
168,238,35170,1,8,0:0:0
196,209,35245,1,0,0:0:0
216,174,35320,1,0,0:0:0
218,134,35395,1,0,0:0:0
207,95,35470,2,0,P|266:154,1,80,0|0,0:0|0:0,0:0:0
111,109,35770,5,8,0:0:0
111,69,35845,1,0,0:0:0
127,32,35920,1,0,0:0:0
162,13,35995,1,0,0:0:0
201,11,36070,2,0,P|296:20,1,80,0|0,0:0|0:0,0:0:0
409,31,36370,5,8,0:0:0
412,30,36445,1,0,0:0:0
415,29,36520,1,0,0:0:0
418,28,36595,1,0,0:0:0
421,27,36670,1,0,0:0:0
472,167,36820,1,0,0:0:0
318,135,36970,2,0,P|223:151,1,80,8|0,0:0|0:0,0:0:0
269,220,37195,6,0,P|323:229,1,40,0|4,0:0|0:0,0:0:0
352,378,37470,1,0,0:0:0
441,259,37670,1,0,0:0:0
275,349,37870,6,0,P|232:362,2,26.6666666666667
324,281,38070,2,0,P|390:258,2,53.3333333333333
66,290,38470,6,0,P|18:282,2,26.6666666666667,4|0|0,0:0|0:0|0:0,0:0:0
147,279,38670,2,0,P|213:256,2,53.3333333333333
84,157,39070,5,4,0:0:0
84,157,39370,5,2,0:0:0
20,101,39520,1,0,0:0:0
98,70,39670,2,0,P|180:65,1,60.0000022888184,2|2,1:0|0:0,0:0:0
244,107,39970,2,0,P|326:102,1,60.0000022888184,8|2,1:0|0:0,0:0:0
271,193,40270,2,0,P|216:215|143:199,1,120.000004577637,0|8,1:0|0:0,0:0:0
79,240,40720,1,0,0:0:0
109,318,40870,6,0,P|120:388,1,60.0000022888184,2|2,1:0|0:0,0:0:0
221,307,41170,2,0,P|220:245,1,60.0000022888184,8|2,1:0|0:0,0:0:0
318,344,41470,2,0,P|374:364|438:353,1,120.000004577637,0|8,1:0|1:0,0:0:0
488,292,41920,1,0,0:0:0
431,229,42070,6,0,P|348:235,1,60.0000022888184,2|2,1:0|0:0,0:0:0
491,139,42370,2,0,P|408:145,1,60.0000022888184,8|2,1:0|0:0,0:0:0
347,153,42670,2,0,P|285:160|230:126,1,120.000004577637,0|8,1:0|0:0,0:0:0
209,59,43120,1,0,0:0:0
135,85,43270,6,0,P|57:88,1,60.0000022888184,2|2,1:0|0:0,0:0:0
147,204,43570,2,0,P|209:195,1,60.0000022888184,8|2,1:0|0:0,0:0:0
270,301,43870,5,8,1:0:0
166,362,44020,2,0,P|81:353,1,60.0000022888184,0|8,0:0|1:0,0:0:0
43,239,44320,1,8,0:0:0
113,193,44470,6,0,P|184:202,1,60.0000022888184,4|2,1:2|0:0,0:0:0
231,140,44770,2,0,P|302:149,1,60.0000022888184,8|2,1:0|0:0,0:0:0
360,195,45070,2,0,P|413:167|487:172,1,120.000004577637,0|8,1:0|0:0,0:0:0
462,251,45520,1,0,0:0:0
393,299,45670,6,0,P|317:290,1,60.0000022888184,2|2,1:0|0:0,0:0:0
224,371,45970,2,0,P|283:363,1,60.0000022888184,8|2,1:0|0:0,0:0:0
262,236,46270,1,0,1:0:0
182,262,46420,1,2,0:0:0
104,230,46570,2,0,P|40:226,1,60.0000022888184,8|2,1:0|0:0,0:0:0
5,151,46870,5,0,0:0:0
17,137,46945,1,0,0:0:0
32,128,47020,1,0,0:0:0
49,122,47095,1,0,0:0:0
66,120,47170,2,0,P|111:122,3,30.0000011444092,8|0|0|0,0:0|0:0|0:0|0:0,0:0:0
136,113,47470,5,0,0:0:0
153,116,47545,1,0,0:0:0
170,114,47620,1,0,0:0:0
187,110,47695,1,0,0:0:0
203,103,47770,2,0,P|227:65,3,30.0000011444092,8|0|0|0,0:0|0:0|0:0|0:0,0:0:0
227,127,48070,5,0,0:0:0
239,147,48145,1,0,0:0:0
257,162,48220,1,0,0:0:0
278,173,48295,1,0,0:0:0
301,178,48370,1,8,0:0:0
324,182,48445,1,0,0:0:0
347,180,48520,1,0,0:0:0
370,173,48595,1,0,0:0:0
391,162,48670,1,8,0:0:0
391,162,48970,5,2,0:0:0
462,192,49120,1,0,0:0:0
494,263,49270,2,0,P|477:347|385:377,1,180.000006866455,4|0,0:0|0:0,0:0:0
323,349,49870,2,0,P|311:220,1,120.000004577637,8|0,0:0|0:0,0:0:0
323,349,50470,5,0,0:0:0
251,318,50620,1,0,0:0:0
173,326,50770,1,0,0:0:0
105,365,50920,2,0,P|29:357,1,60.0000022888184,0|8,0:0|0:0,0:0:0
105,365,51370,5,0,0:0:0
109,287,51520,1,0,0:0:0
115,209,51670,2,0,P|120:104,2,90.0000034332277
182,249,52270,1,0,0:0:0
257,267,52420,1,0,0:0:0
329,239,52570,2,0,P|394:235,1,60.0000022888184
462,259,52870,5,0,0:0:0
393,118,53170,1,0,0:0:0
393,118,53320,1,0,0:0:0
318,142,53470,2,0,P|194:170,1,120.000004577637,8|0,0:0|0:0,0:0:0
115,340,54070,6,0,P|167:373|232:353,1,120.000004577637,0|2,0:0|0:0,0:0:0
280,310,54520,1,0,0:0:0
280,310,54670,2,0,P|418:322,1,120.000004577637,8|0,0:0|0:0,0:0:0
280,310,55270,5,0,0:0:0
237,244,55420,1,0,0:0:0
261,170,55570,1,2,0:0:0
327,129,55720,2,0,P|323:52,1,60.0000022888184,0|8,0:0|0:0,0:0:0
327,129,56170,5,0,0:0:0
404,140,56320,1,0,0:0:0
460,193,56470,2,0,P|466:296,2,90.0000034332277,0|2|0,0:0|0:0|0:0,0:0:0
410,132,57070,1,8,0:0:0
260,176,57370,1,0,0:0:0
131,87,57670,6,0,P|-8:102,1,120.000004577637,0|2,0:0|0:0,0:0:0
128,166,58120,1,0,0:0:0
128,166,58270,2,0,P|-11:181,1,120.000004577637,8|0,0:0|0:0,0:0:0
128,166,58870,6,0,P|144:231,1,60.0000022888184,2|0,0:0|0:0,0:0:0
77,345,59170,2,0,P|125:298,1,60.0000022888184,10|0,0:0|0:0,0:0:0
258,301,59470,2,0,P|193:282,1,60.0000022888184,2|0,0:0|0:0,0:0:0
280,169,59770,2,0,P|215:150,1,60.0000022888184,10|0,0:0|0:0,0:0:0
322,244,60070,6,0,P|379:260,1,60.0000022888184,2|0,0:0|0:0,0:0:0
512,192,60370,2,0,P|468:233,1,60.0000022888184,10|0,0:0|0:0,0:0:0
462,381,60670,2,0,P|447:322,1,60.0000022888184,2|0,0:0|0:0,0:0:0
404,164,60970,2,0,P|389:105,1,60.0000022888184,10|0,0:0|0:0,0:0:0
404,164,61270,5,2,0:0:0
326,153,61420,1,0,0:0:0
249,138,61570,2,0,P|171:126,1,60.0000022888184,10|0,0:0|0:0,0:0:0
273,221,61870,5,2,0:0:0
195,234,62020,1,0,0:0:0
117,244,62170,2,0,P|39:256,1,60.0000022888184,10|0,0:0|0:0,0:0:0
153,351,62470,6,0,P|224:356,1,60.0000022888184,2|0,0:0|0:0,0:0:0
270,302,62770,1,10,0:0:0
333,347,62920,2,0,P|390:324|465:334,1,120.000004577637
503,273,63370,1,10,0:0:0
430,244,63520,1,2,0:0:0
490,195,63670,5,4,0:0:0
335,135,63820,1,0,0:0:0
260,156,63970,6,0,P|201:171,1,60.0000022888184,10|0,0:0|0:0,0:0:0
277,76,64270,1,2,0:0:0
353,62,64420,1,0,0:0:0
411,113,64570,1,10,0:0:0
335,135,64720,5,0,0:0:0
216,249,64870,1,4,0:0:0
136,95,65020,1,0,0:0:0
81,150,65170,6,0,P|41:207,1,60.0000022888184,10|0,0:0|0:0,0:0:0
153,302,65470,1,2,0:0:0
225,329,65620,1,0,0:0:0
291,287,65770,5,2,0:0:0
212,155,65920,1,0,0:0:0
362,113,66070,2,0,P|404:110,4,30.0000011444092,4|0|0|0|0,0:0|0:0|0:0|0:0|0:0,0:0:0
307,206,66520,5,0,0:0:0
449,233,66670,2,0,P|484:239,4,30.0000011444092,0|0|0|0|0,0:0|0:0|0:0|0:0|0:0,0:0:0
335,346,67120,1,0,0:0:0
234,233,67270,5,4,0:0:0
234,233,68170,2,0,P|149:250,1,60.0000022888184,2|0,0:0|0:0,0:0:0
35,265,68470,6,0,P|43:161,1,95.9999970703126,4|2,0:0|0:0,0:0:0
149,47,68770,2,0,P|156:142,1,95.9999970703126,8|0,0:0|0:0,0:0:0
258,208,69070,2,0,P|313:213|356:202,1,95.9999970703126,0|0,0:0|0:0,0:0:0
372,176,69295,2,0,P|522:186,1,143.999995605469,2|2,0:0|0:0,0:0:0
436,284,69670,5,0,0:0:0
362,359,69820,1,2,0:0:0
261,327,69970,2,0,P|206:322|163:333,1,95.9999970703126,8|2,0:0|0:0,0:0:0
20,229,70270,2,0,P|72:212|107:185,1,95.9999970703126
112,155,70495,2,0,P|253:105,1,143.999995605469,2|0,0:0|0:0,0:0:0
145,38,70870,5,0,0:0:0
20,152,71020,1,2,0:0:0
40,52,71170,1,8,0:0:0
112,200,71320,1,2,0:0:0
192,128,71470,6,0,P|237:147|293:147,1,95.9999970703126
300,120,71695,2,0,P|348:264,1,143.999995605469,2|0,0:0|0:0,0:0:0
433,363,72070,6,0,P|388:382|332:382,1,95.9999970703126,0|0,0:0|0:0,0:0:0
312,366,72295,2,0,P|129:351,1,143.999995605469,2|0,0:0|0:0,0:0:0
97,282,72670,6,0,P|43:275,2,31.9999990234375,8|0|0,0:0|0:0|0:0,0:0:0
128,272,72870,6,0,P|143:238|135:202,1,63.9999980468751,0|8,0:0|0:0,0:0:0
132,184,73070,6,0,P|112:160|76:152,1,63.9999980468751,0|0,0:0|0:0,0:0:0
12,168,73270,6,0,P|1:68,2,95.9999970703126,4|2|8,0:0|0:0|0:0,0:0:0
128,80,73720,1,2,0:0:0
242,150,73870,2,0,P|291:157|343:155,1,95.9999970703126,0|2,0:0|0:0,0:0:0
456,52,74170,2,0,P|407:45|355:47,1,95.9999970703126,8|2,0:0|0:0,0:0:0
314,244,74470,5,0,0:0:0
401,303,74620,1,2,0:0:0
476,228,74770,2,0,P|463:130,1,95.9999970703126,8|2,0:0|0:0,0:0:0
355,64,75070,2,0,P|353:161,1,95.9999970703126,0|2,0:0|0:0,0:0:0
226,230,75370,2,0,P|224:327,1,95.9999970703126,8|2,0:0|0:0,0:0:0
83,369,75670,5,0,0:0:0
16,286,75820,1,2,0:0:0
73,197,75970,1,8,0:0:0
173,230,76120,2,0,P|262:237|374:237,1,191.999994140625,2|2,0:0|0:0,0:0:0
444,161,76570,1,8,0:0:0
444,161,76720,1,2,0:0:0
444,161,76870,5,4,0:0:0
249,78,77095,1,2,0:0:0
395,90,77320,2,0,P|440:84,3,26.6666666666667,0|0|0|0,0:0|0:0|0:0|0:0,0:0:0
328,156,77620,5,2,0:0:0
305,172,77695,1,0,0:0:0
278,180,77770,1,8,0:0:0
250,182,77845,1,0,0:0:0
223,173,77920,2,0,P|178:176,2,26.6666666666667
195,250,78070,6,0,P|149:237|122:194,1,95.9999970703126,4|2,0:0|0:0,0:0:0
30,80,78370,2,0,P|13:191,1,95.9999970703126,8|2,0:0|0:0,0:0:0
84,383,78670,2,0,P|78:275,1,95.9999970703126,0|0,0:0|0:0,0:0:0
106,268,78895,2,0,P|173:251|251:262,1,143.999995605469,2|0,0:0|0:0,0:0:0
357,351,79270,6,0,P|396:328|411:277,1,95.9999970703126,0|2,0:0|0:0,0:0:0
334,99,79570,2,0,P|331:201,1,95.9999970703126,8|2,0:0|0:0,0:0:0
469,35,79870,2,0,P|471:130,1,95.9999970703126,0|0,0:0|0:0,0:0:0
444,151,80095,2,0,P|377:168|299:157,1,143.999995605469,2|0,0:0|0:0,0:0:0
217,96,80470,5,0,0:0:0
139,167,80620,1,2,0:0:0
178,264,80770,1,8,0:0:0
282,254,80920,1,2,0:0:0
300,150,81070,6,0,P|311:50,1,95.9999970703126
285,31,81295,2,0,P|220:9|147:31,1,143.999995605469,2|0,0:0|0:0,0:0:0
15,171,81670,6,0,P|120:183,1,95.9999970703126,0|2,0:0|0:0,0:0:0
139,167,81895,2,0,P|163:222|154:312,1,143.999995605469,2|0,0:0|0:0,0:0:0
31,340,82270,6,0,P|-13:347,2,31.9999990234375
54,302,82470,6,0,P|84:284|120:284,1,63.9999980468751,0|8,0:0|0:0,0:0:0
136,284,82670,6,0,P|170:291|196:315,1,63.9999980468751,0|0,0:0|0:0,0:0:0
236,368,82870,6,0,P|333:375,2,95.9999970703126,4|2|8,0:0|0:0|0:0,0:0:0
256,244,83320,1,2,0:0:0
357,272,83470,2,0,P|404:274|448:244,1,95.9999970703126,0|2,0:0|0:0,0:0:0
480,96,83770,2,0,P|433:94|389:124,1,95.9999970703126,8|2,0:0|0:0,0:0:0
288,316,84070,5,0,0:0:0
188,284,84220,1,2,0:0:0
208,180,84370,2,0,P|200:83,1,95.9999970703126,8|2,0:0|0:0,0:0:0
40,200,84670,2,0,P|56:299,1,95.9999970703126,0|2,0:0|0:0,0:0:0
188,375,84970,2,0,P|236:358|293:366,1,95.9999970703126,8|2,0:0|0:0,0:0:0
467,266,85270,6,0,P|415:266|375:239,1,95.9999970703126,2|2,0:0|0:0,0:0:0
435,177,85570,1,8,0:0:0
293,260,85720,2,0,P|275:211|286:164,1,95.9999970703126,2|0,0:0|0:0,0:0:0
442,158,86020,1,2,0:0:0
231,88,86170,2,0,P|329:70,1,95.9999970703126,10|2,0:0|0:0,0:0:0
450,137,86470,5,4,0:0:0
324,348,86695,1,0,0:0:0
161,174,86920,2,0,P|120:169,3,26.6666666666667
265,235,87220,5,0,0:0:0
268,236,87295,1,0,0:0:0
271,237,87370,1,0,0:0:0
274,238,87445,1,0,0:0:0
276,240,87520,2,0,P|322:236,3,26.6666666666667
253,334,97270,6,0,P|258:236,1,80,0|4,0:0|0:0,0:0:0
261,50,97720,5,2,0:0:0
358,99,97870,2,0,P|391:96|422:107,1,60.0000022888184,0|2,0:0|0:0,0:0:0
508,200,98170,2,0,P|475:203|444:192,1,60.0000022888184,8|0,0:0|0:0,0:0:0
371,184,98470,5,0,0:0:0
299,214,98620,1,2,0:0:0
273,287,98770,1,8,0:0:0
308,356,98920,1,2,0:0:0
185,335,99070,2,0,P|62:331,1,120.000004577637,0|8,0:0|0:0,0:0:0
16,192,99520,5,0,0:0:0
16,192,99670,2,0,P|135:195,1,120.000004577637,0|8,0:0|0:0,0:0:0
214,197,100120,1,2,0:0:0
275,244,100270,1,0,0:0:0
276,321,100420,2,0,P|265:386,2,60.0000022888184,2|8|0,0:0|0:0|0:0,0:0:0
348,290,100870,5,0,0:0:0
418,256,101020,1,2,0:0:0
440,181,101170,1,8,0:0:0
423,104,101320,1,2,0:0:0
355,64,101470,6,0,P|285:72,2,40.000001525879,0|0|0,0:0|0:0|0:0,0:0:0
247,114,101770,6,0,P|177:122,2,40.000001525879,0|0|0,0:0|0:0|0:0,0:0:0
320,149,102070,6,0,P|305:276,1,120.000004577637,4|8,0:0|0:0,0:0:0
235,359,102520,1,2,0:0:0
147,300,102670,2,0,P|110:301|84:309,1,60.0000022888184,0|2,0:0|0:0,0:0:0
208,221,102970,2,0,P|245:220|271:212,1,60.0000022888184,8|0,0:0|0:0,0:0:0
320,149,103270,5,0,0:0:0
310,65,103420,1,2,0:0:0
231,34,103570,1,8,0:0:0
235,117,103720,1,2,0:0:0
389,98,103870,2,0,P|532:107,1,120.000004577637,0|8,0:0|0:0,0:0:0
494,214,104320,1,0,0:0:0
411,293,104470,5,4,0:0:0
258,227,104670,1,0,0:0:0
277,379,104870,1,0,0:0:0
316,297,105070,6,0,P|351:289,2,20.0000007629395
237,313,105270,2,0,P|179:322,2,40.000001525879
258,227,105670,6,0,P|290:213,2,20.0000007629395
177,243,105870,2,0,P|120:225,2,40.000001525879
194,166,106270,6,0,P|225:142|225:142|254:126|254:126|298:171|358:162,1,180.000006866455,4|0,0:0|0:0,0:0:0
441,197,106870,5,4,0:0:0
503,124,107020,1,0,0:0:0
443,48,107170,2,0,P|379:37|332:85,1,120,8|0,0:0|0:0,0:0:0
325,94,107470,2,0,P|244:90,1,80,2|0,0:0|0:0,0:0:0
136,135,107770,5,8,0:0:0
114,145,107845,1,0,0:0:0
92,156,107920,1,2,0:0:0
70,167,107995,1,0,0:0:0
48,178,108070,1,0,0:0:0
8,265,108220,1,0,0:0:0
114,347,108370,6,0,P|163:362|231:330,1,120,10|0,0:0|0:0,0:0:0
244,317,108670,2,0,P|252:232,1,80,2|0,0:0|0:0,0:0:0
417,276,108970,2,0,P|424:196,1,80,8|2,0:0|0:0,0:0:0
460,170,109195,6,0,P|504:158,1,40,0|2,0:0|0:0,0:0:0
510,273,109420,1,2,0:0:0
447,363,109570,1,8,0:0:0
419,367,109645,1,0,0:0:0
391,363,109720,1,0,0:0:0
366,348,109795,1,0,0:0:0
347,326,109870,2,0,P|253:336,1,80,2|0,0:0|0:0,0:0:0
186,110,110170,5,8,0:0:0
220,98,110245,1,0,0:0:0
254,108,110320,1,2,0:0:0
281,131,110395,1,0,0:0:0
296,163,110470,2,0,P|278:252,1,80,2|0,0:0|0:0,0:0:0
151,352,110770,5,0,0:0:0
147,351,110845,1,0,0:0:0
143,350,110920,1,0,0:0:0
139,349,110995,1,0,0:0:0
135,348,111070,2,0,P|90:334,2,26.6666666666667
57,277,111270,6,0,P|66:208,1,53.3333333333333
139,245,111470,6,0,P|146:193,1,53.3333333333333
214,284,111670,6,0,P|252:297|307:290,1,80,4|0,0:0|0:0,0:0:0
399,240,111970,1,2,0:0:0
406,212,112045,1,0,0:0:0
413,184,112120,1,2,0:0:0
420,156,112195,1,0,0:0:0
427,129,112270,2,0,P|506:106,1,80,2|0,0:0|0:0,0:0:0
336,111,112570,5,2,0:0:0
311,79,112645,1,0,0:0:0
275,60,112720,1,2,0:0:0
235,59,112795,1,0,0:0:0
195,65,112870,2,0,P|94:56,1,80,2|0,0:0|0:0,0:0:0
26,161,113170,5,2,0:0:0
28,164,113245,1,0,0:0:0
30,167,113320,1,2,0:0:0
32,170,113395,1,0,0:0:0
34,173,113470,1,0,0:0:0
120,264,113620,1,2,0:0:0
235,206,113770,2,0,P|342:200,1,80,2|2,0:0|0:0,0:0:0
354,267,113995,6,0,P|300:272,1,40,0|4,0:0|0:0,0:0:0
334,125,114270,1,0,0:0:0
464,184,114470,1,0,0:0:0
416,321,114670,6,0,P|416:348,2,26.6666666666667
385,241,114870,2,0,P|385:173,2,53.3333333333333
261,192,115270,6,0,P|261:165,2,26.6666666666667
217,284,115470,2,0,P|217:352,2,53.3333333333333
94,96,115870,5,4,0:0:0
94,96,116170,5,0,0:0:0
100,119,116245,1,0,0:0:0
106,142,116320,1,0,0:0:0
112,165,116395,1,0,0:0:0
117,186,116470,1,4,1:0:0
201,165,116620,1,2,0:0:0
281,198,116770,2,0,P|347:195,1,60.0000022888184,8|2,1:0|0:0,0:0:0
385,107,117070,2,0,P|250:113,1,120.000004577637,0|8,1:0|1:0,0:0:0
204,245,117520,1,0,0:0:0
278,283,117670,6,0,P|290:361,1,60.0000022888184,2|2,0:0|0:0,0:0:0
378,233,117970,2,0,P|390:311,1,60.0000022888184,8|2,1:0|0:0,0:0:0
429,364,118270,2,0,P|472:324|469:258,1,120.000004577637,0|8,1:0|1:0,0:0:0
373,151,118720,1,0,0:0:0
296,185,118870,6,0,P|219:184,1,60.0000022888184,2|2,1:0|0:0,0:0:0
264,31,119170,2,0,P|187:30,1,60.0000022888184,8|2,1:0|0:0,0:0:0
314,107,119470,2,0,P|187:106,1,120.000004577637,0|8,1:0|1:0,0:0:0
55,170,119920,1,0,0:0:0
95,243,120070,6,0,P|89:311,1,60.0000022888184,2|2,1:0|0:0,0:0:0
218,282,120370,2,0,P|212:350,1,60.0000022888184,8|2,1:0|0:0,0:0:0
187,203,120670,5,8,1:0:0
336,239,120820,2,0,P|330:307,1,60.0000022888184,2|8,0:0|1:0,0:0:0
402,343,121120,1,10,0:0:0
498,238,121270,6,0,P|489:172,1,60.0000022888184,4|2,1:0|0:0,0:0:0
382,110,121570,2,0,P|390:169,1,60.0000022888184,8|2,1:0|0:0,0:0:0
443,31,121870,2,0,P|311:22,1,120.000004577637,0|8,1:0|1:0,0:0:0
222,116,122320,1,0,0:0:0
256,192,122470,6,0,P|320:195,1,60.0000022888184,2|2,1:0|0:0,0:0:0
189,277,122770,2,0,P|129:274,1,60.0000022888184,8|2,1:0|0:0,0:0:0
32,150,123070,1,0,1:0:0
84,84,123220,1,2,0:0:0
162,113,123370,2,0,P|226:116,1,60.0000022888184,8|2,1:0|0:0,0:0:0
293,72,123670,5,0,0:0:0
314,82,123745,1,0,0:0:0
337,88,123820,1,0,0:0:0
360,90,123895,1,0,0:0:0
383,86,123970,2,0,P|423:67,3,30.0000011444092
366,113,124270,5,0,0:0:0
357,135,124345,1,0,0:0:0
352,158,124420,1,0,0:0:0
353,181,124495,1,0,0:0:0
357,204,124570,2,0,P|377:246,3,30.0000011444092
401,188,124870,5,0,0:0:0
427,206,124945,1,0,0:0:0
438,236,125020,1,0,0:0:0
431,267,125095,1,0,0:0:0
410,292,125170,1,0,0:0:0
380,305,125245,1,0,0:0:0
348,296,125320,1,0,0:0:0
323,273,125395,1,0,0:0:0
314,241,125470,1,0,0:0:0
314,241,125770,5,4,0:0:0
237,258,125920,1,0,0:0:0
160,274,126070,2,0,P|59:269|19:196,1,180.000006866455,4|0,0:0|0:0,0:0:0
57,139,126670,2,0,P|187:130,1,120.000004577637,8|0,0:0|0:0,0:0:0
57,139,127270,5,0,0:0:0
115,190,127420,1,0,0:0:0
192,183,127570,1,0,0:0:0
251,132,127720,2,0,P|254:56,1,60.0000022888184,0|8,0:0|0:0,0:0:0
251,132,128170,5,0,0:0:0
294,196,128320,1,0,0:0:0
369,216,128470,2,0,P|477:210,2,90.0000034332277
316,273,129070,1,8,0:0:0
239,289,129220,1,0,0:0:0
166,260,129370,2,0,P|130:255|101:256,1,60.0000022888184,0|0,0:0|0:0,0:0:0
54,313,129670,5,0,0:0:0
250,188,129970,1,0,0:0:0
250,188,130120,1,0,0:0:0
172,178,130270,2,0,P|37:156,1,120.000004577637,8|0,0:0|0:0,0:0:0
232,366,130870,6,0,P|294:375|342:336,1,120.000004577637,0|2,0:0|0:0,0:0:0
354,266,131320,1,0,0:0:0
354,266,131470,2,0,P|489:244,1,120.000004577637,8|0,0:0|0:0,0:0:0
354,266,132070,5,0,0:0:0
307,203,132220,1,0,0:0:0
333,129,132370,1,2,0:0:0
406,104,132520,2,0,P|473:116,1,60.0000022888184,0|8,0:0|0:0,0:0:0
406,104,132970,5,0,0:0:0
350,49,133120,1,0,0:0:0
273,66,133270,2,0,P|173:59,2,90.0000034332277,0|2|0,0:0|0:0|0:0,0:0:0
333,129,133870,1,8,0:0:0
219,236,134170,1,0,0:0:0
325,349,134470,6,0,P|385:368|451:342,1,120.000004577637,0|2,0:0|0:0,0:0:0
380,286,134920,1,0,0:0:0
380,286,135070,2,0,P|432:270|492:289,1,120.000004577637,8|0,0:0|0:0,0:0:0
380,286,135670,6,0,P|351:211,1,60.0000022888184,4|0,0:0|0:0,0:0:0
312,102,135970,2,0,P|261:164,1,60.0000022888184,10|0,0:0|0:0,0:0:0
193,258,136270,2,0,P|272:270,1,60.0000022888184,2|0,0:0|0:0,0:0:0
373,155,136570,2,0,P|452:167,1,60.0000022888184,10|0,0:0|0:0,0:0:0
199,86,136870,6,0,P|129:104,1,60.0000022888184,2|0,0:0|0:0,0:0:0
5,125,137170,2,0,P|55:176,1,60.0000022888184,10|0,0:0|0:0,0:0:0
132,272,137470,2,0,P|151:202,1,60.0000022888184,2|0,0:0|0:0,0:0:0
273,357,137770,2,0,P|253:287,1,60.0000022888184,10|0,0:0|0:0,0:0:0
308,239,138070,5,2,0:0:0
383,220,138220,1,0,0:0:0
459,203,138370,2,0,P|450:138,1,60.0000022888184,10|0,0:0|0:0,0:0:0
366,249,138670,5,2,0:0:0
290,229,138820,1,0,0:0:0
214,209,138970,2,0,P|223:144,1,60.0000022888184,10|0,0:0|0:0,0:0:0
155,52,139270,6,0,P|72:62,1,60.0000022888184,2|0,0:0|0:0,0:0:0
38,113,139570,1,10,0:0:0
103,156,139720,2,0,P|117:211|98:278,1,120.000004577637
43,322,140170,1,10,0:0:0
43,322,140320,1,0,0:0:0
112,357,140470,5,4,0:0:0
258,303,140620,1,0,0:0:0
324,343,140770,2,0,P|387:344,1,60.0000022888184,10|0,0:0|0:0,0:0:0
330,260,141070,5,2,0:0:0
260,223,141220,1,0,0:0:0
188,254,141370,1,10,0:0:0
184,330,141520,5,0,0:0:0
324,184,141670,1,4,0:0:0
424,356,141820,1,0,0:0:0
451,263,141970,6,0,P|456:198,1,60.0000022888184,10|0,0:0|0:0,0:0:0
387,42,142270,1,2,0:0:0
322,86,142420,1,0,0:0:0
244,75,142570,5,10,0:0:0
66,42,142720,1,0,0:0:0
122,175,142870,2,0,P|113:246,1,60.0000022888184,4|0,0:0|0:0,0:0:0
66,42,143320,5,0,0:0:0
150,200,143470,2,0,P|141:271,1,60.0000022888184,4|0,0:0|0:0,0:0:0
66,42,143920,5,0,0:0:0
178,226,144070,1,4,0:0:0
178,226,144970,6,0,P|231:210,1,40,2|0,0:0|0:0,0:0:0
286,183,145270,2,0,P|330:180|371:190,1,80,4|2,0:0|0:0,0:0:0
480,278,145870,2,0,P|491:346,2,60,0|2|0,0:0|0:0|0:0,0:0:0
508,211,146470,2,0,P|495:123,1,80,0|2,0:0|0:0,0:0:0
342,58,147070,6,0,P|362:36|392:21,2,60,0|2|0,0:0|0:0|0:0,0:0:0
274,84,147670,2,0,P|178:79,1,80,0|2,0:0|0:0,0:0:0
0,176,148270,6,0,P|79:180,1,80,0|2,0:0|0:0,0:0:0
139,221,148720,1,0,0:0:0
202,186,148870,5,0,0:0:0
97,110,149095,1,2,0:0:0
68,237,149320,1,0,0:0:0
139,221,149470,2,0,P|131:313,1,80,0|2,0:0|0:0,0:0:0
312,376,150070,6,0,P|352:380|396:364,1,80,0|2,0:0|0:0,0:0:0
444,324,150520,1,0,0:0:0
468,256,150670,1,0,0:0:0
396,272,150820,2,0,P|344:284,1,40
268,216,151120,6,0,P|256:188|272:136,1,80,0|2,0:0|0:0,0:0:0
328,104,151570,5,0,0:0:0
392,140,151720,1,0,0:0:0
384,212,151870,1,0,0:0:0
316,232,152020,1,0,0:0:0
248,208,152170,2,0,P|192:208,1,40,0|2,0:0|0:0,0:0:0
148,248,152470,5,0,0:0:0
32,68,152920,1,0,0:0:0
76,204,153220,2,0,P|68:256,1,40,0|2,0:0|0:0,0:0:0
164,352,153670,5,0,0:0:0
160,168,153895,1,2,0:0:0
0,260,154120,1,0,0:0:0
68,288,154270,5,0,0:0:0
68,288,154870,6,0,P|128:256|196:276,1,120.000004577637,4|2,0:0|0:0,0:0:0
308,328,155470,2,0,P|408:320,2,90.0000034332277,0|2|2,0:0|0:0|0:0,0:0:0
256,260,156070,5,0,0:0:0
420,228,156370,1,2,0:0:0
256,260,156670,2,0,P|264:156,2,90.0000034332277,0|2|2,0:0|0:0|0:0,0:0:0
208,332,157270,5,0,0:0:0
92,196,157570,1,2,0:0:0
212,64,157870,2,0,P|308:52,2,90.0000034332277,0|2|2,0:0|0:0|0:0,0:0:0
136,96,158470,6,0,P|32:92,2,90.0000034332277,0|2|2,0:0|0:0|0:0,0:0:0
204,144,159070,1,0,0:0:0
120,292,159370,1,2,0:0:0
0,176,159670,5,4,0:0:0
68,216,159820,1,0,0:0:0
144,212,159970,1,8,0:0:0
208,168,160120,2,0,P|272:176,1,60.0000022888184
348,112,160420,2,0,P|412:120,1,60.0000022888184,0|8,0:0|0:0,0:0:0
496,256,160720,5,0,0:0:0
376,364,160870,1,4,0:0:0
300,344,161020,5,0,0:0:0
284,268,161170,1,8,0:0:0
332,204,161320,2,0,P|324:144,1,60.0000022888184
160,36,161620,2,0,P|168:96,1,60.0000022888184,0|8,0:0|0:0,0:0:0
52,224,161920,5,0,0:0:0
52,224,162070,2,0,P|0:216,7,30.0000011444092,4|0|0|0|0|0|0|0,0:0|0:0|0:0|0:0|0:0|0:0|0:0|0:0,0:0:0
140,240,162670,2,0,P|169:244,7,30.0000011444092,4|0|0|0|0|0|0|0,0:0|0:0|0:0|0:0|0:0|0:0|0:0|0:0,0:0:0
96,252,163270,5,4,0:0:0
208,164,163420,1,0,0:0:0
208,164,163495,1,0,0:0:0
208,164,163570,1,8,0:0:0
288,284,163720,1,0,0:0:0
352,216,163870,1,8,0:0:0
376,204,163945,1,0,0:0:0
404,200,164020,1,0,0:0:0
432,200,164095,1,0,0:0:0
456,208,164170,2,0,P|472:144,1,60,8|0,0:0|0:0,0:0:0
440,80,164470,6,0,P|384:56|308:84,1,120,2|0,0:0|0:0,0:0:0
304,92,164770,6,0,P|192:88,1,95.9999970703126,4|2,0:0|0:0,0:0:0
24,48,165070,2,0,P|119:44,1,95.9999970703126,8|2,0:0|0:0,0:0:0
176,196,165370,2,0,P|44:184,1,95.9999970703126,0|0,0:0|0:0,0:0:0
52,168,165595,2,0,P|20:236|36:304,1,143.999995605469,2|0,0:0|0:0,0:0:0
184,360,165970,5,0,0:0:0
284,324,166120,1,2,0:0:0
228,232,166270,2,0,P|272:220|324:228,1,95.9999970703126,8|2,0:0|0:0,0:0:0
488,92,166570,2,0,P|440:112|388:108,1,95.9999970703126
380,80,166795,2,0,P|220:68,1,143.999995605469,2|0,0:0|0:0,0:0:0
140,108,167170,5,0,0:0:0
124,212,167320,1,2,0:0:0
228,228,167470,1,8,0:0:0
248,124,167620,1,2,0:0:0
60,156,167770,6,0,P|-40:168,1,95.9999970703126
32,232,167995,2,0,P|192:244,1,143.999995605469,2|0,0:0|0:0,0:0:0
348,352,168370,6,0,P|392:344|456:344,1,95.9999970703126
512,292,168595,2,0,P|464:264|368:264,1,143.999995605469,2|0,0:0|0:0,0:0:0
288,204,168970,6,0,P|252:196,2,31.9999990234375,0|0|0,0:0|0:0|0:0,0:0:0
356,180,169170,6,0,P|376:156|380:120,1,63.9999980468751,0|8,0:0|0:0,0:0:0
324,72,169370,6,0,P|293:66|260:81,1,63.9999980468751,0|0,0:0|0:0,0:0:0
208,132,169570,6,0,P|96:124,2,95.9999970703126,4|2|8,0:0|0:0|0:0,0:0:0
156,224,170020,1,2,0:0:0
56,196,170170,2,0,P|28:156|32:96,1,95.9999970703126,0|2,0:0|0:0,0:0:0
144,12,170470,2,0,P|172:52|168:112,1,95.9999970703126,8|2,0:0|0:0,0:0:0
88,276,170770,5,0,0:0:0
192,300,170920,1,2,0:0:0
244,208,171070,2,0,P|344:204,1,95.9999970703126,8|2,0:0|0:0,0:0:0
472,344,171370,2,0,P|428:344|384:316,1,95.9999970703126,0|2,0:0|0:0,0:0:0
376,132,171670,2,0,P|420:132|464:160,1,95.9999970703126,8|2,0:0|0:0,0:0:0
320,364,171970,5,0,0:0:0
248,288,172120,1,2,0:0:0
324,212,172270,1,8,0:0:0
248,136,172420,2,0,P|320:88|428:88,1,191.999994140625,2|2,0:0|0:0,0:0:0
512,272,172870,2,0,P|400:256,1,95.9999970703126,8|2,0:0|0:0,0:0:0
324,212,173170,5,4,0:0:0
120,180,173395,1,2,0:0:0
232,332,173620,2,0,P|272:340,3,26.6666666666667
168,261,173920,5,2,0:0:0
144,263,173995,1,0,0:0:0
120,266,174070,1,8,0:0:0
96,269,174145,1,0,0:0:0
72,270,174220,2,0,P|32:262,2,26.6666666666667
2,200,174370,6,0,P|14:156|67:131,1,95.9999970703126,4|2,0:0|0:0,0:0:0
216,57,174670,2,0,P|171:68|123:35,1,95.9999970703126,8|2,0:0|0:0,0:0:0
241,170,174970,2,0,P|346:162,1,95.9999970703126,0|0,0:0|0:0,0:0:0
342,134,175195,2,0,P|414:118|476:162,1,143.999995605469,2|0,0:0|0:0,0:0:0
467,318,175570,5,0,0:0:0
376,372,175720,1,2,0:0:0
286,316,175870,2,0,P|187:310,1,95.9999970703126,8|2,0:0|0:0,0:0:0
131,221,176170,2,0,P|143:119,1,95.9999970703126
121,99,176395,2,0,P|46:100|-5:154,1,143.999995605469,2|0,0:0|0:0,0:0:0
3,251,176770,5,0,0:0:0
88,313,176920,1,2,0:0:0
150,227,177070,1,8,0:0:0
69,158,177220,1,2,0:0:0
235,160,177370,6,0,P|351:162,1,95.9999970703126,0|0,0:0|0:0,0:0:0
319,232,177595,2,0,P|392:238|447:199,1,143.999995605469,2|0,0:0|0:0,0:0:0
327,46,177970,6,0,P|225:55,1,95.9999970703126
165,89,178195,2,0,P|126:52|33:58,1,143.999995605469,2|0,0:0|0:0,0:0:0
79,142,178570,6,0,P|86:176,2,31.9999990234375,0|0|0,0:0|0:0|0:0,0:0:0
59,245,178770,6,0,P|93:252|135:237,1,63.9999980468751,0|8,0:0|0:0,0:0:0
169,183,178970,6,0,P|192:208|200:252,1,63.9999980468751,0|0,0:0|0:0,0:0:0
174,308,179170,6,0,P|215:327|267:321,2,95.9999970703126,4|2|8,0:0|0:0|0:0,0:0:0
227,216,179620,1,2,0:0:0
329,241,179770,2,0,P|452:235,1,95.9999970703126,0|2,0:0|0:0,0:0:0
398,98,180070,2,0,P|521:92,1,95.9999970703126,8|2,0:0|0:0,0:0:0
336,158,180370,5,0,0:0:0
271,74,180520,1,2,0:0:0
173,113,180670,2,0,P|77:117,1,95.9999970703126,8|2,0:0|0:0,0:0:0
2,257,180970,2,0,P|47:277|105:259,1,95.9999970703126,0|2,0:0|0:0,0:0:0
273,355,181270,2,0,P|228:335|170:353,1,95.9999970703126,8|0,0:0|0:0,0:0:0
249,235,181570,6,0,P|354:231,1,95.9999970703126,2|2,0:0|0:0,0:0:0
437,180,181870,1,8,0:0:0
262,148,182020,2,0,P|367:144,1,95.9999970703126,2|0,0:0|0:0,0:0:0
450,93,182320,1,2,0:0:0
317,42,182470,2,0,P|273:20|211:27,1,95.9999970703126,10|2,0:0|0:0,0:0:0
138,79,182770,5,4,0:0:0
245,277,182995,1,0,0:0:0
10,251,183220,2,0,P|-29:255,3,31.9999990234375
104,246,183520,5,0,0:0:0
127,221,183595,1,0,0:0:0
155,202,183670,1,0,0:0:0
187,193,183745,1,0,0:0:0
220,188,183820,2,0,P|270:186,2,31.9999990234375
317,227,183970,6,0,P|331:189|314:146,1,80,4|0,0:0|0:0,0:0:0
388,71,184262,1,8,0:0:0
399,68,184335,1,0,0:0:0
410,65,184409,1,0,0:0:0
421,62,184482,1,0,0:0:0
432,60,184555,2,0,P|522:37,1,80,0|0,0:0|0:0,0:0:0
384,177,184848,5,8,0:0:0
395,179,184921,1,0,0:0:0
406,180,184994,1,0,0:0:0
417,182,185067,1,0,0:0:0
428,184,185140,2,0,P|520:198,1,80
383,294,185433,5,8,0:0:0
366,305,185506,1,0,0:0:0
346,310,185579,1,0,0:0:0
326,308,185652,1,0,0:0:0
306,302,185726,1,0,0:0:0
246,211,185872,1,0,0:0:0
158,270,186018,2,0,P|43:277,1,80,8|0,0:0|0:0,0:0:0
74,204,186238,6,0,P|9:211,1,40,0|0,0:0|0:0,0:0:0
85,355,186457,1,0,0:0:0
198,298,186604,1,8,0:0:0
202,287,186677,1,0,0:0:0
203,275,186750,1,0,0:0:0
203,263,186823,1,0,0:0:0
200,251,186896,2,0,P|181:160,1,80
314,76,187189,5,8,0:0:0
310,87,187262,1,0,0:0:0
309,99,187335,1,0,0:0:0
309,111,187408,1,0,0:0:0
312,123,187481,2,0,P|331:214,1,80
420,283,187774,5,8,0:0:0
436,282,187848,1,0,0:0:0
450,276,187921,1,0,0:0:0
464,270,187994,1,0,0:0:0
476,260,188067,2,0,P|521:250,2,26.6666666666667
420,202,188262,6,0,P|420:170|434:143,1,53.3333333333333,0|0,0:0|0:0,0:0:0
481,99,188409,6,2,P|485:58,4,26.6666666666667
428,150,188652,6,0,P|385:162|341:151,1,80
242,102,188937,1,8,0:0:0
229,100,189009,1,0,0:0:0
217,99,189080,1,0,0:0:0
204,97,189152,1,0,0:0:0
192,96,189223,2,0,P|89:80,1,80
240,195,189509,5,8,0:0:0
227,198,189581,1,0,0:0:0
216,203,189652,1,0,0:0:0
203,207,189724,1,0,0:0:0
192,211,189795,2,0,P|92:241,1,80
108,351,190080,5,8,0:0:0
87,351,190152,1,0,0:0:0
67,349,190223,1,0,0:0:0
49,338,190294,1,0,0:0:0
37,321,190366,1,0,0:0:0
97,158,190509,1,0,0:0:0
204,287,190652,1,0,0:0:0
335,229,190794,2,0,P|383:229,1,40
411,210,190937,5,4,0:0:0
293,125,191128,1,0,0:0:0
422,75,191318,1,8,0:0:0
477,266,191509,6,0,P|492:292,2,26.6666666666667
485,186,191699,2,0,P|520:128,2,53.3333333333333
335,229,192080,2,0,P|283:226,1,40
220,218,192223,6,0,P|184:214,3,26.6666666666667
334,311,192509,6,0,P|348:344,3,26.6666666666667,0|0|0|0,0:0|0:0|0:0|0:0,0:0:0
349,152,192794,6,0,P|370:122,3,26.6666666666667,0|0|0|0,0:0|0:0|0:0|0:0,0:0:0
225,299,193080,6,0,P|209:320,2,26.6666666666667
134,333,193223,2,0,P|85:314|24:316,1,95.9999970703126,4|8,0:0|0:0,0:0:0
13,229,193641,5,2,0:0:0
85,179,193781,2,0,P|171:174,1,80,2|2,0:0|0:0,0:0:0
258,46,194060,2,0,P|178:50,1,80,8|2,0:0|0:0,0:0:0
308,118,194339,5,0,0:0:0
392,141,194478,1,2,0:0:0
474,110,194618,1,8,0:0:0
487,23,194757,1,2,0:0:0
395,21,194897,2,0,P|392:151,1,120,2|0,0:0|0:0,0:0:0
355,202,195176,2,0,P|316:213|266:207,1,80,8|0,0:0|0:0,0:0:0
156,196,195455,6,0,P|72:188|4:240,1,160,2|8,0:0|0:0,0:0:0
4,316,195874,1,2,0:0:0
80,360,196013,2,0,P|164:356,1,80,2|2,0:0|0:0,0:0:0
248,280,196292,2,0,P|332:276,1,80,8|2,0:0|0:0,0:0:0
436,312,196571,5,2,0:0:0
400,176,196711,2,0,P|320:179,1,80,0|8,0:0|0:0,0:0:0
170,208,196990,1,2,0:0:0
219,81,197129,6,0,P|223:45,2,20.0000007629395
139,94,197316,6,0,P|99:94,1,40.000001525879,0|0,0:0|0:0,0:0:0
64,158,197502,6,0,P|24:158,1,40.000001525879,0|0,0:0|0:0,0:0:0
81,249,197688,6,0,P|122:301|222:297,1,160,4|8,0:0|0:0,0:0:0
284,256,198106,1,2,0:0:0
372,260,198246,2,0,P|471:269,1,80,2|2,0:0|0:0,0:0:0
373,119,198525,2,0,P|293:111,1,80,8|2,0:0|0:0,0:0:0
223,166,198804,5,2,0:0:0
144,204,198943,1,2,0:0:0
60,176,199083,1,8,0:0:0
48,88,199223,1,2,0:0:0
134,84,199362,2,0,P|146:225,1,120,2|0,0:0|0:0,0:0:0
176,272,199641,2,0,P|211:290|256:290,1,80,8|2,0:0|0:0,0:0:0
102,267,199920,5,4,0:0:0
296,368,200106,1,0,0:0:0
300,163,200292,1,0,0:0:0
209,275,200478,6,0,P|168:289,3,26.6666666666667
289,248,200664,2,0,P|356:224,2,53.3333333333333
215,191,201036,6,0,P|178:188,3,26.6666666666667
231,108,201223,2,0,P|170:99,2,53.3333333333333
300,163,201595,6,0,P|312:148|312:148|320:160|320:160|324:144|324:144|333:158|333:158|336:142|336:142|344:156|344:156|348:140|348:140|406:175|474:153|491:87,1,280,12|0,0:0|0:0,0:0:0
459,29,202153,6,0,P|367:29,1,80,12|2,0:0|0:0,0:0:0
290,55,202425,2,0,P|198:55,1,80,8|2,0:0|0:0,0:0:0
119,155,202698,6,0,P|211:155,1,80,0|0,0:0|0:0,0:0:0
288,181,202970,2,0,P|380:181,1,80,8|0,0:0|0:0,0:0:0
212,270,203243,6,0,P|132:270,1,80,8|2,0:0|0:0,0:0:0
197,373,203516,2,0,P|277:373,1,80,8|2,0:0|0:0,0:0:0
115,350,203789,6,0,P|35:350,1,80,0|0,0:0|0:0,0:0:0
294,298,204062,2,0,P|374:298,1,80,8|0,0:0|0:0,0:0:0
220,190,204334,6,0,P|210:286,1,80,8|2,0:0|0:0,0:0:0
318,201,204607,2,0,P|326:121,1,80,8|2,0:0|0:0,0:0:0
371,285,204880,6,0,P|394:361,1,80
465,256,205153,2,0,P|441:179,1,80,8|0,0:0|0:0,0:0:0
347,42,205425,6,0,P|242:44,1,80,8|2,0:0|0:0,0:0:0
158,136,205698,2,0,P|263:138,1,80,8|2,0:0|0:0,0:0:0
318,200,205971,6,0,P|352:197,2,20.0000007629395
240,226,206153,6,0,P|187:226,1,40.000001525879
254,305,206334,6,0,P|201:305,1,40.000001525879
145,351,206516,6,0,P|109:315|33:313,1,120.000004577637,4|8,0:0|0:0,0:0:0
22,227,206955,1,0,0:0:0
103,208,207101,2,0,P|87:139,1,60.0000022888184,2|2,0:0|0:0,0:0:0
199,29,207394,2,0,P|212:87,1,60.0000022888184,8|2,0:0|0:0,0:0:0
244,186,207686,6,0,P|280:222|356:224,1,120.000004577637,2|8,0:0|0:0,0:0:0
418,185,208159,1,2,0:0:0
493,148,208317,2,0,P|457:112|381:110,1,120.000004577637,2|8,0:0|0:0,0:0:0
316,146,208791,1,2,0:0:0
282,215,208949,5,4,0:0:0
171,201,209177,1,0,0:0:0
237,110,209406,1,0,0:0:0
216,283,209634,6,0,P|213:309,2,20.0000007629395
226,201,209884,6,0,P|233:143,1,40.000001525879
305,47,210134,6,0,P|300:86,1,40.000001525879
351,267,210384,6,0,P|349:286,2,20.0000007629395
445,132,210650,6,0,P|440:171,1,40.000001525879
480,336,210917,6,0,P|484:296,1,40.000001525879
339,167,211184,5,4,0:0:0
