osu file format v11

[General]
AudioFilename: Kakuzetsu Thanatos.mp3
AudioLeadIn: 1000
PreviewTime: 68164
Countdown: 0
SampleSet: Soft
StackLeniency: 0.4
Mode: 0
LetterboxInBreaks: 0

[Editor]
Bookmarks: 19264,198525
DistanceSpacing: 1
BeatDivisor: 4
GridSize: 8

[Metadata]
Title:Kakuzetsu Thanatos
TitleUnicode:隔絶≡タナトス
Artist:Rohi
ArtistUnicode:ろひ
Creator:NatsumeRin
Version:Hard
Source:Vocaloid
Tags:Kagamine Rin Amamiya Yuko Pokie RLC hs714 qoot8123
BeatmapID:216151
BeatmapSetID:76396

[Difficulty]
HPDrainRate:5
CircleSize:4
OverallDifficulty:6
ApproachRate:8
SliderMultiplier:1.6
SliderTickRate:1

[Events]
//Background and Video events
0,0,"BG.JPG"
Video,0,"PV.flv"
//Break Periods
2,87870,96520
//Storyboard Layer 0 (Background)
//Storyboard Layer 1 (Fail)
//Storyboard Layer 2 (Pass)
//Storyboard Layer 3 (Foreground)
//Storyboard Sound Samples
//Background Colour Transformations
3,100,163,162,255

[TimingPoints]
70,300,4,2,1,20,1,0
970,-133.333333333333,4,2,1,20,0,0
1420,-133.333333333333,4,2,1,10,0,0
1870,-133.333333333333,4,2,1,20,0,0
2470,-133.333333333333,4,2,1,10,0,0
3070,-133.333333333333,4,2,1,20,0,0
3670,-133.333333333333,4,2,1,10,0,0
4270,-133.333333333333,4,2,1,20,0,0
6070,-133.333333333333,4,2,1,15,0,0
6220,-133.333333333333,4,2,1,10,0,0
6670,-133.333333333333,4,2,1,15,0,0
6745,-133.333333333333,4,2,1,10,0,0
7270,-133.333333333333,4,2,1,15,0,0
7420,-133.333333333333,4,2,1,10,0,0
7870,-133.333333333333,4,2,1,15,0,0
7945,-133.333333333333,4,2,1,10,0,0
8470,-133.333333333333,4,2,1,35,0,0
8770,-133.333333333333,4,2,1,20,0,0
8920,-133.333333333333,4,2,1,35,0,0
9220,-133.333333333333,4,2,1,20,0,0
9370,-133.333333333333,4,2,1,35,0,0
9670,-133.333333333333,4,2,1,50,0,0
10570,-100,4,1,1,40,0,0
10870,-100,4,1,1,80,0,0
20170,-133.333333333333,4,2,1,70,0,0
21295,-133.333333333333,4,2,1,30,0,0
21370,-133.333333333333,4,2,1,70,0,0
22495,-133.333333333333,4,2,1,30,0,0
22570,-133.333333333333,4,2,1,70,0,0
23695,-133.333333333333,4,2,1,30,0,0
23770,-133.333333333333,4,2,1,70,0,0
24895,-133.333333333333,4,2,1,30,0,0
24970,-133.333333333333,4,2,1,70,0,0
26095,-133.333333333333,4,2,1,30,0,0
26170,-133.333333333333,4,2,1,70,0,0
27295,-133.333333333333,4,2,1,30,0,0
27370,-133.333333333333,4,2,1,70,0,0
29470,-133.333333333333,4,1,1,60,0,0
30070,-100,4,1,1,80,0,0
39370,-133.333333333333,4,2,1,70,0,0
40495,-133.333333333333,4,2,1,30,0,0
40570,-133.333333333333,4,2,1,70,0,0
41695,-133.333333333333,4,2,1,30,0,0
41770,-133.333333333333,4,2,1,70,0,0
42895,-133.333333333333,4,2,1,30,0,0
42970,-133.333333333333,4,2,1,70,0,0
44095,-133.333333333333,4,2,1,30,0,0
44170,-133.333333333333,4,2,1,70,0,0
45295,-133.333333333333,4,2,1,30,0,0
45370,-133.333333333333,4,2,1,70,0,0
46495,-133.333333333333,4,2,1,30,0,0
46570,-133.333333333333,4,2,1,70,0,0
46870,-133.333333333333,4,1,1,60,0,0
48970,-133.333333333333,4,2,1,40,0,0
49120,-133.333333333333,4,2,1,20,0,0
49270,-133.333333333333,4,1,2,80,0,0
49570,-133.333333333333,4,1,2,20,0,0
49720,-133.333333333333,4,1,2,80,0,0
54370,-133.333333333333,4,1,2,20,0,0
54520,-133.333333333333,4,1,2,80,0,0
58870,-133.333333333333,4,2,2,50,0,0
63670,-133.333333333333,4,1,1,70,0,0
63970,-133.333333333333,4,2,2,50,0,0
64720,-133.333333333333,4,1,1,40,0,0
64870,-133.333333333333,4,1,1,70,0,0
65170,-133.333333333333,4,2,2,50,0,0
65920,-133.333333333333,4,1,1,40,0,0
66070,-133.333333333333,4,1,1,70,0,0
66370,-133.333333333333,4,2,2,50,0,0
66520,-133.333333333333,4,1,1,40,0,0
66670,-133.333333333333,4,1,1,70,0,0
66970,-133.333333333333,4,2,2,50,0,0
67270,-133.333333333333,4,2,1,60,0,0
68470,-100,4,1,1,90,0,1
77470,-100,4,1,1,70,0,0
78070,-100,4,1,1,90,0,1
87670,-100,4,1,1,90,0,0
97270,-200,4,2,1,80,0,0
97570,-133.333333333333,4,1,1,50,0,0
97720,-133.333333333333,4,1,1,70,0,0
106870,-100,4,1,1,80,0,0
116170,-100,4,1,1,50,0,0
116470,-133.333333333333,4,2,1,70,0,0
117295,-133.333333333333,4,2,1,30,0,0
117370,-133.333333333333,4,2,1,70,0,0
118495,-133.333333333333,4,2,1,30,0,0
118570,-133.333333333333,4,2,1,70,0,0
119695,-133.333333333333,4,2,1,30,0,0
119770,-133.333333333333,4,2,1,70,0,0
120895,-133.333333333333,4,2,1,30,0,0
120970,-133.333333333333,4,2,1,70,0,0
122095,-133.333333333333,4,2,1,30,0,0
122170,-133.333333333333,4,2,1,70,0,0
123295,-133.333333333333,4,2,1,30,0,0
123370,-133.333333333333,4,2,1,70,0,0
123670,-133.333333333333,4,1,1,60,0,0
125770,-133.333333333333,4,2,1,40,0,0
125920,-133.333333333333,4,2,1,20,0,0
126070,-133.333333333333,4,1,2,80,0,0
126370,-133.333333333333,4,1,2,20,0,0
126520,-133.333333333333,4,1,2,80,0,0
131170,-133.333333333333,4,1,2,20,0,0
131320,-133.333333333333,4,1,2,80,0,0
135670,-133.333333333333,4,2,2,50,0,0
140470,-133.333333333333,4,1,1,70,0,0
140770,-133.333333333333,4,2,2,50,0,0
141520,-133.333333333333,4,1,1,40,0,0
141670,-133.333333333333,4,1,1,70,0,0
141970,-133.333333333333,4,2,2,50,0,0
142720,-133.333333333333,4,1,1,40,0,0
142870,-133.333333333333,4,1,1,70,0,0
143170,-133.333333333333,4,2,2,50,0,0
143320,-133.333333333333,4,1,1,40,0,0
143470,-133.333333333333,4,1,1,70,0,0
143770,-133.333333333333,4,2,2,50,0,0
144070,-133.333333333333,4,2,1,60,0,0
144970,-166.666666666667,4,2,1,30,0,0
145270,-166.666666666667,4,1,1,40,0,0
145570,-166.666666666667,4,2,1,40,0,0
152770,-166.666666666667,4,2,1,20,0,0
152920,-166.666666666667,4,2,1,40,0,0
153220,-166.666666666667,4,2,1,20,0,0
153370,-166.666666666667,4,2,1,40,0,0
154870,-133.333333333333,4,1,1,40,0,0
155170,-133.333333333333,4,2,1,40,0,0
159670,-200,4,1,1,80,0,0
159745,-200,4,1,1,20,0,0
160720,-166.666666666667,4,1,1,80,0,0
160795,-166.666666666667,4,1,1,20,0,0
160870,-166.666666666667,4,1,1,80,0,0
160945,-166.666666666667,4,1,1,20,0,0
161920,-142.857142857143,4,1,1,80,0,0
161995,-142.857142857143,4,1,1,20,0,0
162070,-142.857142857143,4,1,1,80,0,0
162145,-142.857142857143,4,1,1,20,0,0
162670,-125,4,1,1,90,0,0
162745,-125,4,1,1,20,0,0
163270,-100,4,1,1,90,0,0
163345,-100,4,1,1,80,0,0
163495,-100,4,1,1,20,0,0
163570,-100,4,1,1,80,0,0
163795,-100,4,1,1,20,0,0
163870,-100,4,1,1,80,0,0
164095,-100,4,1,1,20,0,0
164170,-133.333333333333,4,1,1,70,0,0
164470,-100,4,2,1,10,0,0
164770,300,4,1,1,90,1,1
173770,-100,4,1,1,70,0,0
174370,-100,4,1,1,90,0,1
183970,292.682926829268,4,1,1,80,1,0
188360,-100,4,2,1,90,0,0
188652,285.714285714286,4,1,1,80,1,0
192080,-100,4,1,1,50,0,0
193223,279.06976744186,4,2,1,80,1,0
193223,-100,4,2,1,80,0,0
193502,-100,4,1,1,80,0,0
197688,-100,4,1,1,80,0,0
202153,272.727272727273,4,1,1,80,1,0
205971,-133.333333333333,4,1,1,80,0,0
206516,292.682926829268,4,1,1,80,1,0
206516,-133.333333333333,4,1,1,80,0,0
207686,315.789473684211,4,1,1,75,1,0
207686,-133.333333333333,4,1,1,75,0,0
208949,342.857142857143,4,1,1,70,1,0
208949,-133.333333333333,4,1,1,70,0,0
209634,375,4,1,1,65,1,0
209634,-133.333333333333,4,1,1,65,0,0
210384,400,4,1,1,60,1,0
210384,-133.333333333333,4,1,1,60,0,0
211184,-133.333333333333,4,2,1,80,0,0

[Colours]
Combo1 : 192,192,192
Combo2 : 64,0,128
Combo3 : 0,232,232
Combo4 : 222,22,28
Combo5 : 108,108,183
Combo6 : 255,255,74

[HitObjects]
168,280,970,1,2,0:0:0
232,248,1120,1,0,0:0:0
296,216,1270,2,0,P|432:232,1,120.000004577637,2|0,0:0|0:0,0:0:0
296,216,1870,5,2,0:0:0
176,136,2095,1,0,0:0:0
168,280,2320,1,2,0:0:0
256,296,2470,2,0,P|309:307|368:272,1,120.000004577637
256,296,3070,5,2,0:0:0
296,192,3295,1,2,0:0:0
240,96,3520,1,0,0:0:0
176,136,3670,2,0,P|112:144|48:120,1,120.000004577637,2|0,0:0|0:0,0:0:0
176,136,4270,5,2,0:0:0
240,24,4495,1,0,0:0:0
304,136,4720,1,2,0:0:0
240,96,4870,5,2,0:0:0
360,64,5095,1,2,0:0:0
464,128,5320,1,0,0:0:0
480,200,5470,2,0,P|480:256|440:304,1,120.000004577637,2|0,0:0|0:0,0:0:0
264,336,6070,5,4,0:0:0
192,320,6220,1,0,0:0:0
136,272,6370,1,0,0:0:0
120,200,6520,1,0,0:0:0
120,200,7270,5,4,0:0:0
192,168,7420,1,0,0:0:0
240,104,7570,1,0,0:0:0
248,24,7720,1,0,0:0:0
248,24,8470,6,0,P|232:80|264:136,1,120.000004577637,2|0,0:0|0:0,0:0:0
328,184,8920,2,0,P|344:128|312:72,1,120.000004577637,2|0,0:0|0:0,0:0:0
160,24,9370,1,2,0:0:0
248,208,9670,6,0,P|232:312,2,90.0000034332277,2|2|0,0:0|0:0|0:0,0:0:0
264,128,10270,2,0,P|224:128|192:152,1,60.0000022888184,2|0,0:0|0:0,0:0:0
216,376,10570,6,0,P|264:376|296:352,1,80
368,344,10870,6,0,P|408:272,1,80
392,192,11170,2,0,P|400:144|384:112,1,80,8|0,0:0|0:0,0:0:0
320,80,11470,1,0,0:0:0
251,122,11620,1,0,0:0:0
320,160,11770,1,8,0:0:0
136,40,12070,5,0,0:0:0
88,104,12220,1,0,0:0:0
112,176,12370,2,0,P|96:248|144:320,1,160,8|0,0:0|0:0,0:0:0
216,344,12820,1,0,0:0:0
288,304,12970,2,0,P|376:288,1,80,8|0,0:0|0:0,0:0:0
496,224,13270,5,0,0:0:0
448,160,13420,1,0,0:0:0
472,88,13570,2,0,P|480:48|464:0,1,80,8|0,0:0|0:0,0:0:0
368,80,13870,2,0,P|360:120|376:168,2,80,0|0|8,0:0|0:0|0:0,0:0:0
200,32,14470,5,0,0:0:0
264,88,14620,1,0,0:0:0
184,112,14770,1,8,0:0:0
248,168,14920,1,0,0:0:0
168,192,15070,6,0,P|152:256,2,53.3333333333333
232,248,15370,6,0,P|216:312,2,53.3333333333333
296,304,15670,6,0,P|352:336|448:312,1,160,4|8,0:0|0:0,0:0:0
507,279,16120,1,0,0:0:0
440,240,16270,2,0,P|404:219|360:218,1,80
288,224,16570,2,0,P|248:237|224:272,1,80,8|0,0:0|0:0,0:0:0
120,352,16870,5,0,0:0:0
64,296,17020,1,0,0:0:0
96,224,17170,2,0,P|104:144|56:72,1,160,8|0,0:0|0:0,0:0:0
120,24,17620,1,0,0:0:0
192,64,17770,2,0,P|208:104|256:128,1,80,8|0,0:0|0:0,0:0:0
272,48,18070,6,0,P|397:69,2,106.666666666667,4|0|0,0:0|0:0|0:0,0:0:0
296,184,18670,6,0,P|421:205,2,106.666666666667,4|0|0,0:0|0:0|0:0,0:0:0
320,320,19270,6,0,P|445:341,2,106.666666666667,0|4|0,0:0|0:0|0:0,0:0:0
184,296,19870,5,4,0:0:0
184,296,20170,6,0,P|172:267|176:232,1,60.0000022888184,2|0,0:0|0:0,0:0:0
200,168,20470,1,2,0:0:0
176,96,20620,1,2,0:0:0
200,24,20770,2,0,P|168:16|144:24,2,60.0000022888184,10|0|2,0:0|0:0|0:0,0:0:0
360,96,21370,5,8,0:0:0
384,168,21520,1,0,0:0:0
408,240,21670,2,0,P|412:273|400:304,1,60.0000022888184,2|2,0:0|0:0,0:0:0
328,320,21970,2,0,P|324:287|336:256,2,60.0000022888184,8|0|2,0:0|0:0|0:0,0:0:0
176,344,22570,5,10,0:0:0
104,312,22720,1,0,0:0:0
168,264,22870,2,0,P|176:232|160:192,1,60.0000022888184,2|2,0:0|0:0,0:0:0
144,136,23170,2,0,P|80:112,1,60.0000022888184,10|0,0:0|0:0,0:0:0
16,136,23470,1,2,0:0:0
216,120,23770,6,0,P|248:120|280:96,1,60.0000022888184,10|0,0:0|0:0,0:0:0
328,48,24070,2,0,P|400:32,1,60.0000022888184,2|2,0:0|0:0,0:0:0
456,64,24370,1,10,0:0:0
488,128,24520,1,0,0:0:0
472,200,24670,1,2,0:0:0
336,288,24970,6,0,P|344:320|368:344,1,60.0000022888184,10|0,0:0|0:0,0:0:0
280,232,25270,2,0,P|216:256,1,60.0000022888184,2|2,0:0|0:0,0:0:0
256,160,25570,1,8,0:0:0
264,88,25720,2,0,P|264:48|288:24,1,60.0000022888184,2|2,0:0|0:0,0:0:0
104,96,26170,6,0,P|96:64|104:32,1,60.0000022888184,10|0,0:0|0:0,0:0:0
176,72,26470,2,0,P|184:104|176:136,1,60.0000022888184,2|2,0:0|0:0,0:0:0
144,200,26770,1,10,0:0:0
80,248,26920,2,0,P|64:328,1,60.0000022888184,0|2,0:0|0:0,0:0:0
256,288,27370,5,10,0:0:0
336,304,27520,1,0,0:0:0
280,368,27670,2,0,P|249:375|208:352,1,60.0000022888184,2|2,0:0|0:0,0:0:0
392,240,27970,2,0,P|416:272|416:304,1,60.0000022888184,10|0,0:0|0:0,0:0:0
312,224,28270,2,0,P|328:184|352:168,1,60.0000022888184,2|2,0:0|0:0,0:0:0
392,112,28570,2,0,P|400:48,1,60.0000022888184,10|0,0:0|0:0,0:0:0
328,16,28870,5,2,0:0:0
248,24,29020,1,0,0:0:0
184,72,29170,1,10,0:0:0
168,152,29320,1,0,0:0:0
200,224,29470,6,0,P|176:368,1,120.000004577637
264,320,29920,1,0,0:0:0
248,160,30070,6,0,P|208:144|168:152,1,80
32,280,30370,2,0,P|72:296|112:288,1,80,8|0,0:0|0:0,0:0:0
80,192,30670,2,0,P|88:112,1,80
256,80,30970,2,0,P|248:160,1,80,8|0,0:0|0:0,0:0:0
328,192,31270,6,0,P|370:198|408:176,1,80
472,136,31570,2,0,P|496:96|494:56,1,80,8|0,0:0|0:0,0:0:0
384,256,31870,2,0,P|408:288|408:336,1,80
328,320,32170,2,0,P|264:352|176:336,1,160,8|0,0:0|0:0,0:0:0
112,288,32620,5,0,0:0:0
72,216,32770,2,0,P|64:136,1,80,8|0,0:0|0:0,0:0:0
124,89,33070,2,0,P|93:64|45:65,1,80
200,104,33370,2,0,P|248:96|280:72,1,80,8|0,0:0|0:0,0:0:0
336,40,33670,5,0,0:0:0
408,48,33820,1,0,0:0:0
464,96,33970,1,8,0:0:0
488,168,34120,1,0,0:0:0
464,240,34270,6,0,P|480:304,2,53.3333333333333
400,277,34570,6,0,P|416:341,2,53.3333333333333
328,296,34870,6,0,P|256:312|176:280,1,160,4|8,0:0|0:0,0:0:0
120,224,35320,1,0,0:0:0
88,152,35470,2,0,P|136:144|168:160,1,80
24,112,35770,2,0,P|48:56|80:40,1,80,8|0,0:0|0:0,0:0:0
136,64,36070,6,0,P|224:88,1,80
280,48,36370,2,0,P|320:88|304:192,1,160,8|0,0:0|0:0,0:0:0
240,232,36820,1,0,0:0:0
256,312,36970,1,8,0:0:0
336,320,37120,1,0,0:0:0
368,248,37270,6,0,P|483:262,2,106.666666666667,4|0|0,0:0|0:0|0:0,0:0:0
192,280,37870,6,0,P|77:294,2,106.666666666667,4|0|0,0:0|0:0|0:0,0:0:0
336,320,38470,6,0,P|451:334,2,106.666666666667,0|4|0,0:0|0:0|0:0,0:0:0
160,208,39070,5,4,0:0:0
160,208,39370,6,0,P|168:176|157:141,1,60.0000022888184,2|0,0:0|0:0,0:0:0
192,72,39670,2,0,P|256:48,1,60.0000022888184,2|2,0:0|0:0,0:0:0
320,80,39970,2,0,P|328:112|360:136,1,60.0000022888184,10|0,0:0|0:0,0:0:0
416,168,40270,1,2,0:0:0
384,336,40570,6,0,P|352:329|328:304,1,60.0000022888184,8|0,0:0|0:0,0:0:0
264,280,40870,2,0,P|200:272,1,60.0000022888184,2|2,0:0|0:0,0:0:0
136,304,41170,2,0,P|107:314|61:306,1,60.0000022888184,8|0,0:0|0:0,0:0:0
96,240,41470,1,2,0:0:0
80,72,41770,6,0,P|109:70|139:83,1,60.0000022888184,10|0,0:0|0:0,0:0:0
200,128,42070,2,0,P|224:192,1,60.0000022888184,2|2,0:0|0:0,0:0:0
296,216,42370,1,10,0:0:0
368,184,42520,1,0,0:0:0
376,104,42670,1,2,0:0:0
424,312,42970,5,10,0:0:0
360,264,43120,1,0,0:0:0
280,248,43270,2,0,P|240:248|216:264,1,60.0000022888184,2|2,0:0|0:0,0:0:0
104,320,43570,2,0,P|144:320|168:304,1,60.0000022888184,10|0,0:0|0:0,0:0:0
184,184,43870,1,2,0:0:0
56,64,44170,6,0,P|34:92|32:120,1,60.0000022888184,10|0,0:0|0:0,0:0:0
168,104,44470,2,0,P|190:76|192:48,1,60.0000022888184,2|2,0:0|0:0,0:0:0
104,160,44770,1,8,0:0:0
184,184,44920,1,2,0:0:0
248,128,45070,1,2,0:0:0
368,24,45370,6,0,P|402:24|432:48,1,60.0000022888184,10|0,0:0|0:0,0:0:0
384,168,45670,2,0,P|350:168|320:144,1,60.0000022888184,2|2,0:0|0:0,0:0:0
376,96,45970,1,10,0:0:0
448,120,46120,1,0,0:0:0
456,192,46270,1,2,0:0:0
352,336,46570,5,10,0:0:0
280,304,46720,1,0,0:0:0
200,312,46870,6,0,P|120:320,1,60.0000022888184
184,232,47170,2,0,P|112:224,1,60.0000022888184
200,152,47470,2,0,P|136:112,1,60.0000022888184
264,104,47770,2,0,P|232:48,1,60.0000022888184
344,104,48070,5,0,0:0:0
336,184,48220,1,0,0:0:0
280,248,48370,1,0,0:0:0
200,264,48520,1,0,0:0:0
120,248,48670,1,0,0:0:0
120,248,48970,6,0,P|96:192,1,60.0000022888184,2|0,0:0|0:0,0:0:0
72,120,49270,6,0,P|96:48|192:64,1,180.000006866455
232,120,49870,2,0,P|376:144,1,120.000004577637,8|0,0:0|0:0,0:0:0
464,256,50470,5,0,0:0:0
352,368,50770,1,0,0:0:0
240,256,51070,1,8,0:0:0
352,144,51370,1,0,0:0:0
200,104,51670,6,0,P|184:152|200:192,2,90.0000034332277
240,40,52270,1,8,0:0:0
88,88,52570,1,0,0:0:0
136,232,52870,6,0,P|144:296|112:352,1,120.000004577637
112,160,53470,1,8,0:0:0
184,176,53620,2,0,P|320:200,1,120.000004577637
352,256,54070,6,0,P|438:251|499:183,1,180.000006866455
496,112,54670,1,8,0:0:0
352,56,54970,1,0,0:0:0
288,208,55270,6,0,P|144:208,2,120.000004577637,0|0|8,0:0|0:0|0:0,0:0:0
144,136,56170,2,0,P|109:153|96:176,1,60.0000022888184
104,248,56470,6,0,P|96:288|56:320,2,90.0000034332277
24,248,57070,1,8,0:0:0
64,96,57370,1,0,0:0:0
216,48,57670,6,0,P|280:40|336:64,1,120.000004577637
432,184,58270,1,8,0:0:0
368,232,58420,2,0,P|304:240|248:216,1,120.000004577637
200,160,58870,5,2,0:0:0
48,240,59170,1,8,0:0:0
128,128,59470,1,2,0:0:0
120,272,59770,2,0,P|136:336,1,60.0000022888184,8|0,0:0|0:0,0:0:0
208,328,60070,6,0,P|232:344|264:344,1,60.0000022888184,2|0,0:0|0:0,0:0:0
336,336,60370,2,0,P|360:320|376:280,1,60.0000022888184,10|0,0:0|0:0,0:0:0
360,216,60670,2,0,P|432:88,1,120.000004577637,2|10,0:0|0:0,0:0:0
368,48,61120,1,0,0:0:0
288,32,61270,6,0,P|240:40|192:96,1,120.000004577637,2|8,0:0|0:0,0:0:0
208,168,61720,1,0,0:0:0
248,232,61870,2,0,P|209:280|149:294,1,120.000004577637,2|8,0:0|0:0,0:0:0
80,272,62320,1,0,0:0:0
24,216,62470,6,0,P|40:144,1,60.0000022888184,2|0,0:0|0:0,0:0:0
96,104,62770,1,10,0:0:0
88,24,62920,2,0,P|144:32|176:96,1,120.000004577637,2|2,0:0|0:0,0:0:0
240,136,63370,2,0,P|313:153,1,60.0000022888184,8|0,0:0|0:0,0:0:0
376,168,63670,5,4,0:0:0
408,304,63820,2,0,P|280:272,1,120.000004577637,4|2,0:0|0:0,0:0:0
216,248,64270,2,0,P|208:288|224:312,1,60.0000022888184,0|2,0:0|0:0,0:0:0
278,199,64570,2,0,P|254:175|222:167,1,60.0000022888184,8|0,0:0|0:0,0:0:0
152,192,64870,5,4,0:0:0
24,240,65020,2,0,P|48:112,1,120.000004577637,4|2,0:0|0:0,0:0:0
104,64,65470,2,0,P|144:40|176:40,1,60.0000022888184,0|2,0:0|0:0,0:0:0
232,32,65770,2,0,P|264:32|288:48,1,60.0000022888184,8|0,0:0|0:0,0:0:0
344,104,66070,5,4,0:0:0
376,232,66220,2,0,P|344:368,1,120.000004577637,4|0,0:0|0:0,0:0:0
216,368,66670,5,4,0:0:0
184,240,66820,2,0,P|216:104,1,120.000004577637,4|0,0:0|0:0,0:0:0
232,32,67270,5,4,0:0:0
232,32,68170,5,2,0:0:0
144,64,68320,1,0,0:0:0
56,96,68470,6,0,P|48:56|72:8,1,80,2|0,0:0|0:0,0:0:0
128,152,68770,2,0,P|136:192|112:240,1,80,10|0,0:0|0:0,0:0:0
56,320,69070,2,0,P|192:336,1,120,2|2,0:0|0:0,0:0:0
192,328,69370,2,0,P|232:328|272:304,1,80,8|2,0:0|0:0,0:0:0
344,200,69670,5,2,0:0:0
384,272,69820,1,0,0:0:0
456,312,69970,2,0,P|470:273|455:234,1,80,10|0,0:0|0:0,0:0:0
416,168,70270,2,0,P|440:48,1,120,2|2,0:0|0:0,0:0:0
432,32,70570,2,0,P|397:12|352:16,1,80,8|2,0:0|0:0,0:0:0
264,112,70870,5,2,0:0:0
200,56,71020,1,0,0:0:0
184,136,71170,1,10,0:0:0
120,80,71320,1,0,0:0:0
104,160,71470,6,0,P|96:224|128:280,1,120,2|2,0:0|0:0,0:0:0
136,288,71770,1,8,0:0:0
240,312,71920,1,2,0:0:0
288,216,72070,6,0,P|296:152|264:96,1,120,2|2,0:0|0:0,0:0:0
256,88,72370,1,8,0:0:0
152,64,72520,1,2,0:0:0
56,112,72670,6,0,P|-8:146,2,53.3333333333333,2|0|0,0:0|0:0|0:0,0:0:0
72,184,72970,6,0,P|8:218,2,53.3333333333333,2|0|0,0:0|0:0|0:0,0:0:0
88,256,73270,6,0,P|80:296|103:340,1,80,6|2,0:0|0:0,0:0:0
160,288,73570,1,8,0:0:0
232,320,73720,2,0,P|240:280|217:236,1,80,2|2,0:0|0:0,0:0:0
184,176,74020,1,0,0:0:0
235,109,74170,1,10,0:0:0
312,144,74320,1,0,0:0:0
304,224,74470,6,0,P|352:216|376:192,1,80,2|2,0:0|0:0,0:0:0
392,120,74770,1,8,0:0:0
400,40,74920,2,0,P|352:48|328:72,1,80,2|2,0:0|0:0,0:0:0
312,144,75220,1,0,0:0:0
232,168,75370,1,10,0:0:0
176,112,75520,1,0,0:0:0
200,40,75670,5,2,0:0:0
128,56,75820,2,0,P|88:64|40:48,1,80,2|8,0:0|0:0,0:0:0
120,160,76120,2,0,P|80:176|32:176,1,80,2|0,0:0|0:0,0:0:0
168,248,76420,2,0,P|144:288|112:312,2,80,2|10|0,0:0|0:0|0:0,0:0:0
272,264,76870,6,0,P|304:384,2,120,2|0|2,0:0|0:0|0:0,0:0:0
256,192,77470,1,0,0:0:0
408,224,77770,2,0,P|395:173,3,40
392,152,78070,6,0,P|384:112|400:64,1,80,6|0,0:0|0:0,0:0:0
272,8,78370,2,0,P|280:48|264:96,1,80,10|0,0:0|0:0,0:0:0
192,192,78670,2,0,P|72:216,1,120,2|2,0:0|0:0,0:0:0
56,232,78970,1,8,0:0:0
128,296,79120,1,2,0:0:0
216,280,79270,6,0,P|256:264|272:224,1,80,2|0,0:0|0:0,0:0:0
408,136,79570,2,0,P|368:152|352:192,1,80,10|0,0:0|0:0,0:0:0
448,344,79870,2,0,P|440:216,1,120,2|2,0:0|0:0,0:0:0
456,208,80170,1,8,0:0:0
496,128,80320,1,2,0:0:0
448,56,80470,6,0,P|409:43|368:56,1,80,2|0,0:0|0:0,0:0:0
280,136,80770,2,0,P|240:152|192:136,1,80,10|0,0:0|0:0,0:0:0
96,88,81070,6,0,P|56:216,1,120,2|2,0:0|0:0,0:0:0
80,224,81370,2,0,P|88:272|80:304,1,80,8|2,0:0|0:0,0:0:0
184,240,81670,6,0,P|280:336,1,120,2|2,0:0|0:0,0:0:0
296,320,81970,2,0,P|336:336|384:328,1,80,8|2,0:0|0:0,0:0:0
448,248,82270,6,0,P|504:264,2,53.3333333333333,2|0|0,0:0|0:0|0:0,0:0:0
440,168,82570,6,0,P|496:184,2,53.3333333333333,2|0|0,0:0|0:0|0:0,0:0:0
432,88,82870,6,0,P|392:96|352:80,1,80,6|2,0:0|0:0,0:0:0
304,24,83170,1,8,0:0:0
232,56,83320,2,0,P|200:80|144:80,1,80,2|2,0:0|0:0,0:0:0
88,72,83620,1,0,0:0:0
48,136,83770,2,0,P|40:224,1,80,10|0,0:0|0:0,0:0:0
136,304,84070,6,0,P|176:312|216:288,1,80,2|2,0:0|0:0,0:0:0
264,240,84370,1,8,0:0:0
328,280,84520,2,0,P|368:296|408:288,1,80,2|2,0:0|0:0,0:0:0
472,264,84820,1,0,0:0:0
496,192,84970,2,0,P|488:112,1,80,10|0,0:0|0:0,0:0:0
384,32,85270,6,0,P|376:64|344:88|304:80|304:80|272:144,1,160,2|8,0:0|0:0,0:0:0
256,256,85720,2,0,P|264:224|296:200|336:208|336:208|368:144,1,160,2|0,0:0|0:0,0:0:0
240,24,86170,2,0,P|200:104,1,80,10|0,0:0|0:0,0:0:0
136,144,86470,6,0,P|120:208|160:272,2,120,2|0|2,0:0|0:0|0:0,0:0:0
208,176,87070,1,0,0:0:0
96,320,87370,1,0,0:0:0
104,328,87445,1,0,0:0:0
112,336,87520,1,0,0:0:0
120,344,87595,1,0,0:0:0
128,352,87670,1,4,0:0:0
152,96,97270,6,0,P|160:184,1,80,2|10,0:0|0:0,0:0:0
224,216,97720,1,0,0:0:0
296,184,97870,2,0,P|307:218|293:256,1,60.0000022888184,2|0,0:0|0:0,0:0:0
232,144,98170,2,0,P|221:110|235:72,1,60.0000022888184,10|0,0:0|0:0,0:0:0
280,32,98470,5,2,0:0:0
352,48,98620,1,2,0:0:0
400,104,98770,2,0,P|408:192,1,60.0000022888184,8|2,0:0|0:0,0:0:0
432,232,99070,2,0,P|440:288|400:344,1,120.000004577637,2|10,0:0|0:0,0:0:0
224,344,99670,6,0,P|96:336,1,120.000004577637,2|10,0:0|0:0,0:0:0
56,280,100120,1,0,0:0:0
32,208,100270,2,0,P|32:168|48:144,1,60.0000022888184,2|0,0:0|0:0,0:0:0
120,136,100570,2,0,P|120:176|104:200,1,60.0000022888184,10|0,0:0|0:0,0:0:0
64,80,100870,5,2,0:0:0
136,56,101020,1,2,0:0:0
192,112,101170,2,0,P|264:112,1,60.0000022888184,8|2,0:0|0:0,0:0:0
320,72,101470,6,0,P|336:48|368:40,2,40.000001525879,2|0|0,0:0|0:0|0:0,0:0:0
320,152,101770,6,0,P|336:176|368:184,2,40.000001525879
384,112,102070,6,0,P|424:160|416:224,1,120.000004577637,2|10,0:0|0:0,0:0:0
384,288,102520,1,0,0:0:0
320,328,102670,2,0,P|288:344|248:336,1,60.0000022888184,2|0,0:0|0:0,0:0:0
184,336,102970,2,0,P|144:328|120:296,1,60.0000022888184,10|0,0:0|0:0,0:0:0
88,248,103270,6,0,P|96:160,1,60.0000022888184,2|2,0:0|0:0,0:0:0
200,152,103570,2,0,P|192:240,1,60.0000022888184,8|2,0:0|0:0,0:0:0
128,120,103870,2,0,P|176:80|240:88,1,120.000004577637,2|10,0:0|0:0,0:0:0
384,176,104470,6,0,P|424:192|464:184,2,80.0000030517579,4|0|0,0:0|0:0|0:0,0:0:0
328,224,105070,5,4,0:0:0
256,240,105270,1,0,0:0:0
184,224,105470,1,0,0:0:0
128,176,105670,6,0,P|88:192|48:184,2,80.0000030517579,0|4|0,0:0|0:0|0:0,0:0:0
256,80,106270,5,4,0:0:0
256,80,106870,6,0,P|256:240,1,160,0|8,0:0|0:0,0:0:0
208,304,107320,1,0,0:0:0
136,336,107470,2,0,P|128:296|144:256,1,80
184,192,107770,1,8,0:0:0
136,128,107920,1,0,0:0:0
56,128,108070,6,0,P|88:64|184:64,1,160,0|8,0:0|0:0,0:0:0
240,88,108520,1,0,0:0:0
304,136,108670,2,0,P|384:128|417:63,1,160,0|8,0:0|0:0,0:0:0
336,64,109120,1,0,0:0:0
328,216,109270,6,0,P|376:216|408:200,1,80
312,336,109570,2,0,P|360:344|392:376,1,80,8|0,0:0|0:0,0:0:0
272,272,109870,2,0,P|104:248,1,160,0|8,0:0|0:0,0:0:0
40,272,110320,1,0,0:0:0
8,200,110470,6,0,P|0:152|16:120,1,80
128,96,110770,2,0,P|136:144|120:176,1,80,8|0,0:0|0:0,0:0:0
56,56,111070,6,0,P|104:16,2,53.3333333333333
128,96,111370,6,0,P|176:56,2,53.3333333333333
200,136,111670,6,0,P|272:152|352:104,1,160,4|8,0:0|0:0,0:0:0
392,48,112120,1,0,0:0:0
464,72,112270,1,0,0:0:0
464,152,112420,1,0,0:0:0
392,176,112570,1,8,0:0:0
328,344,112870,5,0,0:0:0
248,360,113020,1,0,0:0:0
176,328,113170,2,0,P|136:272|152:168,1,160,8|0,0:0|0:0,0:0:0
218,208,113620,1,0,0:0:0
296,192,113770,2,0,P|336:112,1,80,8|0,0:0|0:0,0:0:0
368,48,114070,6,0,P|312:40|264:80,2,106.666666666667,4|0|0,0:0|0:0|0:0,0:0:0
208,16,114670,6,0,P|185:68|211:124,2,106.666666666667,4|0|0,0:0|0:0|0:0,0:0:0
136,160,115270,6,0,P|180:194|242:184,2,106.666666666667,0|4|0,0:0|0:0|0:0,0:0:0
256,264,115870,5,4,0:0:0
256,264,116170,2,0,P|304:288,3,40
320,296,116470,6,0,P|352:304|384:296,1,60.0000022888184,2|2,0:0|0:0,0:0:0
448,272,116770,2,0,P|472:248|480:208,1,60.0000022888184,10|0,0:0|0:0,0:0:0
480,152,117070,1,2,0:0:0
320,40,117370,5,8,0:0:0
376,96,117520,1,0,0:0:0
304,112,117670,2,0,P|272:100|253:71,1,60.0000022888184,2|2,0:0|0:0,0:0:0
184,64,117970,2,0,P|104:80,1,60.0000022888184,8|0,0:0|0:0,0:0:0
72,128,118270,1,2,0:0:0
96,296,118570,5,10,0:0:0
160,264,118720,1,0,0:0:0
192,200,118870,2,0,P|264:192,1,60.0000022888184,2|2,0:0|0:0,0:0:0
312,152,119170,2,0,P|352:144|384:160,1,60.0000022888184,10|0,0:0|0:0,0:0:0
432,192,119470,1,2,0:0:0
296,288,119770,6,0,P|261:284|240:264,1,60.0000022888184,10|0,0:0|0:0,0:0:0
208,200,120070,2,0,P|200:128,1,60.0000022888184,2|2,0:0|0:0,0:0:0
232,72,120370,1,10,0:0:0
296,40,120520,1,0,0:0:0
368,48,120670,1,2,0:0:0
472,224,120970,5,10,0:0:0
408,272,121120,1,0,0:0:0
336,296,121270,2,0,P|296:296|272:280,1,60.0000022888184,2|2,0:0|0:0,0:0:0
344,184,121570,2,0,P|384:184|408:200,1,60.0000022888184,8|2,0:0|0:0,0:0:0
272,208,121870,2,0,P|256:104,1,90.0000034332277,2|0,0:0|0:0,0:0:0
248,104,122170,5,10,0:0:0
184,56,122320,1,0,0:0:0
104,64,122470,2,0,P|77:80|64:112,1,60.0000022888184,2|2,0:0|0:0,0:0:0
152,200,122770,2,0,P|179:184|192:152,1,60.0000022888184,10|0,0:0|0:0,0:0:0
80,176,123070,2,0,P|64:288,1,90.0000034332277,2|0,0:0|0:0,0:0:0
80,280,123370,5,10,0:0:0
152,320,123520,1,0,0:0:0
232,304,123670,6,0,P|312:296,1,60.0000022888184
432,296,123970,2,0,P|352:288,1,60.0000022888184,0|0,0:0|0:0,0:0:0
264,224,124270,2,0,P|344:216,1,60.0000022888184,0|0,0:0|0:0,0:0:0
408,208,124570,1,0,0:0:0
440,128,124720,1,0,0:0:0
440,128,124795,1,0,0:0:0
440,128,124870,6,0,P|430:99|404:76,1,60.0000022888184
344,40,125170,2,0,P|312:30|272:40,1,60.0000022888184
216,64,125470,1,0,0:0:0
216,64,125770,6,0,P|192:136,1,60.0000022888184,2|0,0:0|0:0,0:0:0
128,80,126070,6,0,P|120:160|208:200,1,180.000006866455
272,192,126670,1,8,0:0:0
424,240,126970,1,0,0:0:0
312,344,127270,5,0,0:0:0
160,296,127570,1,0,0:0:0
104,144,127870,2,0,P|96:88|136:32,1,120.000004577637,8|0,0:0|0:0,0:0:0
200,72,128320,1,0,0:0:0
248,136,128470,6,0,P|264:240,2,90.0000034332277
280,64,129070,2,0,P|320:40|400:48,1,120.000004577637,8|0,0:0|0:0,0:0:0
472,184,129670,5,0,0:0:0
384,320,129970,1,0,0:0:0
232,280,130270,1,8,0:0:0
160,304,130420,2,0,P|184:168,1,120.000004577637
224,120,130870,6,0,P|152:112|104:208,1,180.000006866455
180,185,131470,1,8,0:0:0
272,56,131770,1,0,0:0:0
424,96,132070,6,0,P|448:144|432:216,2,120.000004577637,0|0|8,0:0|0:0|0:0,0:0:0
312,200,132970,1,0,0:0:0
368,256,133120,1,0,0:0:0
384,328,133270,6,0,P|296:352,2,90.0000034332277
440,272,133870,1,8,0:0:0
376,128,134170,1,0,0:0:0
216,144,134470,5,0,0:0:0
176,296,134770,1,0,0:0:0
24,256,135070,1,8,0:0:0
96,240,135220,2,0,P|136:200|144:136,1,120.000004577637
112,72,135670,5,2,0:0:0
216,176,135970,1,8,0:0:0
176,32,136270,2,0,P|232:56|296:40,1,120.000004577637,2|8,0:0|0:0,0:0:0
344,96,136720,1,0,0:0:0
368,168,136870,6,0,P|360:200|376:240,1,60.0000022888184,2|0,0:0|0:0,0:0:0
440,200,137170,2,0,P|448:232|432:272,1,60.0000022888184,10|0,0:0|0:0,0:0:0
376,304,137470,2,0,P|272:368,1,120.000004577637,2|10,0:0|0:0,0:0:0
200,344,137920,1,0,0:0:0
144,288,138070,6,0,P|120:248|128:176,1,120.000004577637,2|8,0:0|0:0,0:0:0
184,120,138520,1,0,0:0:0
256,88,138670,2,0,P|280:128|272:200,1,120.000004577637,2|8,0:0|0:0,0:0:0
216,256,139120,1,0,0:0:0
152,200,139270,6,0,P|96:144,1,60.0000022888184,2|0,0:0|0:0,0:0:0
112,80,139570,1,10,0:0:0
184,48,139720,2,0,P|288:152,1,120.000004577637,2|2,0:0|0:0,0:0:0
280,208,140170,2,0,P|312:200|336:168,1,60.0000022888184,8|0,0:0|0:0,0:0:0
336,104,140470,5,4,0:0:0
464,160,140620,2,0,P|448:280,1,120.000004577637,4|2,0:0|0:0,0:0:0
384,328,141070,2,0,P|352:344|320:344,1,60.0000022888184,0|2,0:0|0:0,0:0:0
256,336,141370,2,0,P|224:328|200:304,1,60.0000022888184
168,240,141670,5,4,0:0:0
224,112,141820,2,0,P|112:48,1,120.000004577637,4|2,0:0|0:0,0:0:0
48,24,142270,2,0,P|40:56|56:88,1,60.0000022888184,0|2,0:0|0:0,0:0:0
112,184,142570,2,0,P|120:152|104:120,1,60.0000022888184
40,160,142870,5,4,0:0:0
184,208,143020,2,0,P|312:248,1,120.000004577637,4|0,0:0|0:0,0:0:0
416,144,143470,5,4,0:0:0
272,96,143620,2,0,P|144:56,1,120.000004577637,4|0,0:0|0:0,0:0:0
96,112,144070,5,4,0:0:0
96,112,144970,5,2,0:0:0
168,136,145120,1,0,0:0:0
240,112,145270,6,0,P|352:112,1,95.9999970703126,4|0,0:0|0:0,0:0:0
432,248,145870,2,0,P|414:261|387:265,1,47.9999985351563,2|0,0:0|0:0,0:0:0
312,264,146170,2,0,P|288:261|264:243,1,47.9999985351563,2|0,0:0|0:0,0:0:0
224,184,146470,6,0,P|200:288,1,95.9999970703126,2|0,0:0|0:0,0:0:0
56,320,147070,2,0,P|40:288|48:248,2,71.9999978027344,2|2|0,0:0|0:0|0:0,0:0:0
120,280,147670,5,2,0:0:0
80,136,147970,1,0,0:0:0
192,32,148270,1,2,0:0:0
336,72,148570,2,0,P|392:88,1,47.9999985351563,2|0,0:0|0:0,0:0:0
440,136,148870,6,0,P|453:168|446:209,2,71.9999978027344,2|2|0,0:0|0:0|0:0,0:0:0
376,176,149470,1,2,0:0:0
424,320,149770,1,0,0:0:0
280,288,150070,5,2,0:0:0
216,328,150220,1,0,0:0:0
144,336,150370,2,0,P|120:336|96:328,1,47.9999985351563,2|2,0:0|0:0,0:0:0
32,296,150670,2,0,P|16:280|8:248,2,47.9999985351563,0|2|2,0:0|0:0|0:0,0:0:0
88,240,151120,5,0,0:0:0
160,248,151270,1,2,0:0:0
232,232,151420,1,0,0:0:0
296,192,151570,2,0,P|310:168|312:144,1,47.9999985351563,2|2,0:0|0:0,0:0:0
312,72,151870,2,0,P|312:47|296:24,2,47.9999985351563,0|2|2,0:0|0:0|0:0,0:0:0
232,72,152320,5,0,0:0:0
184,136,152470,2,0,P|128:168|48:152,2,143.999995605469,2|2|2,0:0|0:0|0:0,0:0:0
248,280,153670,6,0,P|256:319|240:360,2,71.9999978027344,2|0|2,0:0|0:0|0:0,0:0:0
216,208,154270,1,0,0:0:0
216,208,154870,6,0,P|256:248|320:248,1,120.000004577637,4|0,0:0|0:0,0:0:0
312,104,155470,2,0,P|400:88,2,90.0000034332277,2|0|2,0:0|0:0|0:0,0:0:0
240,88,156070,6,0,P|177:86|128:128,1,120.000004577637,2|0,0:0|0:0,0:0:0
96,240,156670,2,0,P|88:344,2,90.0000034332277,2|2|0,0:0|0:0|0:0,0:0:0
72,168,157270,5,2,0:0:0
216,240,157570,1,0,0:0:0
320,120,157870,2,0,P|312:72|336:32,2,90.0000034332277,2|0|2,0:0|0:0|0:0,0:0:0
392,88,158470,6,0,P|400:136|376:176,2,90.0000034332277,2|2|0,0:0|0:0|0:0,0:0:0
320,120,159070,1,2,0:0:0
440,232,159370,1,0,0:0:0
320,336,159670,6,0,P|216:320|216:192,1,240,4|0,0:0|0:0,0:0:0
280,256,160720,5,0,0:0:0
280,256,160870,2,0,P|272:136|128:152,1,287.999991210938,4|0,0:0|0:0,0:0:0
96,240,161920,5,0,0:0:0
96,240,162070,2,0,P|128:312|216:320,1,167.999994873047,4|0,0:0|0:0,0:0:0
296,304,162670,6,0,P|344:240|320:128,1,192,4|0,0:0|0:0,0:0:0
272,56,163270,6,0,P|224:32|144:48,1,120,4|0,0:0|0:0,0:0:0
224,112,163570,2,0,P|168:120|104:176,1,120,4|0,0:0|0:0,0:0:0
216,184,163870,2,0,P|176:224|176:312,1,120,4|0,0:0|0:0,0:0:0
248,248,164170,6,0,P|272:376,1,120.000004577637,4|0,0:0|0:0,0:0:0
270,365,164770,6,0,P|312:376|352:352,1,80,2|0,0:0|0:0,0:0:0
416,328,165070,2,0,P|440:240,1,80,10|0,0:0|0:0,0:0:0
432,176,165370,2,0,P|440:112|416:56,1,120,2|2,0:0|0:0,0:0:0
408,48,165670,1,8,0:0:0
328,24,165820,1,2,0:0:0
264,80,165970,6,0,P|224:104|176:96,1,80,2|0,0:0|0:0,0:0:0
112,128,166270,2,0,P|64:200,1,80,10|0,0:0|0:0,0:0:0
64,272,166570,2,0,P|112:304|192:304,1,120,2|2,0:0|0:0,0:0:0
192,304,166870,1,8,0:0:0
256,248,167020,1,2,0:0:0
288,168,167170,6,0,P|280:128|296:88,1,80,2|0,0:0|0:0,0:0:0
424,56,167470,2,0,P|432:96|416:136,1,80,10|0,0:0|0:0,0:0:0
368,200,167770,6,0,P|336:320,1,120,2|2,0:0|0:0,0:0:0
328,328,168070,1,8,0:0:0
224,360,168220,1,2,0:0:0
168,264,168370,6,0,P|200:144,1,120,2|0,0:0|0:0,0:0:0
208,136,168670,1,8,0:0:0
152,40,168820,1,2,0:0:0
48,72,168970,6,0,P|16:80|-16:72,2,53.3333333333333,2|0|0,0:0|0:0|0:0,0:0:0
88,136,169270,6,0,P|64:152|48:184,2,53.3333333333333,2|0|0,0:0|0:0|0:0,0:0:0
128,200,169570,6,0,P|112:240|128:288,1,80,6|2,0:0|0:0,0:0:0
232,320,169870,2,0,P|248:280|232:232,1,80,8|2,0:0|0:0,0:0:0
200,176,170170,1,2,0:0:0
224,104,170320,1,0,0:0:0
296,72,170470,1,10,0:0:0
368,88,170620,1,0,0:0:0
432,128,170770,6,0,P|458:163|456:208,1,80,2|2,0:0|0:0,0:0:0
368,264,171070,2,0,P|342:229|344:184,1,80,8|2,0:0|0:0,0:0:0
352,120,171370,1,2,0:0:0
304,64,171520,1,0,0:0:0
232,40,171670,1,10,0:0:0
160,48,171820,1,0,0:0:0
96,88,171970,5,2,0:0:0
72,160,172120,2,0,P|72:200|104:248,1,80,2|8,0:0|0:0,0:0:0
224,184,172420,2,0,P|240:224|280:256,1,80,2|0,0:0|0:0,0:0:0
352,120,172720,2,0,P|392:144|432:144,2,80,2|10|0,0:0|0:0|0:0,0:0:0
416,64,173170,5,2,0:0:0
232,40,173395,1,0,0:0:0
416,64,173620,1,2,0:0:0
352,120,173770,2,0,P|344:168|368:200,1,80
424,256,174070,2,0,P|392:296,3,40
384,304,174370,6,0,P|352:328|304:328,1,80,6|0,0:0|0:0,0:0:0
232,312,174670,1,10,0:0:0
288,248,174820,1,0,0:0:0
208,232,174970,2,0,P|192:176|216:112,1,120,2|2,0:0|0:0,0:0:0
224,104,175270,2,0,P|256:16,1,80,8|2,0:0|0:0,0:0:0
88,64,175570,6,0,P|48:88|40:136,1,80,2|0,0:0|0:0,0:0:0
120,136,175870,1,10,0:0:0
56,200,176020,1,0,0:0:0
136,216,176170,2,0,P|120:272|144:336,1,120,2|2,0:0|0:0,0:0:0
152,344,176470,2,0,P|232:352,1,80,8|2,0:0|0:0,0:0:0
344,264,176770,5,2,0:0:0
416,288,176920,1,0,0:0:0
400,216,177070,1,10,0:0:0
472,240,177220,1,0,0:0:0
456,168,177370,6,0,P|448:112|472:48,1,120,2|2,0:0|0:0,0:0:0
456,40,177670,2,0,P|368:8,1,80,8|2,0:0|0:0,0:0:0
272,80,177970,6,0,P|224:112|152:104,1,120,2|2,0:0|0:0,0:0:0
152,120,178270,2,0,P|104:200,1,80,8|2,0:0|0:0,0:0:0
160,320,178570,6,0,P|183:346|216:352,2,53.3333333333333,2|0|0,0:0|0:0|0:0,0:0:0
160,248,178870,6,0,P|184:216|216:208,2,53.3333333333333,2|0|0,0:0|0:0|0:0,0:0:0
224,280,179170,5,6,0:0:0
272,344,179320,1,2,0:0:0
344,336,179470,2,0,P|432:328,1,80,8|2,0:0|0:0,0:0:0
480,184,179770,2,0,P|393:193,1,80,2|0,0:0|0:0,0:0:0
328,200,180070,1,10,0:0:0
296,272,180220,1,0,0:0:0
248,208,180370,6,0,P|256:160|280:136,1,80,2|2,0:0|0:0,0:0:0
344,96,180670,1,8,0:0:0
320,16,180820,1,2,0:0:0
240,16,180970,2,0,P|200:24|160:64,1,80,2|0,0:0|0:0,0:0:0
128,112,181270,1,10,0:0:0
112,188,181420,1,0,0:0:0
120,264,181570,6,0,P|120:304|152:336|152:336|200:328|232:288,1,160,2|8,0:0|0:0,0:0:0
288,248,182020,2,0,P|288:208|256:176|256:176|208:184|176:224,1,160,2|0,0:0|0:0,0:0:0
296,328,182470,2,0,P|336:312|368:272,1,80,10|0,0:0|0:0,0:0:0
360,208,182770,5,2,0:0:0
464,112,182995,1,0,0:0:0
360,208,183220,1,2,0:0:0
384,136,183370,2,0,P|392:88|376:56,1,80
304,8,183670,1,0,0:0:0
288,16,183745,1,0,0:0:0
272,24,183820,1,0,0:0:0
256,32,183895,1,0,0:0:0
240,40,183970,6,0,P|160:80,1,80,4|0,0:0|0:0,0:0:0
48,24,184262,2,0,P|32:56|40:112,1,80,8|0,0:0|0:0,0:0:0
120,192,184555,2,0,P|96:288,1,80
192,352,184848,2,0,P|232:360|272:336,1,80,8|0,0:0|0:0,0:0:0
320,280,185140,5,0,0:0:0
400,304,185287,1,0,0:0:0
456,240,185433,2,0,P|472:200|464:160,1,80,8|0,0:0|0:0,0:0:0
400,40,185726,1,0,0:0:0
336,88,185872,1,0,0:0:0
264,56,186018,2,0,P|224:48|184:64,1,80,8|0,0:0|0:0,0:0:0
104,160,186311,6,0,P|88:248,1,80
152,344,186604,2,0,P|187:323|204:272,1,80,8|0,0:0|0:0,0:0:0
296,224,186896,2,0,P|392:208,1,80
464,120,187189,2,0,P|432:88|392:80,1,80,8|0,0:0|0:0,0:0:0
320,96,187482,5,0,0:0:0
264,152,187628,1,0,0:0:0
184,152,187774,2,0,P|104:152,1,80,8|0,0:0|0:0,0:0:0
24,152,188067,6,0,P|28:121|51:97,2,53.3333333333333
64,224,188360,6,2,P|80:248,5,26.6666666666667
96,272,188652,6,0,P|88:320|104:352,1,80,4|0,0:0|0:0,0:0:0
240,304,188937,2,0,P|248:256|232:224,1,80,8|0,0:0|0:0,0:0:0
184,168,189223,1,0,0:0:0
216,96,189366,1,0,0:0:0
296,88,189509,1,8,0:0:0
344,152,189652,1,0,0:0:0
264,160,189794,6,0,P|304:224|384:224,1,160,0|8,0:0|0:0,0:0:0
432,96,190223,1,0,0:0:0
323,17,190366,2,0,P|240:32|216:96,1,160,0|8,0:0|0:0,0:0:0
232,232,190794,1,0,0:0:0
304,208,190937,6,0,P|309:260|277:300,2,106.666666666667,4|0|0,0:0|0:0|0:0,0:0:0
184,168,191509,6,0,P|152:208|160:264,2,106.666666666667,4|0|0,0:0|0:0|0:0,0:0:0
256,192,192080,12,4,193223,0:0:0
344,144,193502,6,0,P|336:232,1,80,10|0,0:0|0:0,0:0:0
264,160,193781,2,0,P|256:248,1,80,2|0,0:0|0:0,0:0:0
184,176,194060,2,0,P|176:264,1,80,10|0,0:0|0:0,0:0:0
112,304,194339,5,2,0:0:0
40,272,194478,1,2,0:0:0
16,200,194618,2,0,P|13:161|31:124,1,80,8|2,0:0|0:0,0:0:0
80,64,194897,2,0,P|240:40,1,160,2|8,0:0|0:0,0:0:0
384,88,195455,5,2,0:0:0
416,248,195734,2,0,P|408:304|424:336,1,80,10|0,0:0|0:0,0:0:0
344,224,196013,2,0,P|304:256|288:296,1,80,2|0,0:0|0:0,0:0:0
296,160,196292,2,0,P|248:160|200:192,1,80,10|0,0:0|0:0,0:0:0
304,80,196571,5,2,0:0:0
224,72,196711,1,2,0:0:0
152,104,196850,2,0,P|144:56|160:24,1,80,8|2,0:0|0:0,0:0:0
120,176,197129,6,0,P|96:232,2,53.3333333333333
168,240,197409,6,0,P|192:296,2,53.3333333333333
200,168,197688,6,0,P|272:184|352:136,1,160,2|10,0:0|0:0,0:0:0
368,72,198106,1,0,0:0:0
440,56,198246,2,0,P|496:112,1,80,2|0,0:0|0:0,0:0:0
456,184,198525,2,0,P|472:272,1,80,10|0,0:0|0:0,0:0:0
424,328,198804,5,2,0:0:0
352,352,198943,1,2,0:0:0
280,336,199083,2,0,P|240:320|216:272,1,80,8|2,0:0|0:0,0:0:0
200,216,199362,2,0,P|256:56,1,160,2|10,0:0|0:0,0:0:0
88,40,199920,6,0,P|40:40|-16:88,2,106.666666666667,4|0|0,0:0|0:0|0:0,0:0:0
80,184,200478,6,0,P|48:232|56:304,2,106.666666666667,4|0|0,0:0|0:0|0:0,0:0:0
200,264,201036,6,0,P|200:320|240:368,2,106.666666666667,0|4|0,0:0|0:0|0:0,0:0:0
328,192,201595,5,4,0:0:0
328,192,202153,6,0,P|424:216,1,80
336,120,202425,2,0,P|432:128,1,80,8|0,0:0|0:0,0:0:0
320,48,202698,2,0,P|248:16|168:32,1,160,0|8,0:0|0:0,0:0:0
112,80,203107,1,0,0:0:0
80,152,203243,6,0,P|72:224|128:312,1,160,0|8,0:0|0:0,0:0:0
184,336,203653,1,0,0:0:0
264,336,203789,2,0,P|424:336,1,160,0|8,0:0|0:0,0:0:0
336,200,204334,6,0,P|296:280,1,80
272,168,204607,2,0,P|224:232,1,80,8|0,0:0|0:0,0:0:0
224,112,204880,2,0,P|152:136|64:88,1,160,0|8,0:0|0:0,0:0:0
24,48,205289,1,0,0:0:0
96,32,205425,5,0,0:0:0
288,80,205698,1,8,0:0:0
144,216,205971,6,0,P|80:240,2,40.000001525879
160,288,206243,6,0,P|96:312,2,40.000001525879
176,360,206516,6,0,P|224:328|229:263,1,120.000004577637,0|8,0:0|0:0,0:0:0
264,200,206955,1,0,0:0:0
336,224,207101,2,0,P|368:264|440:272,1,120.000004577637,0|8,0:0|0:0,0:0:0
504,248,207540,1,0,0:0:0
480,176,207686,6,0,P|440:40,1,120.000004577637,0|8,0:0|0:0,0:0:0
280,40,208317,2,0,P|320:176,1,120.000004577637,0|8,0:0|0:0,0:0:0
200,256,208949,6,0,P|189:297|208:344,2,80.0000030517579
272,296,209634,5,0,0:0:0
272,296,209759,1,0,0:0:0
272,296,209884,2,0,P|288:328|328:344,1,80.0000030517579
344,264,210384,5,0,0:0:0
344,264,210517,1,0,0:0:0
344,264,210650,2,0,P|384:272|423:255,1,80.0000030517579
376,192,211184,5,4,0:0:0
