osu file format v11

[General]
AudioFilename: Kakuzetsu Thanatos.mp3
AudioLeadIn: 1000
PreviewTime: 68164
Countdown: 0
SampleSet: Normal
StackLeniency: 0.4
Mode: 0
LetterboxInBreaks: 0

[Editor]
Bookmarks: 19264,198525
DistanceSpacing: 1.05
BeatDivisor: 1
GridSize: 8

[Metadata]
Title:Kakuzetsu Thanatos
TitleUnicode:隔絶≡タナトス
Artist:Rohi
ArtistUnicode:ろひ
Creator:NatsumeRin
Version:Easy
Source:Vocaloid
Tags:Kagamine Rin Amamiya Yuko Pokie RLC hs714 qoot8123
BeatmapID:218839
BeatmapSetID:76396

[Difficulty]
HPDrainRate:1
CircleSize:3
OverallDifficulty:2
ApproachRate:3
SliderMultiplier:0.8
SliderTickRate:1

[Events]
//Background and Video events
0,0,"BG.JPG"
Video,0,"PV.flv"
//Break Periods
2,87870,95830
//Storyboard Layer 0 (Background)
//Storyboard Layer 1 (Fail)
//Storyboard Layer 2 (Pass)
//Storyboard Layer 3 (Foreground)
//Storyboard Sound Samples
//Background Colour Transformations
3,100,163,162,255

[TimingPoints]
70,300,4,2,1,20,1,0
970,-100,4,2,1,20,0,0
6070,-100,4,2,1,15,0,0
8470,-100,4,2,1,25,0,0
8770,-100,4,2,1,10,0,0
8920,-100,4,2,1,25,0,0
9070,-100,4,2,1,10,0,0
9370,-100,4,2,1,25,0,0
9670,-100,4,2,1,50,0,0
10570,-100,4,1,1,40,0,0
10870,-100,4,1,1,80,0,0
20170,-100,4,2,1,70,0,0
29470,-100,4,1,1,60,0,0
30070,-100,4,1,1,80,0,0
39370,-100,4,2,1,70,0,0
46870,-100,4,1,1,60,0,0
49270,-100,4,1,2,80,0,0
49570,-100,4,1,2,20,0,0
49720,-100,4,1,2,80,0,0
51970,-100,4,1,2,20,0,0
52120,-100,4,1,2,80,0,0
54370,-100,4,1,2,20,0,0
54520,-100,4,1,2,80,0,0
56770,-100,4,1,2,20,0,0
57070,-100,4,1,2,80,0,0
58870,-100,4,2,2,50,0,0
63670,-100,4,1,1,70,0,0
67270,-100,4,2,1,60,0,0
68470,-100,4,1,1,90,0,1
77470,-100,4,1,1,70,0,0
78070,-100,4,1,1,90,0,1
87670,-100,4,1,1,90,0,0
97270,-100,4,2,1,80,0,0
97570,-100,4,1,1,50,0,0
97720,-100,4,1,1,70,0,0
106870,-100,4,1,1,40,0,0
108670,-100,4,1,1,80,0,0
116470,-100,4,2,1,70,0,0
123670,-100,4,1,1,60,0,0
126070,-100,4,1,2,80,0,0
126370,-100,4,1,2,20,0,0
126520,-100,4,1,2,80,0,0
128770,-100,4,1,2,20,0,0
128920,-100,4,1,2,80,0,0
129970,-100,4,1,2,20,0,0
130120,-100,4,1,2,80,0,0
131170,-100,4,1,2,20,0,0
131320,-100,4,1,2,80,0,0
133570,-100,4,1,2,20,0,0
133870,-100,4,1,2,80,0,0
135670,-100,4,2,2,50,0,0
140470,-100,4,1,1,70,0,0
144070,-100,4,2,1,60,0,0
144970,-100,4,2,1,30,0,0
145270,-100,4,1,1,40,0,0
145570,-100,4,2,1,40,0,0
152770,-100,4,2,1,20,0,0
152920,-100,4,2,1,40,0,0
153070,-100,4,2,1,20,0,0
153370,-100,4,2,1,40,0,0
154870,-100,4,1,1,40,0,0
155170,-100,4,2,1,40,0,0
159670,-100,4,1,1,80,0,0
163270,-100,4,1,1,90,0,0
164470,-100,4,2,1,10,0,0
164770,300,4,1,1,90,1,1
173770,-100,4,1,1,70,0,0
174370,-100,4,1,1,90,0,1
183970,292.682926829268,4,1,1,80,1,0
188360,-100,4,2,1,90,0,0
188652,285.714285714286,4,1,1,80,1,0
192080,-100,4,1,1,60,0,0
193223,279.06976744186,4,2,1,80,1,0
193223,-100,4,2,1,80,0,0
193502,-100,4,1,1,80,0,0
197688,-100,4,1,1,80,0,0
202153,272.727272727273,4,1,1,80,1,0
206516,292.682926829268,4,1,1,80,1,0
206516,-133.333333333333,4,1,1,80,0,0
207686,315.789473684211,4,1,1,75,1,0
207686,-133.333333333333,4,1,1,75,0,0
208949,342.857142857143,4,1,1,20,1,0
209634,375,4,1,1,20,1,0
210384,400,4,1,1,20,1,0
211184,-100,4,2,1,80,0,0

[Colours]
Combo1 : 192,192,192
Combo2 : 64,0,128
Combo3 : 0,232,232
Combo4 : 222,22,28
Combo5 : 108,108,183
Combo6 : 255,255,74

[HitObjects]
256,272,970,1,2,0:0:0
336,248,1270,1,2,0:0:0
256,104,1870,6,0,P|192:152|192:232,1,160,2|0,0:0|0:0,0:0:0
320,328,3070,6,0,P|395:305|413:224,1,160,0|2,0:0|0:0,0:0:0
336,88,4270,6,0,P|282:29|208:40,1,160,2|2,0:0|0:0,0:0:0
80,152,5470,5,2,0:0:0
112,232,5770,1,2,0:0:0
144,312,6070,1,0,0:0:0
224,328,7270,5,0,0:0:0
304,344,8470,6,0,P|361:346|408:308,2,120,2|2|0,0:0|0:0|0:0,0:0:0
336,264,9670,2,0,P|392:104,1,160,2|0,0:0|0:0,0:0:0
240,40,10870,5,0,0:0:0
96,120,11470,1,0,0:0:0
176,264,12070,2,0,P|144:328|56:344,1,160
136,192,13270,5,0,0:0:0
264,304,13870,1,0,0:0:0
424,256,14470,2,0,P|512:256,2,80
464,96,15670,6,0,P|392:104|320:40,1,160,4|0,0:0|0:0,0:0:0
160,64,16870,2,0,P|104:120|16:128,1,160
96,288,18070,5,4,0:0:0
256,328,18670,1,4,0:0:0
416,288,19270,1,4,0:0:0
256,248,19870,1,4,0:0:0
416,208,20470,6,0,P|432:136|384:64,1,160,2|0,0:0|0:0,0:0:0
256,168,21670,2,0,P|192:208|96:200,1,160,2|0,0:0|0:0,0:0:0
152,40,22870,5,2,0:0:0
304,104,23470,1,0,0:0:0
328,272,24070,2,0,P|320:304|336:352,1,80,2|2,0:0|0:0,0:0:0
400,304,24670,1,0,0:0:0
352,144,25270,6,0,P|272:128|200:176,1,160,2|0,0:0|0:0,0:0:0
248,328,26470,2,0,P|183:365|96:352,1,160,2|0,0:0|0:0,0:0:0
40,200,27670,6,0,P|56:120,1,80,2|0,0:0|0:0,0:0:0
72,40,28270,1,0,0:0:0
224,112,28870,2,0,P|264:120|304:104,1,80,2|2,0:0|0:0,0:0:0
368,56,29470,1,0,0:0:0
464,192,30070,5,0,0:0:0
368,328,30670,1,0,0:0:0
200,288,31270,2,0,P|136:328|48:320,1,160
96,160,32470,5,0,0:0:0
200,32,33070,1,0,0:0:0
368,64,33670,2,0,P|400:152,2,80
424,224,34870,6,0,P|440:296|400:368,1,160,4|0,0:0|0:0,0:0:0
256,280,36070,2,0,P|200:328|112:328,1,160
144,160,37270,5,4,0:0:0
264,40,37870,1,4,0:0:0
424,88,38470,1,4,0:0:0
304,208,39070,1,4,0:0:0
464,256,39670,6,0,P|432:328|360:360,1,160,2|0,0:0|0:0,0:0:0
200,328,40870,2,0,P|120:336|40:280,1,160,2|0,0:0|0:0,0:0:0
48,128,42070,5,2,0:0:0
200,64,42670,1,0,0:0:0
96,200,43270,2,0,P|125:226|170:230,1,80,2|2,0:0|0:0,0:0:0
248,224,43870,1,0,0:0:0
392,136,44470,6,0,P|430:202|400:288,1,160,2|0,0:0|0:0,0:0:0
248,224,45670,2,0,P|210:158|240:72,1,160,2|0,0:0|0:0,0:0:0
168,24,46570,1,0,0:0:0
88,56,46870,6,0,P|48:144,1,80
112,192,47470,2,0,P|128:296,1,80
200,296,48070,2,0,P|248:368,2,80
368,264,49270,6,0,P|448:264|488:200,1,160,0|8,0:0|0:0,0:0:0
392,64,50470,2,0,P|416:160,2,80,0|0|8,0:0|0:0|0:0,0:0:0
224,96,51670,6,0,P|160:56|64:72,1,160,0|8,0:0|0:0,0:0:0
64,232,52870,2,0,P|96:312,1,80
176,336,53470,1,8,0:0:0
336,296,54070,6,0,P|368:232|344:144,1,160,0|8,0:0|0:0,0:0:0
216,40,55270,2,0,P|128:72,2,80,0|0|8,0:0|0:0|0:0,0:0:0
120,176,56470,6,0,P|88:240|112:328,1,160,0|8,0:0|0:0,0:0:0
184,360,57370,1,0,0:0:0
264,328,57670,2,0,P|288:240,2,80
432,304,58870,6,0,P|448:224|408:152,1,160,2|0,0:0|0:0,0:0:0
264,80,60070,2,0,P|184:88|120:144,1,160,2|0,0:0|0:0,0:0:0
80,296,61270,1,2,0:0:0
240,336,61870,6,0,P|288:328|312:296,1,80,2|2,0:0|0:0,0:0:0
240,256,62470,2,0,P|240:72,1,160
392,32,63670,5,4,0:0:0
368,112,64870,5,4,0:0:0
344,192,66070,5,4,0:0:0
392,352,66670,1,4,0:0:0
232,312,67270,5,4,0:0:0
232,312,68470,6,0,P|192:328|144:320,1,80
184,248,69070,2,0,P|112:232|56:160,1,160
72,88,69970,1,0,0:0:0
136,32,70270,2,0,P|208:48|264:120,1,160
280,192,71170,5,0,0:0:0
264,272,71470,1,0,0:0:0
408,360,72070,1,0,0:0:0
488,216,72670,2,0,P|440:152,1,80
392,80,73270,6,0,P|344:88|304:72,1,80,4|0,0:0|0:0,0:0:0
240,40,73870,2,0,P|72:72,1,160
32,136,74770,1,0,0:0:0
72,208,75070,2,0,P|240:176,1,160
152,328,76270,6,0,P|246:307,1,80
312,328,76870,2,0,P|392:328|440:256,1,160
448,104,78070,5,4,0:0:0
368,120,78370,1,0,0:0:0
296,80,78670,2,0,P|224:56|128:80,1,160
80,128,79570,1,0,0:0:0
80,208,79870,2,0,P|152:232|248:208,1,160
296,160,80770,5,0,0:0:0
312,240,81070,1,0,0:0:0
456,160,81670,1,0,0:0:0
368,304,82270,2,0,P|336:320|288:320,1,80
208,304,82870,6,0,P|120:304,1,80,4|0,0:0|0:0,0:0:0
56,264,83470,2,0,P|24:192|48:112,1,160
104,56,84370,1,0,0:0:0
184,32,84670,1,0,0:0:0
344,80,85270,6,0,P|400:96|464:72,2,120
264,56,86470,2,0,P|264:232,2,160,0|0|4,0:0|0:0|0:0,0:0:0
280,80,97270,6,0,P|240:256,1,160,4|0,0:0|0:0,0:0:0
168,272,98170,1,0,0:0:0
88,304,98470,2,0,P|56:232|80:144,1,160
208,48,99670,6,0,P|358:110,1,160
395,183,100570,1,0,0:0:0
432,256,100870,2,0,P|360:280|280:240,1,160
128,304,102070,6,0,P|96:232|120:152,1,160
168,88,102970,1,0,0:0:0
248,56,103270,2,0,P|312:216,1,160
384,232,104170,1,0,0:0:0
464,256,104470,5,4,0:0:0
408,96,105070,1,4,0:0:0
240,96,105670,1,4,0:0:0
184,256,106270,1,4,0:0:0
256,192,106870,12,0,108670,0:0:0
256,192,109270,5,0,0:0:0
96,248,109870,1,0,0:0:0
128,80,110470,2,0,P|88:72|48:88,2,80
256,192,111670,6,0,P|336:200|416:160,1,160,4|0,0:0|0:0,0:0:0
280,56,112870,2,0,P|200:48|120:88,1,160,0|0,0:0|0:0,0:0:0
88,152,113770,1,0,0:0:0
80,232,114070,5,4,0:0:0
192,360,114670,1,4,0:0:0
152,200,115270,1,4,0:0:0
264,328,115870,1,4,0:0:0
224,168,116470,6,0,P|304:160|376:208,1,160,2|0,0:0|0:0,0:0:0
472,336,117670,2,0,P|440:264|456:168,1,160,2|0,0:0|0:0,0:0:0
376,32,118870,5,2,0:0:0
216,88,119470,1,0,0:0:0
56,32,120070,2,0,P|32:72|40:120,1,80,2|2,0:0|0:0,0:0:0
64,184,120670,1,0,0:0:0
208,264,121270,6,0,P|168:328|80:352,1,160,2|0,0:0|0:0,0:0:0
152,192,122470,2,0,P|192:128|280:104,1,160,2|0,0:0|0:0,0:0:0
352,120,123370,1,0,0:0:0
424,168,123670,6,0,P|456:256,1,80
376,280,124270,2,0,P|344:192,1,80
272,240,124870,2,0,P|304:328,2,80
272,240,126070,6,0,P|256:160|296:80,1,160,0|8,0:0|0:0,0:0:0
128,32,127270,2,0,P|102:64|91:108,1,80
88,184,127870,1,8,0:0:0
32,344,128470,6,0,P|104:360|184:312,1,160,0|8,0:0|0:0,0:0:0
264,328,129370,1,0,0:0:0
344,296,129670,2,0,P|376:224|360:136,1,160,0|8,0:0|0:0,0:0:0
224,48,130870,6,0,P|144:56|80:112,1,160,0|8,0:0|0:0,0:0:0
128,272,132070,2,0,P|104:304|64:320,2,80,0|0|8,0:0|0:0|0:0,0:0:0
192,216,132970,1,0,0:0:0
272,200,133270,6,0,P|344:200|408:272,1,160,0|8,0:0|0:0,0:0:0
368,96,134470,2,0,P|329:85|288:88,1,80
208,104,135070,2,0,P|168:120|136:152,1,80,8|0,0:0|0:0,0:0:0
104,224,135670,6,0,P|32:384,1,160,2|0,0:0|0:0,0:0:0
200,344,136870,2,0,P|240:352|288:328,1,80,2|0,0:0|0:0,0:0:0
344,288,137470,1,2,0:0:0
224,168,138070,5,2,0:0:0
328,32,138670,2,0,P|369:47|391:84,1,80,2|2,0:0|0:0,0:0:0
312,112,139270,2,0,P|152:64,1,160
64,208,140470,5,4,0:0:0
112,280,141670,5,4,0:0:0
192,312,142870,5,4,0:0:0
224,144,143470,1,4,0:0:0
64,208,144070,5,4,0:0:0
448,208,145270,5,4,0:0:0
416,128,146470,5,2,0:0:0
360,64,147670,5,2,0:0:0
280,32,148870,6,0,P|200:24|128:72,2,160,2|2|0,0:0|0:0|0:0,0:0:0
288,120,151270,5,2,0:0:0
264,200,152470,6,0,P|216:240|128:240,2,120,2|2|0,0:0|0:0|0:0,0:0:0
288,120,153670,2,0,P|448:120,1,160,2|0,0:0|0:0,0:0:0
488,280,154870,5,4,0:0:0
408,312,156070,5,2,0:0:0
320,320,157270,5,2,0:0:0
232,312,158470,6,0,P|192:248|208:168,1,160,2|2,0:0|0:0,0:0:0
328,48,159670,5,4,0:0:0
248,88,160870,5,4,0:0:0
168,128,162070,5,4,0:0:0
124,288,162670,1,0,0:0:0
80,128,163270,6,0,P|84:167|120:203,1,80,4|4,0:0|0:0,0:0:0
192,216,163870,2,0,P|231:195|249:153,1,80,4|4,0:0|0:0,0:0:0
168,128,164470,5,0,0:0:0
168,128,164770,6,0,P|224:80|312:104,1,160
360,160,165670,1,0,0:0:0
392,240,165970,2,0,P|336:288|248:264,1,160
192,216,166870,1,0,0:0:0
112,192,167170,6,0,P|32:192,2,80
192,48,168370,1,0,0:0:0
352,104,168970,2,0,P|446:140,1,80
472,208,169570,6,0,P|488:280|432:360,1,160,4|0,0:0|0:0,0:0:0
360,360,170470,1,0,0:0:0
288,320,170770,2,0,P|272:248|328:168,1,160
272,104,171670,1,0,0:0:0
200,56,171970,6,0,P|120:48|40:112,1,160
32,168,172870,1,0,0:0:0
112,152,173170,2,0,P|104:328,1,160
272,344,174370,6,0,P|360:344|424:280,1,160,4|0,0:0|0:0,0:0:0
448,224,175270,1,0,0:0:0
432,144,175570,2,0,P|344:144|280:208,1,160
256,264,176470,1,0,0:0:0
176,296,176770,6,0,P|136:304|96:296,1,80
16,272,177370,1,0,0:0:0
96,128,177970,1,0,0:0:0
256,72,178570,2,0,P|288:152,1,80
256,224,179170,6,0,P|248:296|304:360,1,160,4|0,0:0|0:0,0:0:0
376,320,180070,1,0,0:0:0
408,240,180370,2,0,P|416:168|360:104,1,160,0|0,0:0|0:0,0:0:0
280,80,181270,1,0,0:0:0
200,104,181570,6,0,P|144:112|72:80,2,120
280,80,182770,2,0,P|280:272,1,160
240,312,183670,1,0,0:0:0
160,344,183970,6,0,P|120:344|80:320,1,80,4|0,0:0|0:0,0:0:0
32,264,184555,2,0,P|16:224|24:176,1,80
48,112,185140,2,0,P|208:56,1,160
280,80,186018,1,0,0:0:0
336,144,186311,6,0,P|320:224|360:296,1,160
440,280,187189,1,0,0:0:0
472,200,187482,2,0,P|488:120,2,80
368,64,188652,6,0,P|296:48|224:96,1,160,4|0,0:0|0:0,0:0:0
200,176,189509,1,0,0:0:0
232,256,189794,2,0,P|162:300|88:288,1,160
24,232,190652,1,0,0:0:0
40,152,190937,5,4,0:0:0
176,56,191509,1,4,0:0:0
104,208,192080,2,0,P|192:208,1,80
272,208,192652,2,0,P|376:208,1,80
440,208,193223,5,4,0:0:0
352,352,193781,1,0,0:0:0
208,264,194339,2,0,P|173:190|192:112,1,160
336,40,195455,6,0,P|371:114|352:192,1,160
288,240,196292,1,0,0:0:0
208,264,196571,2,0,P|40:312,1,160
96,144,197688,5,0,0:0:0
232,48,198246,1,0,0:0:0
392,88,198804,2,0,P|433:86|464:64,2,80
456,240,199920,5,4,0:0:0
336,344,200478,1,4,0:0:0
200,264,201036,1,4,0:0:0
232,104,201595,1,4,0:0:0
392,88,202153,6,0,P|392:160|336:224,1,160
168,256,203243,2,0,P|88:256|16:200,1,160
88,56,204334,6,0,P|168:56|240:112,1,160
280,168,205153,1,0,0:0:0
248,248,205425,2,0,P|311:292|391:292,1,160
360,136,206516,6,0,P|360:80|320:16,1,120.000004577637
184,24,207686,2,0,P|150:76|150:132,1,120.000004577637
256,192,208949,12,4,211184,0:0:0
