osu file format v9

[General]
AudioFilename: Rogue Traders - Voodoo Child.mp3
AudioLeadIn: 0
PreviewTime: 65332
Countdown: 1
SampleSet: Normal
StackLeniency: 0.7
Mode: 0
LetterboxInBreaks: 1

[Editor]
Bookmarks: 14596,29092,43588,58084,65332,72580,79828,87076,94324,101572,116068,130564,137812,145060,152308,163180,166804
DistanceSpacing: 0.9
BeatDivisor: 4
GridSize: 8

[Metadata]
Title:Voodoo Child
Artist:Rogue Traders
Creator:iMuffin
Version:Hard
Source:
Tags:

[Difficulty]
HPDrainRate:6
CircleSize:4
OverallDifficulty:7
ApproachRate:8
SliderMultiplier:1.8
SliderTickRate:2

[Events]
//Background and Video events
0,0,"genaro-desia-coppola-atari-wallpaper-1024x768.jpg"
//Break Periods
2,57831,64582
2,130311,137062
//Storyboard Layer 0 (Background)
//Storyboard Layer 1 (Fail)
//Storyboard Layer 2 (Pass)
//Storyboard Layer 3 (Foreground)
//Storyboard Sound Samples
//Background Colour Transformations
3,100,163,162,255

[TimingPoints]
100,453.001132502831,4,1,0,100,1,0
65332,-100,4,1,0,100,0,1
87076,-100,4,1,0,100,0,0
137812,-100,4,1,0,100,0,1
163180,-100,4,1,0,100,0,0

[HitObjects]
112,88,14596,5,4
264,136,15049,1,8
136,240,15502,1,4
216,256,15728,1,0
160,312,15955,1,8
240,328,16181,1,0
400,344,16634,5,0
448,280,16861,1,8
480,208,17087,1,0
320,208,17314,1,4
456,128,17540,1,0
296,128,17767,1,8
136,120,18220,6,0,B|64:176|64:288,1,180,4|8
224,280,19126,1,4
288,232,19352,1,0
224,184,19579,1,8
288,136,19805,1,0
424,48,20258,5,0
424,128,20485,1,8
472,200,20711,1,0
376,200,20938,1,4
512,272,21164,1,0
336,272,21391,1,8
192,272,21844,5,4
56,360,22297,1,8
56,200,22750,1,4
112,144,22976,1,0
176,96,23203,1,8
240,48,23429,1,0
400,48,23882,5,0
456,112,24109,1,8
480,184,24335,1,0
320,184,24562,1,4
464,264,24788,1,0
304,264,25015,1,8
144,264,25468,6,0,B|64:200|88:96,1,180,4|8
232,40,26374,1,4
264,112,26600,1,0
232,184,26827,1,8
280,248,27053,1,0
144,328,27506,5,0
144,248,27733,1,8
96,168,27959,1,0
192,168,28186,1,4
64,96,28412,1,0
240,96,28639,1,8
392,40,29092,6,2,B|480:72|496:192|480:208,1,180,6|8
376,296,29998,1,4
312,344,30224,1,0
248,296,30451,1,8
184,344,30677,2,10,B|112:288|128:168,1,180,0|0
80,120,31357,1,4
184,120,31583,1,0
136,40,31810,2,0,B|232:40,1,90,8|0
272,120,32263,1,4
416,40,32716,6,2,B|472:216,1,180,4|8
440,288,33395,1,0
360,304,33622,2,2,B|192:216,1,180,0|8
201,220,34301,1,0
80,112,34754,5,0
160,112,34981,1,8
232,72,35207,1,0
232,152,35433,1,4
304,24,35660,1,0
304,200,35887,1,8
384,112,36340,5,4
464,256,36793,1,8
416,320,37020,1,0
376,248,37246,1,4
336,320,37472,1,0
296,248,37699,1,8
464,168,37925,2,2,B|408:128|344:128|296:168,1,180
256,320,38831,5,0
216,248,39058,1,8
176,320,39284,1,0
136,248,39511,1,4
96,320,39737,1,0
16,320,39964,2,0,B|16:208|80:152,3,180,8|4|8|4
200,48,41776,5,2
256,200,42229,1,2
312,48,42682,1,2
376,200,43135,1,2
464,336,43588,6,2,B|384:376|280:336,1,180,4|8
376,200,44494,2,0,B|288:176,1,90,4|0
344,112,44947,2,0,B|248:88,1,90,8|0
184,48,45400,2,2,B|144:96|144:160|216:208,1,180,4|8
280,232,46079,1,0
344,184,46306,1,4
408,232,46532,1,0
472,184,46759,1,8
464,344,47212,6,0,B|368:344,1,90,4|0
296,344,47665,2,0,B|248:296|248:232|296:176,2,180,8|4|8
136,344,49024,2,0,B|88:296|88:232|136:176,2,180,4|8|4
280,264,50383,5,4
328,200,50609,1,0
280,144,50836,1,8
224,200,51062,1,0
184,272,51289,2,2,B|120:216|160:144|208:120,1,180,4|8
368,120,52195,2,2,B|432:176|392:248|344:272,1,180,4|8
200,336,53101,5,4
144,272,53327,1,0
264,272,53554,1,8
88,216,53780,1,0
328,216,54007,1,4
208,184,54233,2,0,B|208:96,1,90,0|8
208,95,54686,1,0
280,56,54913,2,0,B|240:-8|168:-8|128:64,2,180,4|8|4
400,168,56272,5,2
400,328,56725,1,2
240,328,57178,1,2
240,168,57631,1,2
408,128,65332,6,2,B|376:72|288:72|256:128,1,180,4|8
408,200,66238,2,2,B|376:256|280:256|256:200,1,180,4|8
224,128,66917,2,0,B|136:128,1,90,0|4
200,176,67370,2,0,B|104:176,1,90,0|8
176,224,67823,2,0,B|80:224,2,90,0|4|0
176,224,68503,1,8
416,240,69182,6,0,B|416:136,1,90,0|8
360,88,69635,1,0
472,88,69862,1,4
416,24,70088,1,0
304,24,70315,1,8
64,32,70994,6,0,B|64:136,2,90,0|4|0
64,32,71674,1,8
384,32,72580,5,4
456,176,73033,1,8
296,160,73486,1,4
352,312,73939,1,8
352,312,74165,1,0
192,312,74618,2,2,B|80:312|48:200,1,180
55,218,75298,1,4
104,64,75751,1,8
344,64,76430,6,0,B|432:64,1,90,0|4
432,144,76883,2,0,B|344:144,1,90,0|8
176,144,77563,1,4
128,296,78016,6,0,B|216:296,1,90,8|0
296,296,78469,1,4
456,296,78922,1,8
376,40,79828,5,4
216,48,80281,1,8
336,160,80734,1,4
176,168,81187,2,0,B|128:248,1,90,8|0
80,176,81640,2,0,B|32:256,1,90,4|0
104,288,82093,2,0,B|48:376,1,90,8|0
128,384,82546,2,0,B|184:296,1,90,4|0
176,312,82999,1,8
352,136,83678,5,0
416,88,83905,1,8
272,104,84131,1,0
384,8,84358,1,4
304,24,84584,1,0
304,24,84811,1,8
72,96,85490,5,0
136,144,85717,1,4
72,192,85943,1,0
136,240,86170,1,8
456,296,87076,6,2,B|504:208|464:112,1,180,4|8
336,32,87982,1,4
176,32,88435,1,8
120,88,88661,1,0
72,152,88888,2,2,B|72:248|168:312,1,180,0|8
320,312,89794,2,0,B|400:272|440:168,2,180,4|8|4
256,192,91153,12,8,93871
184,88,94324,5,4
328,160,94777,1,8
176,224,95229,1,4
240,272,95456,1,0
176,320,95683,1,8
240,368,95909,1,0
392,320,96362,6,0,B|480:280,1,90,0|8
448,208,96815,2,0,B|360:248,1,90,0|4
328,176,97268,2,0,B|408:136,1,90,0|8
280,32,97948,6,2,B|176:32|112:96,1,180,4|8
40,232,98854,1,4
120,232,99080,1,0
80,304,99307,1,8
160,304,99533,2,2,B|256:272|312:200,1,180
400,72,100439,1,0
456,128,100666,1,4
376,144,100892,1,0
432,200,101119,1,8
312,304,101572,6,2,B|216:312|144:240,1,180,4|8
80,96,102478,1,4
40,24,102704,1,0
120,24,102931,2,0,B|208:24,1,90,8|0
376,24,103611,5,0
456,24,103837,1,8
320,88,104064,1,0
512,88,104290,1,4
376,152,104517,1,0
456,152,104743,1,8
416,312,105196,5,4
344,352,105422,1,0
272,312,105649,2,0,B|192:376|104:312,2,180,8|0|8
400,216,107008,5,2
488,80,107461,1,2
280,152,107914,1,2
384,24,108367,5,4
304,48,108593,1,0
224,32,108820,2,0,B|128:64,1,90,8|0
160,136,109273,2,0,B|256:104,1,90,4|0
264,184,109726,1,8
184,208,109952,2,2,B|232:288|344:272,1,180
480,192,110858,5,0
480,272,111085,1,8
432,336,111311,1,0
352,336,111538,1,4
304,272,111764,1,0
304,192,111991,6,0,B|224:144,1,90,8|0
296,104,112444,2,0,B|208:56,1,90,4|0
227,146,112897,2,4,B|131:130|51:178,2,180,8|4|8
336,264,114256,5,2
448,152,114709,1,2
352,24,115162,1,2
256,152,115615,1,2
160,24,116068,6,2,B|32:32|48:160,1,180,4|8
88,288,116973,1,4
144,344,117200,1,0
208,288,117426,1,8
264,344,117653,1,0
408,272,118106,5,0
328,272,118333,1,4
456,184,118559,1,0
288,184,118786,1,8
376,136,119012,1,0
376,136,119239,1,4
376,136,119465,5,0
320,72,119692,1,8
240,56,119918,1,0
160,56,120145,2,2,B|56:56|-8:144,1,180,4|8
72,280,121051,2,2,B|176:280|240:192,1,180,4|0
160,56,121957,5,4
104,112,122183,1,0
160,168,122410,1,8
104,224,122636,1,0
152,288,122863,1,4
304,336,123316,6,2,B|408:336|472:248,1,180,4|8
440,184,123995,2,0,B|352:224,1,90,0|4
312,152,124448,2,0,B|392:112,1,90,0|8
472,72,124901,5,0
312,72,125354,1,0
312,232,125807,1,0
240,264,126034,1,4
168,232,126260,1,0
96,264,126487,1,8
40,112,126940,5,4
96,56,127166,1,0
176,48,127393,1,8
336,48,127846,5,4
416,56,128073,1,0
472,112,128299,1,8
496,192,128525,1,0
336,200,128978,5,0
280,264,129205,1,4
200,280,129431,1,0
176,200,129658,5,2
336,200,130111,5,2
112,104,137812,5,4
192,248,138265,1,8
272,104,138718,1,4
352,248,139171,1,8
408,192,139397,1,0
352,248,139624,1,4
296,192,139850,1,0
352,248,140077,1,8
448,272,140303,2,0,B|392:344,1,90,0|4
312,336,140756,2,0,B|248:264,1,90,0|8
88,88,141662,5,0
152,136,141889,1,8
224,168,142115,1,0
304,144,142342,1,4
360,88,142568,1,0
224,64,142795,1,8
80,256,143474,5,0
128,320,143701,1,8
208,336,143927,1,0
264,280,144154,2,2,B|224:184|112:176,1,180,4|8
256,80,145060,6,2,B|352:56|440:88,1,180,4|8
432,248,145966,2,2,B|336:272|248:240,1,180,4|8
120,152,146872,6,0,B|72:232,1,90,4|0
144,264,147325,2,0,B|192:168,1,90,8|0
256,216,147778,2,0,B|216:304,1,90,4|0
296,328,148231,2,0,B|336:240,1,90,8|0
432,120,148910,5,0
400,48,149137,1,8
320,72,149363,1,0
264,16,149590,2,2,B|168:48|120:128,1,180,4|8
56,272,150496,5,4
120,320,150722,1,0
200,312,150949,2,0,B|296:280|360:216,2,180,8|4|8
216,152,152308,5,4
64,104,152761,1,8
88,264,153214,1,4
232,336,153667,2,0,B|288:264,1,90,8|0
288,264,154120,1,4
344,208,154346,1,0
400,152,154573,2,0,B|464:72,1,90,8|0
456,81,155026,1,4
376,72,155252,1,0
400,152,155479,1,8
232,328,156158,5,0
168,280,156385,2,0,B|96:224,1,90,8|0
168,192,156838,2,0,B|96:136,1,90,4|0
96,136,157291,1,8
320,32,157970,5,0
376,96,158197,1,8
312,144,158423,1,0
352,216,158650,2,2,B|393:303|320:393,1,180,4|8
168,376,159556,6,2,B|126:288|199:198,1,180,4|8
320,112,160462,1,4
480,88,160915,1,8
432,152,161141,1,0
480,216,161368,1,4
432,280,161594,1,0
488,336,161821,2,0,B|400:368|312:376|208:360|128:328,1,360,8|8
256,192,163633,12,8,166351
