osu file format v9

[General]
AudioFilename: Rodrigo Zea- Pokemon Johto.mp3
AudioLeadIn: 3000
PreviewTime: 26270
Countdown: 0
SampleSet: Soft
StackLeniency: 0.7
Mode: 0
LetterboxInBreaks: 1

[Editor]
DistanceSpacing: 1
BeatDivisor: 4
GridSize: 8

[Metadata]
Title:Los Viajes Johto
Artist:Rodrigo Zea
Creator:KenezzEdward
Version:Normal
Source:Pokemon: Los Viajes Johto
Tags:Astom Krisom Journeys opening kenezz journies

[Difficulty]
HPDrainRate:3
CircleSize:3
OverallDifficulty:3
ApproachRate:3
SliderMultiplier:1.2
SliderTickRate:2

[Events]
//Background and Video events
0,0,"BG.png"
Video,0,"Pokemon Johtoo.avi"
//Break Periods
//Storyboard Layer 0 (Background)
//Storyboard Layer 1 (Fail)
//Storyboard Layer 2 (Pass)
//Storyboard Layer 3 (Foreground)
//Storyboard Sound Samples
//Background Colour Transformations
3,100,0,0,0

[TimingPoints]
1084,516.528925619835,4,2,1,80,1,0
25877,-100,4,1,1,80,0,0
26393,-100,4,1,1,100,0,0
26910,-100,4,2,1,80,0,1
40856,-100,4,2,1,80,0,0
59968,-100,4,2,1,80,0,1
60032,-100,4,2,1,80,0,0

[Colours]
Combo1 : 255,100,100
Combo2 : 255,255,128
Combo3 : 0,255,128
Combo4 : 0,128,255

[HitObjects]
192,48,50,6,0,B|312:48,2,120,8|8|4
256,176,1600,5,8
200,176,1858,1,0
136,176,2117,2,0,B|112:232|136:296,1,120,0|8
256,88,3666,1,8
320,88,3924,1,0
376,88,4183,2,0,B|400:144|376:208,1,120,0|8
376,328,5216,5,4
256,328,5732,2,0,B|256:264,2,60,8|0|0
136,328,6765,2,0,B|72:328,2,60,8|0|0
136,208,7798,2,0,B|136:136|216:136,2,120,8|0|8
256,240,9348,5,4
256,240,9606,1,0
256,240,9864,1,8
176,152,10381,2,0,B|176:88|256:40|336:88|336:152,1,240
256,240,11931,1,8
256,360,12447,1,0
256,360,12705,1,0
256,360,12964,1,8
256,240,13480,5,4
360,296,13997,2,0,B|382:234|358:178,1,120,8|0
312,72,15030,2,0,B|256:48|192:72,1,120,8|0
144,184,16063,1,8
256,232,16579,1,0
256,232,16838,1,0
256,232,17096,1,8
256,112,17612,5,4
256,112,17871,1,0
256,112,18129,1,8
376,248,18904,1,0
376,248,19162,2,0,B|256:248,1,120,8|0
136,248,20195,2,0,B|59:248|59:176,2,120,8|0|8
136,128,21745,5,4
136,128,22003,1,0
136,128,22261,1,8
312,128,23036,1,0
312,128,23294,6,0,B|352:184|312:240,1,120,8|0
192,240,24327,2,0,B|72:240,1,120,8|0
136,136,25360,2,0,B|220:51,1,120,8|0
344,56,26393,1,0
344,176,26910,6,0,B|344:248|264:248,1,120,4|8
144,248,27943,1,0
144,128,28460,1,8
208,128,28718,1,0
264,128,28976,1,0
384,128,29493,2,0,B|424:184|384:240,2,120,8|0|8
312,32,31042,6,0,B|192:32,1,120,4|8
256,136,32075,1,0
256,256,32592,1,8
312,240,32850,1,0
328,184,33108,1,0
328,64,33625,2,0,B|448:64,2,120,8|0|8
328,184,35174,5,4
256,280,35691,1,8
176,184,36207,1,0
256,56,37241,6,0,B|136:56,1,120,4|8
200,160,38274,1,0
136,256,38790,6,0,B|256:256,1,120,8|0
376,256,39823,1,8
344,136,40340,1,0
256,56,40856,1,8
168,136,41373,1,4
256,192,41631,12,0,43439
64,88,43955,6,0,B|120:48|176:88,1,120,8|0
120,192,44988,1,8
336,296,46022,2,0,B|392:336|448:296,1,120,8|0
392,192,47055,1,8
152,192,48088,6,0,B|152:256,2,60,8|0|0
272,192,49121,2,0,B|325:192|325:136|373:136,1,120,8|0
376,256,50154,2,0,B|291:340,2,120,8|0|8
376,136,51703,6,0,B|440:136,2,60,4|0|8
256,136,52736,2,0,B|256:72,2,60,0|0|8
152,192,53769,1,0
48,136,54286,2,0,B|16:192|48:256,2,120,8|0|8
152,192,55836,6,0,B|272:192,1,120,4|8
336,296,56869,2,0,B|216:296,2,120,0|8|0
336,176,58418,1,8
256,88,58935,1,0
136,88,59451,2,0,B|136:152,2,60,8|0|4
