osu file format v13

[General]
AudioFilename: 5min.mp3
AudioLeadIn: 0
PreviewTime: -1
Countdown: 1
SampleSet: Soft
StackLeniency: 0.7
Mode: 3
LetterboxInBreaks: 1
SpecialStyle: 1
WidescreenStoryboard: 0

[Editor]
DistanceSpacing: 1
BeatDivisor: 1
GridSize: 4
TimelineZoom: 1

[Metadata]
Title:Dr Wily Stage 2
TitleUnicode:Dr Wily Stage 2
Artist:Rockman 2
ArtistUnicode:Rockman 2
Creator:Kevs
Version:Normal
Source:MegaMan2, Lunatic Rave 2
Tags:Okkusenman Rockman Mega Man 2
BeatmapID:554470
BeatmapSetID:239838

[Difficulty]
HPDrainRate:5
CircleSize:6
OverallDifficulty:5
ApproachRate:5
SliderMultiplier:1.4
SliderTickRate:1

[Events]
//Background and Video events
//Break Periods
//Storyboard Layer 0 (Background)
//Storyboard Layer 1 (Fail)
//Storyboard Layer 2 (Pass)
//Storyboard Layer 3 (Foreground)
//Storyboard Sound Samples
Sample,2666,0,"FMbs_-2ra450.wav",70
Sample,2666,0,"sq01.wav",70
Sample,2666,0,"stw_2ra480.wav",70
Sample,3666,0,"ce_4reb060.wav",70
Sample,3833,0,"ce_3si120.wav",70
Sample,4000,0,"stw_2si480.wav",70
Sample,4000,0,"sq01.wav",70
Sample,4000,0,"FMbs_-2si450.wav",70
Sample,4166,0,"ce_3ra120.wav",70
Sample,4500,0,"ce_3so#120.wav",70
Sample,4833,0,"ce_3fa#120.wav",70
Sample,5166,0,"ce_3fa#120.wav",70
Sample,5333,0,"FMbs_-1reb690.wav",70
Sample,5333,0,"sq02.wav",70
Sample,5333,0,"stw_3reb960.wav",70
Sample,6666,0,"sq02.wav",70
Sample,7333,0,"FMbs_-1reb120.wav",70
Sample,7666,0,"FMbs_-2si120.wav",70
Sample,8000,0,"FMbs_-2ra450.wav",70
Sample,8000,0,"dm_close-hat.wav",70
Sample,8000,0,"stw_2ra480.wav",70
Sample,8000,0,"sq01.wav",70
Sample,8166,0,"dm_open-hat.wav",70
Sample,8333,0,"dm_close-hat.wav",70
Sample,8500,0,"dm_open-hat.wav",70
Sample,8666,0,"dm_close-hat.wav",70
Sample,8833,0,"dm_open-hat.wav",70
Sample,9000,0,"dm_close-hat.wav",70
Sample,9000,0,"ce_4reb060.wav",70
Sample,9166,0,"ce_3si120.wav",70
Sample,9166,0,"dm_open-hat.wav",70
Sample,9333,0,"FMbs_-2si450.wav",70
Sample,9333,0,"dm_close-hat.wav",70
Sample,9333,0,"stw_2si480.wav",70
Sample,9333,0,"sq01.wav",70
Sample,9500,0,"dm_open-hat.wav",70
Sample,9500,0,"ce_3ra120.wav",70
Sample,9666,0,"dm_close-hat.wav",70
Sample,9833,0,"ce_3so#120.wav",70
Sample,9833,0,"dm_open-hat.wav",70
Sample,10000,0,"dm_close-hat.wav",70
Sample,10166,0,"dm_open-hat.wav",70
Sample,10166,0,"ce_3fa#120.wav",70
Sample,10333,0,"dm_close-hat.wav",70
Sample,10500,0,"dm_open-hat.wav",70
Sample,10666,0,"ce_3mib060.wav",70
Sample,10666,0,"stw_3reb960.wav",70
Sample,10666,0,"FMbs_-1reb690.wav",70
Sample,10666,0,"sq02.wav",70
Sample,10666,0,"dm_close-hat.wav",70
Sample,10666,0,"dm_kick.wav",70
Sample,10833,0,"dm_open-hat.wav",70
Sample,10833,0,"ce_3mi060.wav",70
Sample,11000,0,"dm_kick.wav",70
Sample,11000,0,"dm_close-hat.wav",70
Sample,11000,0,"ce_3mib060.wav",70
Sample,11166,0,"dm_open-hat.wav",70
Sample,11166,0,"ce_3reb420.wav",70
Sample,11333,0,"dm_close-hat.wav",70
Sample,11333,0,"dm_kick.wav",70
Sample,11500,0,"dm_open-hat.wav",70
Sample,11666,0,"dm_kick.wav",70
Sample,11666,0,"dm_close-hat.wav",70
Sample,11833,0,"dm_open-hat.wav",70
Sample,12000,0,"dm_close-hat.wav",70
Sample,12000,0,"sq02.wav",70
Sample,12000,0,"dm_kick.wav",70
Sample,12083,0,"dm_close-hat.wav",70
Sample,12166,0,"dm_close-hat.wav",70
Sample,12250,0,"dm_close-hat.wav",70
Sample,12333,0,"dm_kick.wav",70
Sample,12333,0,"dm_close-hat.wav",70
Sample,12333,0,"dm_snare01.wav",70
Sample,12416,0,"dm_close-hat.wav",70
Sample,12500,0,"dm_close-hat.wav",70
Sample,12583,0,"dm_close-hat.wav",70
Sample,12583,0,"dm_snare01.wav",70
Sample,12666,0,"dm_close-hat.wav",70
Sample,12666,0,"dm_kick.wav",70
Sample,12666,0,"bs_-2si030.wav",70
Sample,12750,0,"dm_close-hat.wav",70
Sample,12833,0,"bs_-1do030.wav",70
Sample,12833,0,"dm_close-hat.wav",70
Sample,12833,0,"dm_snare01.wav",70
Sample,12916,0,"dm_close-hat.wav",70
Sample,13000,0,"dm_kick.wav",70
Sample,13000,0,"dm_snare01.wav",70
Sample,13000,0,"dm_close-hat.wav",70
Sample,13000,0,"bs_-1reb120.wav",70
Sample,13083,0,"dm_close-hat.wav",70
Sample,13166,0,"dm_cymbal.wav",70
Sample,13166,0,"dm_kick.wav",70
Sample,13166,0,"dm_close-hat.wav",70
Sample,13333,0,"fgt_0mi900.wav",70
Sample,13333,0,"p5blass_01.wav",70
Sample,13333,0,"dm_close-hat.wav",70
Sample,13333,0,"dm_kick.wav",70
Sample,13333,0,"bs_-1reb030.wav",70
Sample,13500,0,"dm_open-hat.wav",70
Sample,13500,0,"sy_2mi030.wav",70
Sample,13500,0,"bs_0reb060.wav",70
Sample,13583,0,"sy_2mi030.wav",70
Sample,13666,0,"dm_kick.wav",70
Sample,13666,0,"dm_close-hat.wav",70
Sample,13666,0,"bs_-1reb030.wav",70
Sample,13666,0,"sy_2mi060.wav",70
Sample,13666,0,"dm_snare01.wav",70
Sample,13666,0,"dm_snare03.wav",70
Sample,13833,0,"bs_0reb060.wav",70
Sample,13833,0,"dm_open-hat.wav",70
Sample,13833,0,"sy_2mi030.wav",70
Sample,13916,0,"sy_2mi030.wav",70
Sample,14000,0,"dm_kick.wav",70
Sample,14000,0,"bs_-1reb030.wav",70
Sample,14000,0,"sy_2mi060.wav",70
Sample,14000,0,"dm_close-hat.wav",70
Sample,14166,0,"sy_2reb060.wav",70
Sample,14166,0,"dm_open-hat.wav",70
Sample,14166,0,"bs_0reb060.wav",70
Sample,14333,0,"bs_-1reb030.wav",70
Sample,14333,0,"dm_close-hat.wav",70
Sample,14333,0,"dm_snare01.wav",70
Sample,14333,0,"dm_snare03.wav",70
Sample,14333,0,"dm_kick.wav",70
Sample,14500,0,"bs_0reb060.wav",70
Sample,14500,0,"sy_2reb030.wav",70
Sample,14500,0,"dm_open-hat.wav",70
Sample,14583,0,"sy_2reb030.wav",70
Sample,14666,0,"dm_kick.wav",70
Sample,14666,0,"dm_close-hat.wav",70
Sample,14666,0,"sy_2mi060.wav",70
Sample,14666,0,"bs_-1reb030.wav",70
Sample,14833,0,"dm_open-hat.wav",70
Sample,14833,0,"sy_2mi030.wav",70
Sample,14833,0,"bs_0reb060.wav",70
Sample,14916,0,"sy_2mi030.wav",70
Sample,15000,0,"dm_snare03.wav",70
Sample,15000,0,"dm_close-hat.wav",70
Sample,15000,0,"bs_-1reb030.wav",70
Sample,15000,0,"sy_2mi060.wav",70
Sample,15000,0,"dm_snare01.wav",70
Sample,15000,0,"dm_kick.wav",70
Sample,15166,0,"bs_0reb060.wav",70
Sample,15166,0,"dm_open-hat.wav",70
Sample,15166,0,"sy_2reb060.wav",70
Sample,15333,0,"dm_kick.wav",70
Sample,15333,0,"dm_close-hat.wav",70
Sample,15333,0,"bs_-1reb030.wav",70
Sample,15500,0,"sy_2so#060.wav",70
Sample,15500,0,"dm_open-hat.wav",70
Sample,15500,0,"ce_4so#060.wav",70
Sample,15500,0,"bs_0reb060.wav",70
Sample,15666,0,"bs_-1reb030.wav",70
Sample,15666,0,"dm_kick.wav",70
Sample,15666,0,"dm_close-hat.wav",70
Sample,15666,0,"dm_snare01.wav",70
Sample,15666,0,"sy_2fa#060.wav",70
Sample,15666,0,"dm_cymbal02.wav",70
Sample,15666,0,"dm_snare03.wav",70
Sample,15666,0,"ce_4fa#060.wav",70
Sample,15833,0,"sy_2so#060.wav",70
Sample,15833,0,"bs_0reb060.wav",70
Sample,15833,0,"ce_4so#060.wav",70
Sample,15833,0,"dm_open-hat.wav",70
Sample,16000,0,"dm_kick.wav",70
Sample,16000,0,"bs_-2ra030.wav",70
Sample,16000,0,"dm_close-hat.wav",70
Sample,16000,0,"fgt_0reb900.wav",70
Sample,16000,0,"p5blass_02.wav",70
Sample,16166,0,"bs_-1ra060.wav",70
Sample,16166,0,"dm_open-hat.wav",70
Sample,16166,0,"sy_2mi030.wav",70
Sample,16249,0,"sy_2mi030.wav",70
Sample,16333,0,"dm_snare03.wav",70
Sample,16333,0,"dm_kick.wav",70
Sample,16333,0,"sy_2mi060.wav",70
Sample,16333,0,"dm_close-hat.wav",70
Sample,16333,0,"bs_-2ra030.wav",70
Sample,16333,0,"dm_snare01.wav",70
Sample,16500,0,"sy_2mi030.wav",70
Sample,16500,0,"dm_open-hat.wav",70
Sample,16500,0,"bs_-1ra060.wav",70
Sample,16583,0,"sy_2mi030.wav",70
Sample,16666,0,"sy_2mi060.wav",70
Sample,16666,0,"bs_-2ra030.wav",70
Sample,16666,0,"dm_kick.wav",70
Sample,16666,0,"dm_close-hat.wav",70
Sample,16833,0,"bs_-1ra060.wav",70
Sample,16833,0,"dm_open-hat.wav",70
Sample,16833,0,"sy_2reb060.wav",70
Sample,17000,0,"dm_close-hat.wav",70
Sample,17000,0,"dm_snare01.wav",70
Sample,17000,0,"dm_kick.wav",70
Sample,17000,0,"bs_-2ra030.wav",70
Sample,17000,0,"dm_snare03.wav",70
Sample,17166,0,"dm_open-hat.wav",70
Sample,17166,0,"ce_4so#060.wav",70
Sample,17166,0,"sy_2so#060.wav",70
Sample,17166,0,"bs_-1ra060.wav",70
Sample,17333,0,"dm_kick.wav",70
Sample,17333,0,"dm_close-hat.wav",70
Sample,17333,0,"bs_-2ra030.wav",70
Sample,17500,0,"dm_open-hat.wav",70
Sample,17500,0,"sy_2fa#060.wav",70
Sample,17500,0,"ce_4fa#060.wav",70
Sample,17500,0,"bs_-1ra060.wav",70
Sample,17666,0,"dm_snare03.wav",70
Sample,17666,0,"bs_-2ra030.wav",70
Sample,17666,0,"dm_close-hat.wav",70
Sample,17666,0,"dm_snare01.wav",70
Sample,17666,0,"dm_kick.wav",70
Sample,17833,0,"sy_2mi060.wav",70
Sample,17833,0,"bs_-1ra060.wav",70
Sample,17833,0,"ce_4mi060.wav",70
Sample,17833,0,"dm_open-hat.wav",70
Sample,18000,0,"bs_-2ra030.wav",70
Sample,18000,0,"dm_close-hat.wav",70
Sample,18000,0,"dm_kick.wav",70
Sample,18166,0,"sy_2fa#060.wav",70
Sample,18166,0,"ce_4fa#060.wav",70
Sample,18166,0,"dm_open-hat.wav",70
Sample,18166,0,"bs_-1ra060.wav",70
Sample,18333,0,"dm_close-hat.wav",70
Sample,18333,0,"dm_snare01.wav",70
Sample,18333,0,"bs_-2ra030.wav",70
Sample,18333,0,"dm_snare03.wav",70
Sample,18333,0,"dm_kick.wav",70
Sample,18333,0,"dm_cymbal02.wav",70
Sample,18500,0,"bs_-1ra060.wav",70
Sample,18500,0,"dm_open-hat.wav",70
Sample,18666,0,"dm_kick.wav",70
Sample,18666,0,"bs_-2si030.wav",70
Sample,18666,0,"dm_close-hat.wav",70
Sample,18666,0,"fgt_0mib780.wav",70
Sample,18666,0,"p5blass_03.wav",70
Sample,18833,0,"bs_-1si060.wav",70
Sample,18833,0,"sy_2fa#030.wav",70
Sample,18833,0,"dm_open-hat.wav",70
Sample,18916,0,"sy_2fa#030.wav",70
Sample,19000,0,"dm_snare03.wav",70
Sample,19000,0,"dm_kick.wav",70
Sample,19000,0,"dm_snare01.wav",70
Sample,19000,0,"dm_close-hat.wav",70
Sample,19000,0,"bs_-2si030.wav",70
Sample,19000,0,"sy_2fa#060.wav",70
Sample,19166,0,"dm_open-hat.wav",70
Sample,19166,0,"sy_2fa#030.wav",70
Sample,19166,0,"bs_-1si060.wav",70
Sample,19250,0,"sy_2fa#030.wav",70
Sample,19333,0,"bs_-2si030.wav",70
Sample,19333,0,"sy_2fa#060.wav",70
Sample,19333,0,"dm_close-hat.wav",70
Sample,19333,0,"dm_kick.wav",70
Sample,19500,0,"bs_-1si060.wav",70
Sample,19500,0,"dm_open-hat.wav",70
Sample,19500,0,"sy_2mib060.wav",70
Sample,19666,0,"dm_close-hat.wav",70
Sample,19666,0,"dm_kick.wav",70
Sample,19666,0,"dm_snare01.wav",70
Sample,19666,0,"dm_snare03.wav",70
Sample,19666,0,"bs_-2si030.wav",70
Sample,19833,0,"sy_2so#060.wav",70
Sample,19833,0,"dm_open-hat.wav",70
Sample,19833,0,"ce_4so#060.wav",70
Sample,19833,0,"bs_-1si060.wav",70
Sample,20000,0,"dm_kick.wav",70
Sample,20000,0,"dm_close-hat.wav",70
Sample,20000,0,"bs_-2si030.wav",70
Sample,20166,0,"sy_2fa#060.wav",70
Sample,20166,0,"dm_open-hat.wav",70
Sample,20166,0,"ce_4fa#060.wav",70
Sample,20166,0,"bs_-1si060.wav",70
Sample,20333,0,"bs_-2si030.wav",70
Sample,20333,0,"dm_snare01.wav",70
Sample,20333,0,"dm_snare03.wav",70
Sample,20333,0,"dm_close-hat.wav",70
Sample,20333,0,"dm_kick.wav",70
Sample,20500,0,"ce_4mi060.wav",70
Sample,20500,0,"bs_-1si060.wav",70
Sample,20500,0,"dm_open-hat.wav",70
Sample,20500,0,"sy_2mi060.wav",70
Sample,20666,0,"dm_kick.wav",70
Sample,20666,0,"dm_close-hat.wav",70
Sample,20666,0,"bs_-2si030.wav",70
Sample,20833,0,"sy_2mib060.wav",70
Sample,20833,0,"ce_4mib060.wav",70
Sample,20833,0,"dm_open-hat.wav",70
Sample,20833,0,"bs_-1si060.wav",70
Sample,21000,0,"dm_close-hat.wav",70
Sample,21000,0,"dm_snare03.wav",70
Sample,21000,0,"bs_-2si030.wav",70
Sample,21000,0,"dm_kick.wav",70
Sample,21000,0,"dm_snare01.wav",70
Sample,21000,0,"dm_cymbal02.wav",70
Sample,21166,0,"bs_-1si060.wav",70
Sample,21166,0,"dm_open-hat.wav",70
Sample,21333,0,"dm_kick.wav",70
Sample,21333,0,"bs_-1reb030.wav",70
Sample,21333,0,"p5blass_01.wav",70
Sample,21333,0,"dm_close-hat.wav",70
Sample,21500,0,"bs_0reb060.wav",70
Sample,21500,0,"dm_open-hat.wav",70
Sample,21666,0,"dm_snare03.wav",70
Sample,21666,0,"dm_close-hat.wav",70
Sample,21666,0,"dm_snare01.wav",70
Sample,21666,0,"bs_-1reb030.wav",70
Sample,21666,0,"dm_kick.wav",70
Sample,21833,0,"dm_open-hat.wav",70
Sample,21833,0,"bs_0reb060.wav",70
Sample,22000,0,"bs_-1reb030.wav",70
Sample,22000,0,"dm_kick.wav",70
Sample,22000,0,"dm_close-hat.wav",70
Sample,22166,0,"bs_0reb060.wav",70
Sample,22166,0,"dm_open-hat.wav",70
Sample,22333,0,"dm_close-hat.wav",70
Sample,22333,0,"dm_snare01.wav",70
Sample,22333,0,"dm_snare03.wav",70
Sample,22333,0,"dm_kick.wav",70
Sample,22333,0,"bs_-1reb030.wav",70
Sample,22500,0,"dm_open-hat.wav",70
Sample,22500,0,"bs_0reb060.wav",70
Sample,22666,0,"bs_-1reb030.wav",70
Sample,22666,0,"dm_kick.wav",70
Sample,22666,0,"dm_close-hat.wav",70
Sample,22833,0,"bs_0reb060.wav",70
Sample,22833,0,"dm_open-hat.wav",70
Sample,23000,0,"dm_snare03.wav",70
Sample,23000,0,"dm_snare01.wav",70
Sample,23000,0,"dm_close-hat.wav",70
Sample,23000,0,"bs_-1reb030.wav",70
Sample,23000,0,"dm_kick.wav",70
Sample,23166,0,"dm_open-hat.wav",70
Sample,23166,0,"bs_0reb060.wav",70
Sample,23333,0,"dm_close-hat.wav",70
Sample,23333,0,"dm_snare02.wav",70
Sample,23333,0,"dm_kick.wav",70
Sample,23333,0,"bs_-1reb030.wav",70
Sample,23416,0,"dm_snare02.wav",70
Sample,23500,0,"bs_0reb060.wav",70
Sample,23500,0,"dm_open-hat.wav",70
Sample,23500,0,"dm_snare02.wav",70
Sample,23583,0,"dm_snare02.wav",70
Sample,23666,0,"dm_snare03.wav",70
Sample,23666,0,"dm_snare01.wav",70
Sample,23666,0,"dm_cymbal02.wav",70
Sample,23666,0,"dm_close-hat.wav",70
Sample,23666,0,"dm_snare02.wav",70
Sample,23666,0,"bs_-1reb030.wav",70
Sample,23666,0,"dm_kick.wav",70
Sample,23666,0,"sy_3mib030.wav",70
Sample,23750,0,"dm_snare02.wav",70
Sample,23833,0,"dm_snare02.wav",70
Sample,23833,0,"dm_cymbal.wav",70
Sample,23833,0,"dm_open-hat.wav",70
Sample,23833,0,"sy_3mi030.wav",70
Sample,23833,0,"bs_0reb060.wav",70
Sample,23916,0,"dm_snare02.wav",70
Sample,24000,0,"fgt_0mi900.wav",70
Sample,24000,0,"p5blass_01.wav",70
Sample,24000,0,"dm_close-hat.wav",70
Sample,24000,0,"dm_kick.wav",70
Sample,24000,0,"bs_-1reb030.wav",70
Sample,24166,0,"sy_2mi030.wav",70
Sample,24166,0,"dm_open-hat.wav",70
Sample,24166,0,"bs_0reb060.wav",70
Sample,24250,0,"sy_2mi030.wav",70
Sample,24333,0,"sy_2mi060.wav",70
Sample,24333,0,"bs_-1reb030.wav",70
Sample,24333,0,"dm_snare01.wav",70
Sample,24333,0,"dm_snare03.wav",70
Sample,24333,0,"dm_kick.wav",70
Sample,24333,0,"dm_close-hat.wav",70
Sample,24500,0,"bs_0reb060.wav",70
Sample,24500,0,"sy_2mi030.wav",70
Sample,24500,0,"dm_open-hat.wav",70
Sample,24583,0,"sy_2mi030.wav",70
Sample,24666,0,"sy_2mi060.wav",70
Sample,24666,0,"bs_-1reb030.wav",70
Sample,24666,0,"dm_kick.wav",70
Sample,24666,0,"dm_close-hat.wav",70
Sample,24833,0,"sy_2reb060.wav",70
Sample,24833,0,"dm_open-hat.wav",70
Sample,24833,0,"bs_0reb060.wav",70
Sample,25000,0,"bs_-1reb030.wav",70
Sample,25000,0,"dm_snare01.wav",70
Sample,25000,0,"dm_kick.wav",70
Sample,25000,0,"dm_snare03.wav",70
Sample,25000,0,"dm_close-hat.wav",70
Sample,25166,0,"bs_0reb060.wav",70
Sample,25166,0,"sy_2reb030.wav",70
Sample,25166,0,"dm_open-hat.wav",70
Sample,25250,0,"sy_2reb030.wav",70
Sample,25333,0,"dm_kick.wav",70
Sample,25333,0,"dm_close-hat.wav",70
Sample,25333,0,"sy_2mi060.wav",70
Sample,25333,0,"bs_-1reb030.wav",70
Sample,25500,0,"dm_open-hat.wav",70
Sample,25500,0,"sy_2mi030.wav",70
Sample,25500,0,"bs_0reb060.wav",70
Sample,25583,0,"sy_2mi030.wav",70
Sample,25666,0,"dm_close-hat.wav",70
Sample,25666,0,"bs_-1reb030.wav",70
Sample,25666,0,"dm_kick.wav",70
Sample,25666,0,"sy_2mi060.wav",70
Sample,25666,0,"dm_snare01.wav",70
Sample,25666,0,"dm_snare03.wav",70
Sample,25833,0,"bs_0reb060.wav",70
Sample,25833,0,"sy_2reb060.wav",70
Sample,25833,0,"dm_open-hat.wav",70
Sample,26000,0,"dm_kick.wav",70
Sample,26000,0,"dm_close-hat.wav",70
Sample,26000,0,"bs_-1reb030.wav",70
Sample,26166,0,"dm_open-hat.wav",70
Sample,26166,0,"sy_2so#060.wav",70
Sample,26166,0,"ce_4so#060.wav",70
Sample,26166,0,"bs_0reb060.wav",70
Sample,26333,0,"dm_snare01.wav",70
Sample,26333,0,"dm_close-hat.wav",70
Sample,26333,0,"ce_4fa#060.wav",70
Sample,26333,0,"dm_cymbal02.wav",70
Sample,26333,0,"bs_-1reb030.wav",70
Sample,26333,0,"sy_2fa#060.wav",70
Sample,26333,0,"dm_snare03.wav",70
Sample,26333,0,"dm_kick.wav",70
Sample,26500,0,"sy_2so#060.wav",70
Sample,26500,0,"bs_0reb060.wav",70
Sample,26500,0,"ce_4so#060.wav",70
Sample,26500,0,"dm_open-hat.wav",70
Sample,26666,0,"dm_kick.wav",70
Sample,26666,0,"bs_-2ra030.wav",70
Sample,26666,0,"dm_close-hat.wav",70
Sample,26666,0,"fgt_0reb900.wav",70
Sample,26666,0,"p5blass_02.wav",70
Sample,26833,0,"bs_-1ra060.wav",70
Sample,26833,0,"sy_2mi030.wav",70
Sample,26833,0,"dm_open-hat.wav",70
Sample,26916,0,"sy_2mi030.wav",70
Sample,27000,0,"dm_snare03.wav",70
Sample,27000,0,"dm_kick.wav",70
Sample,27000,0,"dm_snare01.wav",70
Sample,27000,0,"sy_2mi060.wav",70
Sample,27000,0,"dm_close-hat.wav",70
Sample,27000,0,"bs_-2ra030.wav",70
Sample,27166,0,"sy_2mi030.wav",70
Sample,27166,0,"dm_open-hat.wav",70
Sample,27166,0,"bs_-1ra060.wav",70
Sample,27250,0,"sy_2mi030.wav",70
Sample,27333,0,"dm_close-hat.wav",70
Sample,27333,0,"sy_2mi060.wav",70
Sample,27333,0,"dm_kick.wav",70
Sample,27333,0,"bs_-2ra030.wav",70
Sample,27500,0,"bs_-1ra060.wav",70
Sample,27500,0,"dm_open-hat.wav",70
Sample,27500,0,"sy_2reb060.wav",70
Sample,27666,0,"dm_snare03.wav",70
Sample,27666,0,"dm_snare01.wav",70
Sample,27666,0,"dm_close-hat.wav",70
Sample,27666,0,"bs_-2ra030.wav",70
Sample,27666,0,"dm_kick.wav",70
Sample,27833,0,"dm_open-hat.wav",70
Sample,27833,0,"sy_2so#060.wav",70
Sample,27833,0,"ce_4so#060.wav",70
Sample,27833,0,"bs_-1ra060.wav",70
Sample,28000,0,"dm_kick.wav",70
Sample,28000,0,"dm_close-hat.wav",70
Sample,28000,0,"bs_-2ra030.wav",70
Sample,28166,0,"dm_open-hat.wav",70
Sample,28166,0,"sy_2fa#060.wav",70
Sample,28166,0,"ce_4fa#060.wav",70
Sample,28166,0,"bs_-1ra060.wav",70
Sample,28333,0,"dm_snare03.wav",70
Sample,28333,0,"bs_-2ra030.wav",70
Sample,28333,0,"dm_close-hat.wav",70
Sample,28333,0,"dm_snare01.wav",70
Sample,28333,0,"dm_kick.wav",70
Sample,28500,0,"dm_open-hat.wav",70
Sample,28500,0,"bs_-1ra060.wav",70
Sample,28500,0,"ce_4mi060.wav",70
Sample,28500,0,"sy_2mi060.wav",70
Sample,28666,0,"bs_-2ra030.wav",70
Sample,28666,0,"dm_close-hat.wav",70
Sample,28666,0,"dm_kick.wav",70
Sample,28833,0,"dm_open-hat.wav",70
Sample,28833,0,"ce_4fa#060.wav",70
Sample,28833,0,"sy_2fa#060.wav",70
Sample,28833,0,"bs_-1ra060.wav",70
Sample,29000,0,"dm_close-hat.wav",70
Sample,29000,0,"dm_snare03.wav",70
Sample,29000,0,"bs_-2ra030.wav",70
Sample,29000,0,"dm_snare01.wav",70
Sample,29000,0,"dm_kick.wav",70
Sample,29000,0,"dm_cymbal02.wav",70
Sample,29166,0,"bs_-1ra060.wav",70
Sample,29166,0,"dm_open-hat.wav",70
Sample,29333,0,"dm_kick.wav",70
Sample,29333,0,"bs_-2si030.wav",70
Sample,29333,0,"dm_close-hat.wav",70
Sample,29333,0,"fgt_0mib780.wav",70
Sample,29333,0,"p5blass_03.wav",70
Sample,29500,0,"bs_-1si060.wav",70
Sample,29500,0,"dm_open-hat.wav",70
Sample,29500,0,"sy_2fa#030.wav",70
Sample,29583,0,"sy_2fa#030.wav",70
Sample,29666,0,"dm_snare03.wav",70
Sample,29666,0,"dm_kick.wav",70
Sample,29666,0,"dm_snare01.wav",70
Sample,29666,0,"dm_close-hat.wav",70
Sample,29666,0,"bs_-2si030.wav",70
Sample,29666,0,"sy_2fa#060.wav",70
Sample,29833,0,"sy_2fa#030.wav",70
Sample,29833,0,"dm_open-hat.wav",70
Sample,29833,0,"bs_-1si060.wav",70
Sample,29916,0,"sy_2fa#030.wav",70
Sample,30000,0,"bs_-2si030.wav",70
Sample,30000,0,"dm_close-hat.wav",70
Sample,30000,0,"sy_2fa#060.wav",70
Sample,30000,0,"dm_kick.wav",70
Sample,30166,0,"bs_-1si060.wav",70
Sample,30166,0,"dm_open-hat.wav",70
Sample,30166,0,"sy_2mib060.wav",70
Sample,30333,0,"dm_close-hat.wav",70
Sample,30333,0,"dm_kick.wav",70
Sample,30333,0,"dm_snare01.wav",70
Sample,30333,0,"dm_snare03.wav",70
Sample,30333,0,"bs_-2si030.wav",70
Sample,30500,0,"sy_2so#060.wav",70
Sample,30500,0,"ce_4so#060.wav",70
Sample,30500,0,"dm_open-hat.wav",70
Sample,30500,0,"bs_-1si060.wav",70
Sample,30666,0,"dm_kick.wav",70
Sample,30666,0,"dm_close-hat.wav",70
Sample,30666,0,"bs_-2si030.wav",70
Sample,30833,0,"dm_open-hat.wav",70
Sample,30833,0,"sy_2fa#060.wav",70
Sample,30833,0,"ce_4fa#060.wav",70
Sample,30833,0,"bs_-1si060.wav",70
Sample,31000,0,"bs_-2si030.wav",70
Sample,31000,0,"dm_snare01.wav",70
Sample,31000,0,"dm_kick.wav",70
Sample,31000,0,"dm_close-hat.wav",70
Sample,31000,0,"dm_snare03.wav",70
Sample,31166,0,"dm_open-hat.wav",70
Sample,31166,0,"bs_-1si060.wav",70
Sample,31166,0,"ce_4mi060.wav",70
Sample,31166,0,"sy_2mi060.wav",70
Sample,31333,0,"dm_kick.wav",70
Sample,31333,0,"dm_close-hat.wav",70
Sample,31333,0,"bs_-2si030.wav",70
Sample,31500,0,"ce_4mib060.wav",70
Sample,31500,0,"sy_2mib060.wav",70
Sample,31500,0,"dm_open-hat.wav",70
Sample,31500,0,"bs_-1si060.wav",70
Sample,31666,0,"dm_close-hat.wav",70
Sample,31666,0,"dm_snare03.wav",70
Sample,31666,0,"bs_-2si030.wav",70
Sample,31666,0,"dm_kick.wav",70
Sample,31666,0,"dm_snare01.wav",70
Sample,31666,0,"dm_cymbal02.wav",70
Sample,31833,0,"bs_-1si060.wav",70
Sample,31833,0,"dm_open-hat.wav",70
Sample,32000,0,"dm_kick.wav",70
Sample,32000,0,"bs_-1reb030.wav",70
Sample,32000,0,"p5blass_01.wav",70
Sample,32000,0,"dm_close-hat.wav",70
Sample,32166,0,"bs_0reb060.wav",70
Sample,32166,0,"dm_open-hat.wav",70
Sample,32333,0,"dm_snare01.wav",70
Sample,32333,0,"dm_close-hat.wav",70
Sample,32333,0,"dm_snare03.wav",70
Sample,32333,0,"bs_-1reb030.wav",70
Sample,32333,0,"dm_kick.wav",70
Sample,32499,0,"dm_open-hat.wav",70
Sample,32499,0,"bs_0reb060.wav",70
Sample,32666,0,"bs_-1reb030.wav",70
Sample,32666,0,"dm_kick.wav",70
Sample,32666,0,"dm_close-hat.wav",70
Sample,32833,0,"bs_0reb060.wav",70
Sample,32833,0,"dm_open-hat.wav",70
Sample,33000,0,"bs_-1reb030.wav",70
Sample,33000,0,"dm_snare03.wav",70
Sample,33000,0,"dm_kick.wav",70
Sample,33000,0,"dm_close-hat.wav",70
Sample,33000,0,"dm_snare01.wav",70
Sample,33166,0,"dm_open-hat.wav",70
Sample,33166,0,"bs_0reb060.wav",70
Sample,33333,0,"bs_-1reb030.wav",70
Sample,33333,0,"dm_kick.wav",70
Sample,33333,0,"dm_close-hat.wav",70
Sample,33500,0,"bs_0reb060.wav",70
Sample,33500,0,"dm_open-hat.wav",70
Sample,33666,0,"dm_snare01.wav",70
Sample,33666,0,"dm_kick.wav",70
Sample,33666,0,"dm_snare03.wav",70
Sample,33666,0,"bs_-1reb030.wav",70
Sample,33666,0,"dm_close-hat.wav",70
Sample,33833,0,"dm_open-hat.wav",70
Sample,33833,0,"bs_0reb060.wav",70
Sample,34000,0,"bs_-1reb030.wav",70
Sample,34000,0,"dm_kick.wav",70
Sample,34000,0,"dm_close-hat.wav",70
Sample,34000,0,"dm_snare02.wav",70
Sample,34083,0,"dm_snare02.wav",70
Sample,34166,0,"bs_0reb060.wav",70
Sample,34166,0,"dm_snare02.wav",70
Sample,34166,0,"dm_open-hat.wav",70
Sample,34250,0,"dm_snare02.wav",70
Sample,34333,0,"dm_close-hat.wav",70
Sample,34333,0,"dm_kick.wav",70
Sample,34333,0,"sy_3mib030.wav",70
Sample,34333,0,"dm_cymbal02.wav",70
Sample,34333,0,"dm_snare02.wav",70
Sample,34333,0,"bs_-1reb030.wav",70
Sample,34333,0,"dm_snare03.wav",70
Sample,34333,0,"dm_snare01.wav",70
Sample,34416,0,"dm_snare02.wav",70
Sample,34500,0,"dm_snare02.wav",70
Sample,34500,0,"dm_open-hat.wav",70
Sample,34500,0,"dm_cymbal.wav",70
Sample,34500,0,"sy_3mi030.wav",70
Sample,34500,0,"bs_0reb060.wav",70
Sample,34583,0,"dm_snare02.wav",70
Sample,34666,0,"dm_snare02.wav",70
Sample,34666,0,"dm_kick.wav",70
Sample,34666,0,"dm_close-hat.wav",70
Sample,34750,0,"dm_close-hat.wav",70
Sample,34833,0,"dm_close-hat.wav",70
Sample,34833,0,"dm_snare02.wav",70
Sample,34916,0,"dm_close-hat.wav",70
Sample,35000,0,"dm_snare01.wav",70
Sample,35000,0,"dm_snare02.wav",70
Sample,35000,0,"dm_kick.wav",70
Sample,35000,0,"dm_close-hat.wav",70
Sample,35083,0,"dm_close-hat.wav",70
Sample,35166,0,"dm_close-hat.wav",70
Sample,35166,0,"dm_snare02.wav",70
Sample,35250,0,"dm_close-hat.wav",70
Sample,35250,0,"dm_snare01.wav",70
Sample,35333,0,"dm_snare02.wav",70
Sample,35333,0,"dm_close-hat.wav",70
Sample,35333,0,"dm_kick.wav",70
Sample,35416,0,"dm_close-hat.wav",70
Sample,35500,0,"dm_snare01.wav",70
Sample,35500,0,"dm_close-hat.wav",70
Sample,35500,0,"dm_snare02.wav",70
Sample,35583,0,"dm_close-hat.wav",70
Sample,35666,0,"dm_close-hat.wav",70
Sample,35666,0,"dm_snare02.wav",70
Sample,35666,0,"dm_kick.wav",70
Sample,35666,0,"dm_snare01.wav",70
Sample,35750,0,"dm_close-hat.wav",70
Sample,35833,0,"dm_cymbal.wav",70
Sample,35833,0,"dm_kick.wav",70
Sample,35833,0,"dm_snare02.wav",70
Sample,36000,0,"ce_4reb720.wav",70
Sample,36000,0,"bs_-1re030.wav",70
Sample,36000,0,"stw2_3reb960.wav",70
Sample,36000,0,"dm_close-hat.wav",70
Sample,36000,0,"dm_kick.wav",70
Sample,36166,0,"piw_2reb060.wav",70
Sample,36166,0,"dm_open-hat.wav",70
Sample,36166,0,"bs_0re060.wav",70
Sample,36333,0,"dm_close-hat.wav",70
Sample,36333,0,"dm_kick.wav",70
Sample,36333,0,"piw_2reb060.wav",70
Sample,36333,0,"bs_-1re030.wav",70
Sample,36333,0,"dm_snare01.wav",70
Sample,36333,0,"dm_snare03.wav",70
Sample,36500,0,"dm_open-hat.wav",70
Sample,36500,0,"bs_0re060.wav",70
Sample,36666,0,"piw_2reb060.wav",70
Sample,36666,0,"dm_kick.wav",70
Sample,36666,0,"bs_-1re030.wav",70
Sample,36666,0,"dm_close-hat.wav",70
Sample,36833,0,"bs_0re060.wav",70
Sample,36833,0,"dm_open-hat.wav",70
Sample,36916,0,"piw_2reb060.wav",70
Sample,37000,0,"bs_-1re030.wav",70
Sample,37000,0,"dm_snare03.wav",70
Sample,37000,0,"dm_snare01.wav",70
Sample,37000,0,"dm_kick.wav",70
Sample,37000,0,"dm_close-hat.wav",70
Sample,37166,0,"dm_open-hat.wav",70
Sample,37166,0,"piw_2reb060.wav",70
Sample,37166,0,"bs_0re060.wav",70
Sample,37333,0,"dm_kick.wav",70
Sample,37333,0,"dm_close-hat.wav",70
Sample,37333,0,"bs_-1re030.wav",70
Sample,37500,0,"bs_0re060.wav",70
Sample,37500,0,"dm_open-hat.wav",70
Sample,37500,0,"piw_2reb060.wav",70
Sample,37666,0,"piw_2reb060.wav",70
Sample,37666,0,"dm_snare01.wav",70
Sample,37666,0,"dm_snare03.wav",70
Sample,37666,0,"dm_close-hat.wav",70
Sample,37666,0,"dm_kick.wav",70
Sample,37666,0,"bs_-1re030.wav",70
Sample,37833,0,"bs_0re060.wav",70
Sample,37833,0,"dm_open-hat.wav",70
Sample,38000,0,"dm_close-hat.wav",70
Sample,38000,0,"dm_kick.wav",70
Sample,38000,0,"bs_-1re030.wav",70
Sample,38000,0,"piw_2reb060.wav",70
Sample,38166,0,"dm_open-hat.wav",70
Sample,38166,0,"bs_0re060.wav",70
Sample,38250,0,"piw_2reb060.wav",70
Sample,38333,0,"bs_-1re030.wav",70
Sample,38333,0,"dm_snare01.wav",70
Sample,38333,0,"dm_kick.wav",70
Sample,38333,0,"dm_close-hat.wav",70
Sample,38333,0,"dm_snare03.wav",70
Sample,38500,0,"piw_2reb060.wav",70
Sample,38500,0,"bs_0re060.wav",70
Sample,38500,0,"dm_open-hat.wav",70
Sample,38666,0,"ce_3si360.wav",70
Sample,38666,0,"bs_-1reb030.wav",70
Sample,38666,0,"stw_2si960.wav",70
Sample,38666,0,"dm_close-hat.wav",70
Sample,38666,0,"dm_kick.wav",70
Sample,38833,0,"piw_1si060.wav",70
Sample,38833,0,"dm_open-hat.wav",70
Sample,38833,0,"bs_0reb060.wav",70
Sample,39000,0,"dm_close-hat.wav",70
Sample,39000,0,"dm_kick.wav",70
Sample,39000,0,"piw_1si060.wav",70
Sample,39000,0,"bs_-1reb030.wav",70
Sample,39000,0,"dm_snare01.wav",70
Sample,39000,0,"dm_snare03.wav",70
Sample,39166,0,"bs_0reb060.wav",70
Sample,39166,0,"dm_open-hat.wav",70
Sample,39333,0,"piw_1si060.wav",70
Sample,39333,0,"dm_kick.wav",70
Sample,39333,0,"dm_close-hat.wav",70
Sample,39333,0,"bs_-1reb030.wav",70
Sample,39500,0,"bs_0reb060.wav",70
Sample,39500,0,"dm_open-hat.wav",70
Sample,39583,0,"piw_1si060.wav",70
Sample,39666,0,"bs_-1reb030.wav",70
Sample,39666,0,"dm_snare03.wav",70
Sample,39666,0,"dm_kick.wav",70
Sample,39666,0,"dm_close-hat.wav",70
Sample,39666,0,"dm_snare01.wav",70
Sample,39833,0,"dm_open-hat.wav",70
Sample,39833,0,"bs_0reb060.wav",70
Sample,39833,0,"piw_1si060.wav",70
Sample,40000,0,"dm_close-hat.wav",70
Sample,40000,0,"dm_kick.wav",70
Sample,40000,0,"ce_4so#060.wav",70
Sample,40000,0,"bs_-1reb030.wav",70
Sample,40166,0,"dm_open-hat.wav",70
Sample,40166,0,"piw_1si060.wav",70
Sample,40166,0,"bs_0reb060.wav",70
Sample,40166,0,"ce_4ra060.wav",70
Sample,40333,0,"bs_-1reb030.wav",70
Sample,40333,0,"dm_snare01.wav",70
Sample,40333,0,"dm_snare03.wav",70
Sample,40333,0,"piw_1si060.wav",70
Sample,40333,0,"ce_4so#060.wav",70
Sample,40333,0,"dm_kick.wav",70
Sample,40333,0,"dm_close-hat.wav",70
Sample,40500,0,"dm_open-hat.wav",70
Sample,40500,0,"ce_4mi060.wav",70
Sample,40500,0,"bs_0reb060.wav",70
Sample,40666,0,"bs_-1reb030.wav",70
Sample,40666,0,"dm_close-hat.wav",70
Sample,40666,0,"piw_1si060.wav",70
Sample,40666,0,"dm_kick.wav",70
Sample,40833,0,"dm_open-hat.wav",70
Sample,40833,0,"bs_0reb060.wav",70
Sample,40916,0,"piw_1si060.wav",70
Sample,41000,0,"dm_close-hat.wav",70
Sample,41000,0,"dm_snare01.wav",70
Sample,41000,0,"dm_kick.wav",70
Sample,41000,0,"bs_-1reb030.wav",70
Sample,41000,0,"dm_snare03.wav",70
Sample,41166,0,"piw_1si060.wav",70
Sample,41166,0,"bs_0reb060.wav",70
Sample,41166,0,"dm_open-hat.wav",70
Sample,41333,0,"ce_4reb720.wav",70
Sample,41333,0,"bs_-1re030.wav",70
Sample,41333,0,"stw2_3reb960.wav",70
Sample,41333,0,"dm_close-hat.wav",70
Sample,41333,0,"dm_kick.wav",70
Sample,41500,0,"piw_2reb060.wav",70
Sample,41500,0,"dm_open-hat.wav",70
Sample,41500,0,"bs_0re060.wav",70
Sample,41666,0,"piw_2reb060.wav",70
Sample,41666,0,"dm_kick.wav",70
Sample,41666,0,"dm_close-hat.wav",70
Sample,41666,0,"bs_-1re030.wav",70
Sample,41666,0,"dm_snare01.wav",70
Sample,41666,0,"dm_snare03.wav",70
Sample,41833,0,"dm_open-hat.wav",70
Sample,41833,0,"bs_0re060.wav",70
Sample,42000,0,"piw_2reb060.wav",70
Sample,42000,0,"dm_kick.wav",70
Sample,42000,0,"dm_close-hat.wav",70
Sample,42000,0,"bs_-1re030.wav",70
Sample,42166,0,"dm_open-hat.wav",70
Sample,42166,0,"bs_0re060.wav",70
Sample,42250,0,"piw_2reb060.wav",70
Sample,42333,0,"bs_-1re030.wav",70
Sample,42333,0,"dm_snare03.wav",70
Sample,42333,0,"dm_kick.wav",70
Sample,42333,0,"dm_close-hat.wav",70
Sample,42333,0,"dm_snare01.wav",70
Sample,42500,0,"piw_2reb060.wav",70
Sample,42500,0,"bs_0re060.wav",70
Sample,42500,0,"dm_open-hat.wav",70
Sample,42666,0,"dm_kick.wav",70
Sample,42666,0,"dm_close-hat.wav",70
Sample,42666,0,"bs_-1re030.wav",70
Sample,42833,0,"dm_open-hat.wav",70
Sample,42833,0,"bs_0re060.wav",70
Sample,42833,0,"piw_2reb060.wav",70
Sample,43000,0,"piw_2reb060.wav",70
Sample,43000,0,"bs_-1re030.wav",70
Sample,43000,0,"dm_close-hat.wav",70
Sample,43000,0,"dm_kick.wav",70
Sample,43000,0,"dm_snare01.wav",70
Sample,43000,0,"dm_snare03.wav",70
Sample,43166,0,"bs_0re060.wav",70
Sample,43166,0,"dm_open-hat.wav",70
Sample,43333,0,"bs_-1re030.wav",70
Sample,43333,0,"dm_kick.wav",70
Sample,43333,0,"dm_close-hat.wav",70
Sample,43333,0,"piw_2reb060.wav",70
Sample,43500,0,"bs_0re060.wav",70
Sample,43500,0,"dm_open-hat.wav",70
Sample,43583,0,"piw_2reb060.wav",70
Sample,43666,0,"dm_snare01.wav",70
Sample,43666,0,"dm_snare03.wav",70
Sample,43666,0,"bs_-1re030.wav",70
Sample,43666,0,"dm_close-hat.wav",70
Sample,43666,0,"dm_kick.wav",70
Sample,43833,0,"piw_2reb060.wav",70
Sample,43833,0,"bs_0re060.wav",70
Sample,43833,0,"dm_kick.wav",70
Sample,43833,0,"dm_open-hat.wav",70
Sample,44000,0,"ce_3si180.wav",70
Sample,44000,0,"bs_-2si030.wav",70
Sample,44000,0,"stw_2si420.wav",70
Sample,44000,0,"dm_close-hat.wav",70
Sample,44000,0,"dm_kick.wav",70
Sample,44166,0,"piw_1si060.wav",70
Sample,44166,0,"dm_open-hat.wav",70
Sample,44166,0,"bs_-1si060.wav",70
Sample,44333,0,"dm_kick.wav",70
Sample,44333,0,"dm_snare01.wav",70
Sample,44333,0,"dm_snare03.wav",70
Sample,44333,0,"bs_-2si030.wav",70
Sample,44333,0,"dm_close-hat.wav",70
Sample,44333,0,"piw_1si060.wav",70
Sample,44500,0,"bs_-1si060.wav",70
Sample,44500,0,"dm_open-hat.wav",70
Sample,44666,0,"dm_kick.wav",70
Sample,44666,0,"bs_-2si030.wav",70
Sample,44666,0,"ce_3si060.wav",70
Sample,44666,0,"piw_1si060.wav",70
Sample,44666,0,"dm_close-hat.wav",70
Sample,44833,0,"ce_3so#060.wav",70
Sample,44833,0,"dm_open-hat.wav",70
Sample,44833,0,"bs_-1si060.wav",70
Sample,44916,0,"piw_1si060.wav",70
Sample,45000,0,"ce_3si060.wav",70
Sample,45000,0,"dm_close-hat.wav",70
Sample,45000,0,"dm_kick.wav",70
Sample,45000,0,"dm_snare01.wav",70
Sample,45000,0,"bs_-2si030.wav",70
Sample,45000,0,"dm_snare03.wav",70
Sample,45166,0,"piw_2do060.wav",70
Sample,45166,0,"ce_4do060.wav",70
Sample,45166,0,"dm_open-hat.wav",70
Sample,45166,0,"bs_-1do060.wav",70
Sample,45166,0,"dm_kick.wav",70
Sample,45166,0,"stw_3do060.wav",70
Sample,45333,0,"dm_close-hat.wav",70
Sample,45500,0,"dm_snare01.wav",70
Sample,45500,0,"dm_open-hat.wav",70
Sample,45500,0,"bs_-1do030.wav",70
Sample,45500,0,"ce_4do060.wav",70
Sample,45500,0,"dm_kick.wav",70
Sample,45500,0,"stw_3do060.wav",70
Sample,45500,0,"dm_snare03.wav",70
Sample,45500,0,"piw_2do060.wav",70
Sample,45666,0,"dm_kick.wav",70
Sample,45666,0,"stw_3do060.wav",70
Sample,45666,0,"dm_close-hat.wav",70
Sample,45666,0,"ce_4do060.wav",70
Sample,45666,0,"piw_2do060.wav",70
Sample,45666,0,"dm_snare01.wav",70
Sample,45666,0,"bs_-1do030.wav",70
Sample,45666,0,"dm_snare03.wav",70
Sample,45833,0,"dm_open-hat.wav",70
Sample,45833,0,"ce_4mib060.wav",70
Sample,45833,0,"dm_kick.wav",70
Sample,45833,0,"stw_3mib060.wav",70
Sample,45833,0,"dm_snare01.wav",70
Sample,45833,0,"bs_-1do030.wav",70
Sample,45833,0,"dm_snare03.wav",70
Sample,45833,0,"piw_2do060.wav",70
Sample,46000,0,"ce_4so#090.wav",70
Sample,46000,0,"dm_kick.wav",70
Sample,46000,0,"dm_open-hat.wav",70
Sample,46000,0,"piw_2do120.wav",70
Sample,46000,0,"dm_snare01.wav",70
Sample,46000,0,"stw_3so#120.wav",70
Sample,46000,0,"bs_-1do120.wav",70
Sample,46000,0,"dm_snare03.wav",70
Sample,46333,0,"dm_cymbal.wav",70
Sample,46666,0,"dm_close-hat.wav",70
Sample,46666,0,"dm_kick.wav",70
Sample,46666,0,"fgt_0mi900.wav",70
Sample,46666,0,"p5blass_01.wav",70
Sample,46666,0,"bs_-1reb030.wav",70
Sample,46833,0,"vbw_2mi030.wav",70
Sample,46833,0,"dm_open-hat.wav",70
Sample,46833,0,"bs_0reb060.wav",70
Sample,46916,0,"vbw_2mi030.wav",70
Sample,47000,0,"dm_kick.wav",70
Sample,47000,0,"dm_snare03.wav",70
Sample,47000,0,"bs_-1reb030.wav",70
Sample,47000,0,"vbw_2mi060.wav",70
Sample,47000,0,"dm_close-hat.wav",70
Sample,47000,0,"dm_snare01.wav",70
Sample,47166,0,"bs_0reb060.wav",70
Sample,47166,0,"dm_open-hat.wav",70
Sample,47166,0,"vbw_2mi030.wav",70
Sample,47250,0,"vbw_2mi030.wav",70
Sample,47333,0,"dm_kick.wav",70
Sample,47333,0,"bs_-1reb030.wav",70
Sample,47333,0,"dm_close-hat.wav",70
Sample,47333,0,"vbw_2mi060.wav",70
Sample,47500,0,"vbw_2reb060.wav",70
Sample,47500,0,"dm_open-hat.wav",70
Sample,47500,0,"bs_0reb060.wav",70
Sample,47666,0,"bs_-1reb030.wav",70
Sample,47666,0,"dm_close-hat.wav",70
Sample,47666,0,"dm_snare03.wav",70
Sample,47666,0,"dm_snare01.wav",70
Sample,47666,0,"dm_kick.wav",70
Sample,47833,0,"bs_0reb060.wav",70
Sample,47833,0,"dm_open-hat.wav",70
Sample,47833,0,"vbw_2reb030.wav",70
Sample,47916,0,"vbw_2reb030.wav",70
Sample,48000,0,"vbw_2mi060.wav",70
Sample,48000,0,"dm_kick.wav",70
Sample,48000,0,"dm_close-hat.wav",70
Sample,48000,0,"bs_-1reb030.wav",70
Sample,48166,0,"vbw_2mi030.wav",70
Sample,48166,0,"dm_open-hat.wav",70
Sample,48166,0,"bs_0reb060.wav",70
Sample,48250,0,"vbw_2mi030.wav",70
Sample,48333,0,"dm_snare01.wav",70
Sample,48333,0,"bs_-1reb030.wav",70
Sample,48333,0,"dm_kick.wav",70
Sample,48333,0,"vbw_2mi060.wav",70
Sample,48333,0,"dm_snare03.wav",70
Sample,48333,0,"dm_close-hat.wav",70
Sample,48500,0,"bs_0reb060.wav",70
Sample,48500,0,"dm_open-hat.wav",70
Sample,48500,0,"vbw_2reb060.wav",70
Sample,48666,0,"dm_kick.wav",70
Sample,48666,0,"dm_close-hat.wav",70
Sample,48666,0,"bs_-1reb030.wav",70
Sample,48833,0,"vbw_2so#060.wav",70
Sample,48833,0,"ce_4so#060.wav",70
Sample,48833,0,"dm_open-hat.wav",70
Sample,48833,0,"bs_0reb060.wav",70
Sample,49000,0,"dm_snare01.wav",70
Sample,49000,0,"ce_4fa#060.wav",70
Sample,49000,0,"dm_kick.wav",70
Sample,49000,0,"dm_close-hat.wav",70
Sample,49000,0,"dm_cymbal02.wav",70
Sample,49000,0,"dm_snare03.wav",70
Sample,49000,0,"vbw_2fa#060.wav",70
Sample,49000,0,"bs_-1reb030.wav",70
Sample,49166,0,"ce_4so#060.wav",70
Sample,49166,0,"bs_0reb060.wav",70
Sample,49166,0,"vbw_2so#060.wav",70
Sample,49166,0,"dm_open-hat.wav",70
Sample,49333,0,"dm_kick.wav",70
Sample,49333,0,"bs_-2ra030.wav",70
Sample,49333,0,"dm_close-hat.wav",70
Sample,49333,0,"fgt_0reb900.wav",70
Sample,49333,0,"p5blass_02.wav",70
Sample,49500,0,"bs_-1ra060.wav",70
Sample,49500,0,"vbw_2mi030.wav",70
Sample,49500,0,"dm_open-hat.wav",70
Sample,49583,0,"vbw_2mi030.wav",70
Sample,49666,0,"vbw_2mi060.wav",70
Sample,49666,0,"dm_close-hat.wav",70
Sample,49666,0,"dm_snare01.wav",70
Sample,49666,0,"dm_snare03.wav",70
Sample,49666,0,"dm_kick.wav",70
Sample,49666,0,"bs_-2ra030.wav",70
Sample,49833,0,"dm_open-hat.wav",70
Sample,49833,0,"vbw_2mi030.wav",70
Sample,49833,0,"bs_-1ra060.wav",70
Sample,49916,0,"vbw_2mi030.wav",70
Sample,50000,0,"bs_-2ra030.wav",70
Sample,50000,0,"dm_close-hat.wav",70
Sample,50000,0,"dm_kick.wav",70
Sample,50000,0,"vbw_2mi060.wav",70
Sample,50166,0,"bs_-1ra060.wav",70
Sample,50166,0,"dm_open-hat.wav",70
Sample,50166,0,"vbw_2reb060.wav",70
Sample,50333,0,"dm_close-hat.wav",70
Sample,50333,0,"dm_snare03.wav",70
Sample,50333,0,"dm_snare01.wav",70
Sample,50333,0,"dm_kick.wav",70
Sample,50333,0,"bs_-2ra030.wav",70
Sample,50500,0,"ce_4so#060.wav",70
Sample,50500,0,"dm_open-hat.wav",70
Sample,50500,0,"vbw_2so#060.wav",70
Sample,50500,0,"bs_-1ra060.wav",70
Sample,50666,0,"dm_close-hat.wav",70
Sample,50666,0,"dm_kick.wav",70
Sample,50666,0,"bs_-2ra030.wav",70
Sample,50833,0,"dm_open-hat.wav",70
Sample,50833,0,"ce_4fa#060.wav",70
Sample,50833,0,"vbw_2fa#060.wav",70
Sample,50833,0,"bs_-1ra060.wav",70
Sample,51000,0,"bs_-2ra030.wav",70
Sample,51000,0,"dm_kick.wav",70
Sample,51000,0,"dm_snare03.wav",70
Sample,51000,0,"dm_close-hat.wav",70
Sample,51000,0,"dm_snare01.wav",70
Sample,51166,0,"ce_4mi060.wav",70
Sample,51166,0,"bs_-1ra060.wav",70
Sample,51166,0,"dm_open-hat.wav",70
Sample,51166,0,"vbw_2mi060.wav",70
Sample,51333,0,"dm_close-hat.wav",70
Sample,51333,0,"dm_kick.wav",70
Sample,51333,0,"bs_-2ra030.wav",70
Sample,51500,0,"vbw_2fa#060.wav",70
Sample,51500,0,"ce_4fa#060.wav",70
Sample,51500,0,"dm_open-hat.wav",70
Sample,51500,0,"bs_-1ra060.wav",70
Sample,51666,0,"dm_close-hat.wav",70
Sample,51666,0,"dm_kick.wav",70
Sample,51666,0,"bs_-2ra030.wav",70
Sample,51666,0,"dm_cymbal02.wav",70
Sample,51666,0,"dm_snare03.wav",70
Sample,51666,0,"dm_snare01.wav",70
Sample,51833,0,"bs_-1ra060.wav",70
Sample,51833,0,"dm_open-hat.wav",70
Sample,52000,0,"dm_kick.wav",70
Sample,52000,0,"bs_-2si030.wav",70
Sample,52000,0,"dm_close-hat.wav",70
Sample,52000,0,"fgt_0mib780.wav",70
Sample,52000,0,"p5blass_03.wav",70
Sample,52166,0,"bs_-1si060.wav",70
Sample,52166,0,"vbw_2fa#030.wav",70
Sample,52166,0,"dm_open-hat.wav",70
Sample,52250,0,"vbw_2fa#030.wav",70
Sample,52333,0,"vbw_2fa#060.wav",70
Sample,52333,0,"dm_snare01.wav",70
Sample,52333,0,"dm_close-hat.wav",70
Sample,52333,0,"dm_snare03.wav",70
Sample,52333,0,"dm_kick.wav",70
Sample,52333,0,"bs_-2si030.wav",70
Sample,52500,0,"vbw_2fa#030.wav",70
Sample,52500,0,"dm_open-hat.wav",70
Sample,52500,0,"bs_-1si060.wav",70
Sample,52583,0,"vbw_2fa#030.wav",70
Sample,52666,0,"bs_-2si030.wav",70
Sample,52666,0,"dm_close-hat.wav",70
Sample,52666,0,"dm_kick.wav",70
Sample,52666,0,"vbw_2fa#060.wav",70
Sample,52833,0,"bs_-1si060.wav",70
Sample,52833,0,"dm_open-hat.wav",70
Sample,52833,0,"vbw_2mib060.wav",70
Sample,53000,0,"dm_snare01.wav",70
Sample,53000,0,"dm_snare03.wav",70
Sample,53000,0,"dm_kick.wav",70
Sample,53000,0,"bs_-2si030.wav",70
Sample,53000,0,"dm_close-hat.wav",70
Sample,53166,0,"ce_4so#060.wav",70
Sample,53166,0,"dm_open-hat.wav",70
Sample,53166,0,"vbw_2so#060.wav",70
Sample,53166,0,"bs_-1si060.wav",70
Sample,53333,0,"dm_close-hat.wav",70
Sample,53333,0,"dm_kick.wav",70
Sample,53333,0,"bs_-2si030.wav",70
Sample,53500,0,"ce_4fa#060.wav",70
Sample,53500,0,"dm_open-hat.wav",70
Sample,53500,0,"vbw_2fa#060.wav",70
Sample,53500,0,"bs_-1si060.wav",70
Sample,53666,0,"bs_-2si030.wav",70
Sample,53666,0,"dm_kick.wav",70
Sample,53666,0,"dm_close-hat.wav",70
Sample,53666,0,"dm_snare03.wav",70
Sample,53666,0,"dm_snare01.wav",70
Sample,53833,0,"ce_4mi060.wav",70
Sample,53833,0,"bs_-1si060.wav",70
Sample,53833,0,"vbw_2mi060.wav",70
Sample,53833,0,"dm_open-hat.wav",70
Sample,54000,0,"dm_kick.wav",70
Sample,54000,0,"dm_close-hat.wav",70
Sample,54000,0,"bs_-2si030.wav",70
Sample,54166,0,"dm_open-hat.wav",70
Sample,54166,0,"ce_4mib060.wav",70
Sample,54166,0,"vbw_2mib060.wav",70
Sample,54166,0,"bs_-1si060.wav",70
Sample,54333,0,"dm_snare03.wav",70
Sample,54333,0,"dm_kick.wav",70
Sample,54333,0,"bs_-2si030.wav",70
Sample,54333,0,"dm_close-hat.wav",70
Sample,54333,0,"dm_cymbal02.wav",70
Sample,54333,0,"dm_snare01.wav",70
Sample,54500,0,"bs_-1si060.wav",70
Sample,54500,0,"dm_open-hat.wav",70
Sample,54666,0,"dm_kick.wav",70
Sample,54666,0,"bs_-1reb030.wav",70
Sample,54666,0,"p5blass_01.wav",70
Sample,54666,0,"dm_close-hat.wav",70
Sample,54833,0,"bs_0reb060.wav",70
Sample,54833,0,"dm_open-hat.wav",70
Sample,55000,0,"dm_snare01.wav",70
Sample,55000,0,"dm_close-hat.wav",70
Sample,55000,0,"dm_snare03.wav",70
Sample,55000,0,"bs_-1reb030.wav",70
Sample,55000,0,"dm_kick.wav",70
Sample,55166,0,"dm_open-hat.wav",70
Sample,55166,0,"bs_0reb060.wav",70
Sample,55333,0,"bs_-1reb030.wav",70
Sample,55333,0,"dm_kick.wav",70
Sample,55333,0,"dm_close-hat.wav",70
Sample,55500,0,"bs_0reb060.wav",70
Sample,55500,0,"dm_open-hat.wav",70
Sample,55666,0,"bs_-1reb030.wav",70
Sample,55666,0,"dm_snare03.wav",70
Sample,55666,0,"dm_kick.wav",70
Sample,55666,0,"dm_close-hat.wav",70
Sample,55666,0,"dm_snare01.wav",70
Sample,55833,0,"dm_open-hat.wav",70
Sample,55833,0,"bs_0reb060.wav",70
Sample,56000,0,"dm_close-hat.wav",70
Sample,56000,0,"dm_kick.wav",70
Sample,56000,0,"bs_-1reb030.wav",70
Sample,56166,0,"dm_open-hat.wav",70
Sample,56166,0,"bs_0reb060.wav",70
Sample,56333,0,"bs_-1reb030.wav",70
Sample,56333,0,"dm_kick.wav",70
Sample,56333,0,"dm_snare03.wav",70
Sample,56333,0,"dm_snare01.wav",70
Sample,56333,0,"dm_close-hat.wav",70
Sample,56500,0,"bs_0reb060.wav",70
Sample,56500,0,"dm_open-hat.wav",70
Sample,56666,0,"dm_close-hat.wav",70
Sample,56666,0,"dm_kick.wav",70
Sample,56666,0,"bs_-1reb030.wav",70
Sample,56666,0,"dm_snare02.wav",70
Sample,56750,0,"dm_snare02.wav",70
Sample,56833,0,"dm_open-hat.wav",70
Sample,56833,0,"dm_snare02.wav",70
Sample,56833,0,"bs_0reb060.wav",70
Sample,56916,0,"dm_snare02.wav",70
Sample,57000,0,"dm_snare01.wav",70
Sample,57000,0,"dm_snare02.wav",70
Sample,57000,0,"bs_-1reb030.wav",70
Sample,57000,0,"dm_cymbal02.wav",70
Sample,57000,0,"dm_kick.wav",70
Sample,57000,0,"dm_snare03.wav",70
Sample,57000,0,"dm_close-hat.wav",70
Sample,57000,0,"vbw_3mib030.wav",70
Sample,57083,0,"dm_snare02.wav",70
Sample,57166,0,"dm_snare02.wav",70
Sample,57166,0,"bs_0reb060.wav",70
Sample,57166,0,"vbw_3mi030.wav",70
Sample,57166,0,"dm_cymbal.wav",70
Sample,57250,0,"dm_snare02.wav",70
Sample,57333,0,"p5blass_01.wav",70
Sample,57333,0,"bs_-1reb030.wav",70
Sample,57333,0,"fgt_0mi900.wav",70
Sample,57333,0,"dm_close-hat.wav",70
Sample,57333,0,"dm_kick.wav",70
Sample,57500,0,"bs_0reb060.wav",70
Sample,57500,0,"dm_open-hat.wav",70
Sample,57500,0,"vbw_2mi030.wav",70
Sample,57583,0,"vbw_2mi030.wav",70
Sample,57666,0,"vbw_2mi060.wav",70
Sample,57666,0,"dm_snare01.wav",70
Sample,57666,0,"dm_snare03.wav",70
Sample,57666,0,"dm_close-hat.wav",70
Sample,57666,0,"dm_kick.wav",70
Sample,57666,0,"bs_-1reb030.wav",70
Sample,57833,0,"dm_open-hat.wav",70
Sample,57833,0,"vbw_2mi030.wav",70
Sample,57833,0,"bs_0reb060.wav",70
Sample,57916,0,"vbw_2mi030.wav",70
Sample,58000,0,"dm_close-hat.wav",70
Sample,58000,0,"bs_-1reb030.wav",70
Sample,58000,0,"vbw_2mi060.wav",70
Sample,58000,0,"dm_kick.wav",70
Sample,58166,0,"bs_0reb060.wav",70
Sample,58166,0,"dm_open-hat.wav",70
Sample,58166,0,"vbw_2reb060.wav",70
Sample,58333,0,"dm_snare01.wav",70
Sample,58333,0,"bs_-1reb030.wav",70
Sample,58333,0,"dm_snare03.wav",70
Sample,58333,0,"dm_kick.wav",70
Sample,58333,0,"dm_close-hat.wav",70
Sample,58500,0,"vbw_2reb030.wav",70
Sample,58500,0,"dm_open-hat.wav",70
Sample,58500,0,"bs_0reb060.wav",70
Sample,58583,0,"vbw_2reb030.wav",70
Sample,58666,0,"dm_close-hat.wav",70
Sample,58666,0,"bs_-1reb030.wav",70
Sample,58666,0,"vbw_2mi060.wav",70
Sample,58666,0,"dm_kick.wav",70
Sample,58833,0,"bs_0reb060.wav",70
Sample,58833,0,"dm_open-hat.wav",70
Sample,58833,0,"vbw_2mi030.wav",70
Sample,58916,0,"vbw_2mi030.wav",70
Sample,59000,0,"dm_kick.wav",70
Sample,59000,0,"dm_snare01.wav",70
Sample,59000,0,"dm_snare03.wav",70
Sample,59000,0,"vbw_2mi060.wav",70
Sample,59000,0,"dm_close-hat.wav",70
Sample,59000,0,"bs_-1reb030.wav",70
Sample,59166,0,"dm_open-hat.wav",70
Sample,59166,0,"vbw_2reb060.wav",70
Sample,59166,0,"bs_0reb060.wav",70
Sample,59333,0,"bs_-1reb030.wav",70
Sample,59333,0,"dm_kick.wav",70
Sample,59333,0,"dm_close-hat.wav",70
Sample,59500,0,"ce_4so#060.wav",70
Sample,59500,0,"bs_0reb060.wav",70
Sample,59500,0,"dm_open-hat.wav",70
Sample,59500,0,"vbw_2so#060.wav",70
Sample,59666,0,"bs_-1reb030.wav",70
Sample,59666,0,"dm_snare01.wav",70
Sample,59666,0,"vbw_2fa#060.wav",70
Sample,59666,0,"dm_snare03.wav",70
Sample,59666,0,"ce_4fa#060.wav",70
Sample,59666,0,"dm_kick.wav",70
Sample,59666,0,"dm_close-hat.wav",70
Sample,59666,0,"dm_cymbal02.wav",70
Sample,59833,0,"vbw_2so#060.wav",70
Sample,59833,0,"dm_open-hat.wav",70
Sample,59833,0,"ce_4so#060.wav",70
Sample,59833,0,"bs_0reb060.wav",70
Sample,60000,0,"fgt_0reb900.wav",70
Sample,60000,0,"p5blass_02.wav",70
Sample,60000,0,"dm_close-hat.wav",70
Sample,60000,0,"dm_kick.wav",70
Sample,60000,0,"bs_-2ra030.wav",70
Sample,60166,0,"dm_open-hat.wav",70
Sample,60166,0,"vbw_2mi030.wav",70
Sample,60166,0,"bs_-1ra060.wav",70
Sample,60250,0,"vbw_2mi030.wav",70
Sample,60333,0,"dm_snare01.wav",70
Sample,60333,0,"dm_close-hat.wav",70
Sample,60333,0,"bs_-2ra030.wav",70
Sample,60333,0,"dm_kick.wav",70
Sample,60333,0,"vbw_2mi060.wav",70
Sample,60333,0,"dm_snare03.wav",70
Sample,60500,0,"bs_-1ra060.wav",70
Sample,60500,0,"dm_open-hat.wav",70
Sample,60500,0,"vbw_2mi030.wav",70
Sample,60583,0,"vbw_2mi030.wav",70
Sample,60666,0,"dm_close-hat.wav",70
Sample,60666,0,"dm_kick.wav",70
Sample,60666,0,"vbw_2mi060.wav",70
Sample,60666,0,"bs_-2ra030.wav",70
Sample,60833,0,"dm_open-hat.wav",70
Sample,60833,0,"vbw_2reb060.wav",70
Sample,60833,0,"bs_-1ra060.wav",70
Sample,61000,0,"bs_-2ra030.wav",70
Sample,61000,0,"dm_snare01.wav",70
Sample,61000,0,"dm_close-hat.wav",70
Sample,61000,0,"dm_kick.wav",70
Sample,61000,0,"dm_snare03.wav",70
Sample,61166,0,"vbw_2so#060.wav",70
Sample,61166,0,"bs_-1ra060.wav",70
Sample,61166,0,"ce_4so#060.wav",70
Sample,61166,0,"dm_open-hat.wav",70
Sample,61333,0,"bs_-2ra030.wav",70
Sample,61333,0,"dm_kick.wav",70
Sample,61333,0,"dm_close-hat.wav",70
Sample,61500,0,"ce_4fa#060.wav",70
Sample,61500,0,"bs_-1ra060.wav",70
Sample,61500,0,"dm_open-hat.wav",70
Sample,61500,0,"vbw_2fa#060.wav",70
Sample,61666,0,"dm_snare03.wav",70
Sample,61666,0,"dm_close-hat.wav",70
Sample,61666,0,"dm_snare01.wav",70
Sample,61666,0,"bs_-2ra030.wav",70
Sample,61666,0,"dm_kick.wav",70
Sample,61833,0,"vbw_2mi060.wav",70
Sample,61833,0,"ce_4mi060.wav",70
Sample,61833,0,"dm_open-hat.wav",70
Sample,61833,0,"bs_-1ra060.wav",70
Sample,62000,0,"bs_-2ra030.wav",70
Sample,62000,0,"dm_close-hat.wav",70
Sample,62000,0,"dm_kick.wav",70
Sample,62166,0,"vbw_2fa#060.wav",70
Sample,62166,0,"bs_-1ra060.wav",70
Sample,62166,0,"ce_4fa#060.wav",70
Sample,62166,0,"dm_open-hat.wav",70
Sample,62333,0,"dm_cymbal02.wav",70
Sample,62333,0,"dm_snare03.wav",70
Sample,62333,0,"dm_kick.wav",70
Sample,62333,0,"dm_close-hat.wav",70
Sample,62333,0,"dm_snare01.wav",70
Sample,62333,0,"bs_-2ra030.wav",70
Sample,62500,0,"dm_open-hat.wav",70
Sample,62500,0,"bs_-1ra060.wav",70
Sample,62666,0,"fgt_0mib780.wav",70
Sample,62666,0,"p5blass_03.wav",70
Sample,62666,0,"dm_close-hat.wav",70
Sample,62666,0,"dm_kick.wav",70
Sample,62666,0,"bs_-2si030.wav",70
Sample,62833,0,"dm_open-hat.wav",70
Sample,62833,0,"vbw_2fa#030.wav",70
Sample,62833,0,"bs_-1si060.wav",70
Sample,62916,0,"vbw_2fa#030.wav",70
Sample,63000,0,"dm_close-hat.wav",70
Sample,63000,0,"dm_snare03.wav",70
Sample,63000,0,"vbw_2fa#060.wav",70
Sample,63000,0,"dm_snare01.wav",70
Sample,63000,0,"bs_-2si030.wav",70
Sample,63000,0,"dm_kick.wav",70
Sample,63166,0,"bs_-1si060.wav",70
Sample,63166,0,"vbw_2fa#030.wav",70
Sample,63166,0,"dm_open-hat.wav",70
Sample,63250,0,"vbw_2fa#030.wav",70
Sample,63333,0,"dm_kick.wav",70
Sample,63333,0,"dm_close-hat.wav",70
Sample,63333,0,"vbw_2fa#060.wav",70
Sample,63333,0,"bs_-2si030.wav",70
Sample,63500,0,"vbw_2mib060.wav",70
Sample,63500,0,"dm_open-hat.wav",70
Sample,63500,0,"bs_-1si060.wav",70
Sample,63666,0,"bs_-2si030.wav",70
Sample,63666,0,"dm_close-hat.wav",70
Sample,63666,0,"dm_snare01.wav",70
Sample,63666,0,"dm_snare03.wav",70
Sample,63666,0,"dm_kick.wav",70
Sample,63833,0,"vbw_2so#060.wav",70
Sample,63833,0,"bs_-1si060.wav",70
Sample,63833,0,"ce_4so#060.wav",70
Sample,63833,0,"dm_open-hat.wav",70
Sample,64000,0,"bs_-2si030.wav",70
Sample,64000,0,"dm_kick.wav",70
Sample,64000,0,"dm_close-hat.wav",70
Sample,64166,0,"ce_4fa#060.wav",70
Sample,64166,0,"bs_-1si060.wav",70
Sample,64166,0,"dm_open-hat.wav",70
Sample,64166,0,"vbw_2fa#060.wav",70
Sample,64333,0,"dm_close-hat.wav",70
Sample,64333,0,"bs_-2si030.wav",70
Sample,64333,0,"dm_kick.wav",70
Sample,64333,0,"dm_snare03.wav",70
Sample,64333,0,"dm_snare01.wav",70
Sample,64499,0,"dm_open-hat.wav",70
Sample,64499,0,"ce_4mi060.wav",70
Sample,64499,0,"vbw_2mi060.wav",70
Sample,64499,0,"bs_-1si060.wav",70
Sample,64666,0,"bs_-2si030.wav",70
Sample,64666,0,"dm_kick.wav",70
Sample,64666,0,"dm_close-hat.wav",70
Sample,64833,0,"dm_open-hat.wav",70
Sample,64833,0,"bs_-1si060.wav",70
Sample,64833,0,"vbw_2mib060.wav",70
Sample,64833,0,"ce_4mib060.wav",70
Sample,64999,0,"bs_-2si030.wav",70
Sample,64999,0,"dm_snare03.wav",70
Sample,64999,0,"dm_snare01.wav",70
Sample,64999,0,"dm_cymbal02.wav",70
Sample,64999,0,"dm_close-hat.wav",70
Sample,64999,0,"dm_kick.wav",70
Sample,65166,0,"dm_open-hat.wav",70
Sample,65166,0,"fgtR_-1so#060.wav",70
Sample,65166,0,"fgtL_0reb060.wav",70
Sample,65166,0,"bs_-1si060.wav",70
Sample,65333,0,"p5blass_01.wav",70
Sample,65333,0,"dm_close-hat.wav",70
Sample,65333,0,"dm_kick.wav",70
Sample,65333,0,"bs_-1reb030.wav",70
Sample,65499,0,"fgtR_-1so#060.wav",70
Sample,65499,0,"dm_open-hat.wav",70
Sample,65499,0,"fgtL_0reb060.wav",70
Sample,65499,0,"bs_0reb060.wav",70
Sample,65666,0,"dm_close-hat.wav",70
Sample,65666,0,"dm_snare01.wav",70
Sample,65666,0,"dm_snare03.wav",70
Sample,65666,0,"bs_-1reb030.wav",70
Sample,65666,0,"fgtL_0so#060.wav",70
Sample,65666,0,"fgtR_-1so#060.wav",70
Sample,65666,0,"dm_kick.wav",70
Sample,65833,0,"dm_open-hat.wav",70
Sample,65833,0,"bs_0reb060.wav",70
Sample,65833,0,"fgtL_0si060.wav",70
Sample,65833,0,"fgtR_-1si060.wav",70
Sample,66000,0,"fgtL_0sib180.wav",70
Sample,66000,0,"fgtR_-1sib180.wav",70
Sample,66000,0,"bs_-1reb030.wav",70
Sample,66000,0,"dm_kick.wav",70
Sample,66000,0,"dm_close-hat.wav",70
Sample,66166,0,"dm_open-hat.wav",70
Sample,66166,0,"bs_0reb060.wav",70
Sample,66333,0,"dm_close-hat.wav",70
Sample,66333,0,"dm_snare03.wav",70
Sample,66333,0,"dm_snare01.wav",70
Sample,66333,0,"bs_-1reb030.wav",70
Sample,66333,0,"dm_kick.wav",70
Sample,66500,0,"dm_open-hat.wav",70
Sample,66500,0,"bs_0reb060.wav",70
Sample,66500,0,"fgtL_0reb060.wav",70
Sample,66500,0,"fgtR_-1so#060.wav",70
Sample,66666,0,"dm_close-hat.wav",70
Sample,66666,0,"dm_kick.wav",70
Sample,66666,0,"bs_-1reb030.wav",70
Sample,66833,0,"fgtR_-1so#060.wav",70
Sample,66833,0,"dm_open-hat.wav",70
Sample,66833,0,"fgtL_0reb060.wav",70
Sample,66833,0,"bs_0reb060.wav",70
Sample,67000,0,"fgtL_0so#060.wav",70
Sample,67000,0,"dm_close-hat.wav",70
Sample,67000,0,"fgtR_-1so#060.wav",70
Sample,67000,0,"dm_snare01.wav",70
Sample,67000,0,"dm_kick.wav",70
Sample,67000,0,"dm_snare03.wav",70
Sample,67000,0,"bs_-1reb030.wav",70
Sample,67166,0,"fgtR_-1si060.wav",70
Sample,67166,0,"bs_0reb060.wav",70
Sample,67166,0,"fgtL_0si060.wav",70
Sample,67166,0,"dm_open-hat.wav",70
Sample,67333,0,"dm_close-hat.wav",70
Sample,67333,0,"fgtR_-1sib180.wav",70
Sample,67333,0,"fgtL_0sib180.wav",70
Sample,67333,0,"bs_-1reb030.wav",70
Sample,67333,0,"dm_kick.wav",70
Sample,67333,0,"dm_snare02.wav",70
Sample,67416,0,"dm_snare02.wav",70
Sample,67500,0,"dm_snare02.wav",70
Sample,67500,0,"dm_open-hat.wav",70
Sample,67500,0,"bs_0reb060.wav",70
Sample,67583,0,"dm_snare02.wav",70
Sample,67666,0,"dm_kick.wav",70
Sample,67666,0,"dm_snare02.wav",70
Sample,67666,0,"dm_cymbal02.wav",70
Sample,67666,0,"dm_snare03.wav",70
Sample,67666,0,"vbw_3mib030.wav",70
Sample,67666,0,"dm_snare01.wav",70
Sample,67666,0,"dm_close-hat.wav",70
Sample,67666,0,"bs_-1reb030.wav",70
Sample,67750,0,"dm_snare02.wav",70
Sample,67833,0,"dm_snare02.wav",70
Sample,67833,0,"bs_0reb060.wav",70
Sample,67833,0,"dm_cymbal.wav",70
Sample,67833,0,"vbw_3mi030.wav",70
Sample,67833,0,"dm_open-hat.wav",70
Sample,67916,0,"dm_snare02.wav",70
Sample,68000,0,"stw2_3reb960.wav",70
Sample,68000,0,"dm_close-hat.wav",70
Sample,68000,0,"ce_4reb720.wav",70
Sample,68000,0,"bs_-1re030.wav",70
Sample,68166,0,"dm_open-hat.wav",70
Sample,68166,0,"piw_2reb060.wav",70
Sample,68166,0,"bs_0re060.wav",70
Sample,68333,0,"dm_snare01.wav",70
Sample,68333,0,"dm_snare03.wav",70
Sample,68333,0,"piw_2reb060.wav",70
Sample,68333,0,"bs_-1re030.wav",70
Sample,68333,0,"dm_close-hat.wav",70
Sample,68500,0,"bs_0re060.wav",70
Sample,68500,0,"dm_open-hat.wav",70
Sample,68666,0,"piw_2reb060.wav",70
Sample,68666,0,"dm_close-hat.wav",70
Sample,68666,0,"bs_-1re030.wav",70
Sample,68833,0,"dm_open-hat.wav",70
Sample,68833,0,"bs_0re060.wav",70
Sample,68916,0,"piw_2reb060.wav",70
Sample,69000,0,"dm_close-hat.wav",70
Sample,69000,0,"bs_-1re030.wav",70
Sample,69000,0,"dm_snare01.wav",70
Sample,69000,0,"dm_snare03.wav",70
Sample,69166,0,"dm_open-hat.wav",70
Sample,69166,0,"piw_2reb060.wav",70
Sample,69166,0,"bs_0re060.wav",70
Sample,69333,0,"bs_-1re030.wav",70
Sample,69333,0,"dm_close-hat.wav",70
Sample,69500,0,"piw_2reb060.wav",70
Sample,69500,0,"bs_0re060.wav",70
Sample,69500,0,"dm_open-hat.wav",70
Sample,69666,0,"piw_2reb060.wav",70
Sample,69666,0,"dm_close-hat.wav",70
Sample,69666,0,"bs_-1re030.wav",70
Sample,69666,0,"dm_snare01.wav",70
Sample,69666,0,"dm_snare03.wav",70
Sample,69833,0,"dm_open-hat.wav",70
Sample,69833,0,"bs_0re060.wav",70
Sample,70000,0,"bs_-1re030.wav",70
Sample,70000,0,"dm_close-hat.wav",70
Sample,70000,0,"piw_2reb060.wav",70
Sample,70166,0,"bs_0re060.wav",70
Sample,70166,0,"dm_open-hat.wav",70
Sample,70250,0,"piw_2reb060.wav",70
Sample,70333,0,"dm_snare01.wav",70
Sample,70333,0,"dm_snare03.wav",70
Sample,70333,0,"dm_close-hat.wav",70
Sample,70333,0,"bs_-1re030.wav",70
Sample,70500,0,"bs_0re060.wav",70
Sample,70500,0,"piw_2reb060.wav",70
Sample,70500,0,"dm_open-hat.wav",70
Sample,70666,0,"stw_2si960.wav",70
Sample,70666,0,"dm_close-hat.wav",70
Sample,70666,0,"ce_3si360.wav",70
Sample,70666,0,"bs_-1reb030.wav",70
Sample,70833,0,"dm_open-hat.wav",70
Sample,70833,0,"piw_1si060.wav",70
Sample,70833,0,"bs_0reb060.wav",70
Sample,71000,0,"dm_snare01.wav",70
Sample,71000,0,"dm_snare03.wav",70
Sample,71000,0,"piw_1si060.wav",70
Sample,71000,0,"dm_close-hat.wav",70
Sample,71000,0,"bs_-1reb030.wav",70
Sample,71166,0,"bs_0reb060.wav",70
Sample,71166,0,"dm_open-hat.wav",70
Sample,71333,0,"piw_1si060.wav",70
Sample,71333,0,"dm_close-hat.wav",70
Sample,71333,0,"bs_-1reb030.wav",70
Sample,71500,0,"dm_open-hat.wav",70
Sample,71500,0,"bs_0reb060.wav",70
Sample,71583,0,"piw_1si060.wav",70
Sample,71666,0,"bs_-1reb030.wav",70
Sample,71666,0,"dm_close-hat.wav",70
Sample,71666,0,"dm_snare01.wav",70
Sample,71666,0,"dm_snare03.wav",70
Sample,71833,0,"dm_open-hat.wav",70
Sample,71833,0,"piw_1si060.wav",70
Sample,71833,0,"bs_0reb060.wav",70
Sample,72000,0,"ce_4so#060.wav",70
Sample,72000,0,"bs_-1reb030.wav",70
Sample,72000,0,"dm_close-hat.wav",70
Sample,72166,0,"piw_1si060.wav",70
Sample,72166,0,"ce_4ra060.wav",70
Sample,72166,0,"bs_0reb060.wav",70
Sample,72166,0,"dm_open-hat.wav",70
Sample,72333,0,"piw_1si060.wav",70
Sample,72333,0,"dm_close-hat.wav",70
Sample,72333,0,"ce_4so#060.wav",70
Sample,72333,0,"bs_-1reb030.wav",70
Sample,72333,0,"dm_snare01.wav",70
Sample,72333,0,"dm_snare03.wav",70
Sample,72500,0,"ce_4mi060.wav",70
Sample,72500,0,"bs_0reb060.wav",70
Sample,72500,0,"dm_open-hat.wav",70
Sample,72666,0,"piw_1si060.wav",70
Sample,72666,0,"dm_close-hat.wav",70
Sample,72666,0,"bs_-1reb030.wav",70
Sample,72833,0,"bs_0reb060.wav",70
Sample,72833,0,"dm_open-hat.wav",70
Sample,72916,0,"piw_1si060.wav",70
Sample,73000,0,"dm_snare01.wav",70
Sample,73000,0,"dm_snare03.wav",70
Sample,73000,0,"dm_close-hat.wav",70
Sample,73000,0,"bs_-1reb030.wav",70
Sample,73166,0,"bs_0reb060.wav",70
Sample,73166,0,"piw_1si060.wav",70
Sample,73166,0,"dm_open-hat.wav",70
Sample,73333,0,"stw2_3reb960.wav",70
Sample,73333,0,"dm_close-hat.wav",70
Sample,73333,0,"ce_4reb720.wav",70
Sample,73333,0,"bs_-1re030.wav",70
Sample,73500,0,"dm_open-hat.wav",70
Sample,73500,0,"piw_2reb060.wav",70
Sample,73500,0,"bs_0re060.wav",70
Sample,73666,0,"dm_snare01.wav",70
Sample,73666,0,"dm_snare03.wav",70
Sample,73666,0,"piw_2reb060.wav",70
Sample,73666,0,"dm_close-hat.wav",70
Sample,73666,0,"bs_-1re030.wav",70
Sample,73833,0,"bs_0re060.wav",70
Sample,73833,0,"dm_open-hat.wav",70
Sample,74000,0,"bs_-1re030.wav",70
Sample,74000,0,"dm_close-hat.wav",70
Sample,74000,0,"piw_2reb060.wav",70
Sample,74166,0,"dm_open-hat.wav",70
Sample,74166,0,"bs_0re060.wav",70
Sample,74250,0,"piw_2reb060.wav",70
Sample,74333,0,"bs_-1re030.wav",70
Sample,74333,0,"dm_close-hat.wav",70
Sample,74333,0,"dm_snare01.wav",70
Sample,74333,0,"dm_snare03.wav",70
Sample,74500,0,"dm_open-hat.wav",70
Sample,74500,0,"piw_2reb060.wav",70
Sample,74500,0,"bs_0re060.wav",70
Sample,74666,0,"bs_-1re030.wav",70
Sample,74666,0,"dm_close-hat.wav",70
Sample,74833,0,"bs_0re060.wav",70
Sample,74833,0,"piw_2reb060.wav",70
Sample,74833,0,"dm_open-hat.wav",70
Sample,75000,0,"dm_close-hat.wav",70
Sample,75000,0,"piw_2reb060.wav",70
Sample,75000,0,"bs_-1re030.wav",70
Sample,75000,0,"dm_snare01.wav",70
Sample,75000,0,"dm_snare03.wav",70
Sample,75166,0,"bs_0re060.wav",70
Sample,75166,0,"dm_open-hat.wav",70
Sample,75333,0,"bs_-1re030.wav",70
Sample,75333,0,"dm_close-hat.wav",70
Sample,75333,0,"piw_2reb060.wav",70
Sample,75500,0,"bs_0re060.wav",70
Sample,75500,0,"dm_open-hat.wav",70
Sample,75583,0,"piw_2reb060.wav",70
Sample,75666,0,"dm_snare01.wav",70
Sample,75666,0,"dm_snare03.wav",70
Sample,75666,0,"bs_-1re030.wav",70
Sample,75666,0,"dm_close-hat.wav",70
Sample,75833,0,"dm_open-hat.wav",70
Sample,75833,0,"piw_2reb060.wav",70
Sample,75833,0,"bs_0re060.wav",70
Sample,76000,0,"ce_3si180.wav",70
Sample,76000,0,"bs_-2si030.wav",70
Sample,76000,0,"stw_2si420.wav",70
Sample,76000,0,"dm_close-hat.wav",70
Sample,76166,0,"piw_1si060.wav",70
Sample,76166,0,"bs_-1si060.wav",70
Sample,76166,0,"dm_open-hat.wav",70
Sample,76333,0,"bs_-2si030.wav",70
Sample,76333,0,"piw_1si060.wav",70
Sample,76333,0,"dm_close-hat.wav",70
Sample,76333,0,"dm_snare01.wav",70
Sample,76333,0,"dm_snare03.wav",70
Sample,76500,0,"bs_-1si060.wav",70
Sample,76500,0,"dm_open-hat.wav",70
Sample,76666,0,"ce_3si060.wav",70
Sample,76666,0,"bs_-2si030.wav",70
Sample,76666,0,"dm_close-hat.wav",70
Sample,76666,0,"piw_1si060.wav",70
Sample,76833,0,"ce_3so#060.wav",70
Sample,76833,0,"dm_open-hat.wav",70
Sample,76833,0,"bs_-1si060.wav",70
Sample,76916,0,"piw_1si060.wav",70
Sample,77000,0,"bs_-2si030.wav",70
Sample,77000,0,"dm_snare03.wav",70
Sample,77000,0,"dm_snare01.wav",70
Sample,77000,0,"dm_close-hat.wav",70
Sample,77000,0,"ce_3si060.wav",70
Sample,77166,0,"dm_open-hat.wav",70
Sample,77166,0,"ce_4do060.wav",70
Sample,77166,0,"piw_2do060.wav",70
Sample,77166,0,"bs_-1si060.wav",70
Sample,77166,0,"stw_3do060.wav",70
Sample,77333,0,"bs_-1do030.wav",70
Sample,77333,0,"dm_close-hat.wav",70
Sample,77333,0,"dm_snare02.wav",70
Sample,77416,0,"dm_close-hat.wav",70
Sample,77500,0,"ce_4do060.wav",70
Sample,77500,0,"piw_2do060.wav",70
Sample,77500,0,"dm_snare02.wav",70
Sample,77500,0,"bs_-1si060.wav",70
Sample,77500,0,"dm_close-hat.wav",70
Sample,77500,0,"stw_3do060.wav",70
Sample,77583,0,"dm_close-hat.wav",70
Sample,77666,0,"dm_snare01.wav",70
Sample,77666,0,"ce_4do060.wav",70
Sample,77666,0,"piw_2do060.wav",70
Sample,77666,0,"bs_-1do030.wav",70
Sample,77666,0,"stw_3do060.wav",70
Sample,77666,0,"dm_snare02.wav",70
Sample,77666,0,"dm_close-hat.wav",70
Sample,77750,0,"dm_close-hat.wav",70
Sample,77833,0,"bs_-1si060.wav",70
Sample,77833,0,"piw_2do060.wav",70
Sample,77833,0,"dm_snare02.wav",70
Sample,77833,0,"dm_close-hat.wav",70
Sample,77833,0,"ce_4mib060.wav",70
Sample,77833,0,"stw_3mib060.wav",70
Sample,77916,0,"dm_close-hat.wav",70
Sample,77916,0,"dm_snare01.wav",70
Sample,78000,0,"piw_2do120.wav",70
Sample,78000,0,"ce_4so#090.wav",70
Sample,78000,0,"dm_close-hat.wav",70
Sample,78000,0,"bs_-1do120.wav",70
Sample,78000,0,"stw_3so#120.wav",70
Sample,78000,0,"dm_snare02.wav",70
Sample,78083,0,"dm_close-hat.wav",70
Sample,78166,0,"dm_snare02.wav",70
Sample,78166,0,"dm_snare01.wav",70
Sample,78166,0,"dm_close-hat.wav",70
Sample,78250,0,"dm_close-hat.wav",70
Sample,78333,0,"dm_snare01.wav",70
Sample,78333,0,"dm_close-hat.wav",70
Sample,78333,0,"dm_snare02.wav",70
Sample,78416,0,"dm_close-hat.wav",70
Sample,78500,0,"dm_snare02.wav",70
Sample,78500,0,"ce_3mi060.wav",70
Sample,78500,0,"orch_3mi.wav",70
Sample,78666,0,"fgt_0mi450.wav",70
Sample,78666,0,"sq01.wav",70
Sample,78666,0,"stw_2ra480.wav",70
Sample,78666,0,"bs_-2ra030.wav",70
Sample,78666,0,"dm_close-hat.wav",70
Sample,78666,0,"dm_kick.wav",70
Sample,78833,0,"bs_-1ra060.wav",70
Sample,78833,0,"dm_open-hat.wav",70
Sample,78833,0,"ce_3mi060.wav",70
Sample,78833,0,"dm_tambourine.wav",70
Sample,79000,0,"dm_close-hat.wav",70
Sample,79000,0,"ce_3mi060.wav",70
Sample,79000,0,"bs_-2ra030.wav",70
Sample,79000,0,"dm_snare01.wav",70
Sample,79000,0,"dm_snare03.wav",70
Sample,79000,0,"dm_kick.wav",70
Sample,79166,0,"ce_3mib060.wav",70
Sample,79166,0,"dm_tambourine.wav",70
Sample,79166,0,"dm_open-hat.wav",70
Sample,79166,0,"bs_-1ra060.wav",70
Sample,79333,0,"dm_kick.wav",70
Sample,79333,0,"ce_3mi060.wav",70
Sample,79333,0,"dm_close-hat.wav",70
Sample,79333,0,"bs_-2ra030.wav",70
Sample,79500,0,"dm_open-hat.wav",70
Sample,79500,0,"bs_-1ra060.wav",70
Sample,79500,0,"dm_tambourine.wav",70
Sample,79666,0,"bs_-2ra030.wav",70
Sample,79666,0,"dm_kick.wav",70
Sample,79666,0,"dm_snare01.wav",70
Sample,79666,0,"ce_4reb060.wav",70
Sample,79666,0,"syw_3reb060.wav",70
Sample,79666,0,"dm_close-hat.wav",70
Sample,79666,0,"dm_snare03.wav",70
Sample,79833,0,"dm_open-hat.wav",70
Sample,79833,0,"dm_tambourine.wav",70
Sample,79833,0,"ce_3si120.wav",70
Sample,79833,0,"syw_2si120.wav",70
Sample,79833,0,"bs_-1ra060.wav",70
Sample,79833,0,"orch_3fa#.wav",70
Sample,80000,0,"fgt_0fa#450.wav",70
Sample,80000,0,"sq01.wav",70
Sample,80000,0,"stw_2si480.wav",70
Sample,80000,0,"bs_-2si030.wav",70
Sample,80000,0,"dm_close-hat.wav",70
Sample,80000,0,"dm_kick.wav",70
Sample,80166,0,"ce_3ra120.wav",70
Sample,80166,0,"dm_tambourine.wav",70
Sample,80166,0,"bs_-1si060.wav",70
Sample,80166,0,"dm_open-hat.wav",70
Sample,80166,0,"syw_2ra120.wav",70
Sample,80333,0,"dm_kick.wav",70
Sample,80333,0,"dm_close-hat.wav",70
Sample,80333,0,"dm_snare01.wav",70
Sample,80333,0,"dm_snare03.wav",70
Sample,80333,0,"bs_-2si030.wav",70
Sample,80500,0,"syw_2so#120.wav",70
Sample,80500,0,"dm_open-hat.wav",70
Sample,80500,0,"bs_-1si060.wav",70
Sample,80500,0,"ce_3so#120.wav",70
Sample,80500,0,"dm_tambourine.wav",70
Sample,80666,0,"bs_-2si030.wav",70
Sample,80666,0,"dm_kick.wav",70
Sample,80666,0,"dm_close-hat.wav",70
Sample,80833,0,"bs_-1si060.wav",70
Sample,80833,0,"dm_tambourine.wav",70
Sample,80833,0,"dm_open-hat.wav",70
Sample,80833,0,"syw_2fa#120.wav",70
Sample,80833,0,"ce_3fa#120.wav",70
Sample,81000,0,"dm_snare01.wav",70
Sample,81000,0,"dm_close-hat.wav",70
Sample,81000,0,"dm_snare03.wav",70
Sample,81000,0,"bs_-2si030.wav",70
Sample,81000,0,"dm_cymbal02.wav",70
Sample,81000,0,"dm_kick.wav",70
Sample,81166,0,"syw_2fa#120.wav",70
Sample,81166,0,"ce_3fa#120.wav",70
Sample,81166,0,"orch_3fa#.wav",70
Sample,81166,0,"dm_open-hat.wav",70
Sample,81166,0,"dm_tambourine.wav",70
Sample,81166,0,"bs_-1si060.wav",70
Sample,81333,0,"bs_-1reb030.wav",70
Sample,81333,0,"dm_close-hat.wav",70
Sample,81333,0,"dm_kick.wav",70
Sample,81333,0,"fgt_0so#900.wav",70
Sample,81333,0,"sq02.wav",70
Sample,81333,0,"stw_3reb960.wav",70
Sample,81500,0,"ce_3so#060.wav",70
Sample,81500,0,"dm_tambourine.wav",70
Sample,81500,0,"bs_0reb060.wav",70
Sample,81500,0,"dm_open-hat.wav",70
Sample,81666,0,"dm_snare01.wav",70
Sample,81666,0,"dm_snare03.wav",70
Sample,81666,0,"bs_-1mib030.wav",70
Sample,81666,0,"ce_3so#060.wav",70
Sample,81666,0,"dm_kick.wav",70
Sample,81666,0,"dm_close-hat.wav",70
Sample,81833,0,"bs_0mib060.wav",70
Sample,81833,0,"dm_open-hat.wav",70
Sample,81833,0,"dm_tambourine.wav",70
Sample,82000,0,"bs_-1mi030.wav",70
Sample,82000,0,"dm_kick.wav",70
Sample,82000,0,"ce_3so#120.wav",70
Sample,82000,0,"dm_close-hat.wav",70
Sample,82166,0,"dm_tambourine.wav",70
Sample,82166,0,"dm_open-hat.wav",70
Sample,82166,0,"bs_0mi060.wav",70
Sample,82333,0,"dm_close-hat.wav",70
Sample,82333,0,"dm_snare03.wav",70
Sample,82333,0,"dm_kick.wav",70
Sample,82333,0,"bs_-1mib030.wav",70
Sample,82333,0,"dm_snare01.wav",70
Sample,82500,0,"bs_0mib060.wav",70
Sample,82500,0,"orch_3fa#.wav",70
Sample,82500,0,"dm_open-hat.wav",70
Sample,82500,0,"ce_3fa#120.wav",70
Sample,82500,0,"dm_tambourine.wav",70
Sample,82666,0,"sq02.wav",70
Sample,82666,0,"bs_-1reb030.wav",70
Sample,82666,0,"dm_close-hat.wav",70
Sample,82666,0,"dm_kick.wav",70
Sample,82833,0,"bs_0reb060.wav",70
Sample,82833,0,"dm_tambourine.wav",70
Sample,82833,0,"ce_3so#060.wav",70
Sample,82833,0,"dm_open-hat.wav",70
Sample,83000,0,"dm_kick.wav",70
Sample,83000,0,"ce_3so#060.wav",70
Sample,83000,0,"bs_-1mib030.wav",70
Sample,83000,0,"dm_close-hat.wav",70
Sample,83000,0,"dm_snare01.wav",70
Sample,83000,0,"dm_snare03.wav",70
Sample,83166,0,"dm_open-hat.wav",70
Sample,83166,0,"bs_0mib060.wav",70
Sample,83166,0,"dm_tambourine.wav",70
Sample,83333,0,"dm_kick.wav",70
Sample,83333,0,"bs_-1mi030.wav",70
Sample,83333,0,"dm_close-hat.wav",70
Sample,83333,0,"ce_3so#060.wav",70
Sample,83500,0,"dm_tambourine.wav",70
Sample,83500,0,"dm_open-hat.wav",70
Sample,83500,0,"bs_0mi060.wav",70
Sample,83666,0,"dm_kick.wav",70
Sample,83666,0,"bs_-1mib030.wav",70
Sample,83666,0,"dm_snare03.wav",70
Sample,83666,0,"dm_snare01.wav",70
Sample,83666,0,"ce_3fa#060.wav",70
Sample,83666,0,"dm_close-hat.wav",70
Sample,83666,0,"dm_cymbal02.wav",70
Sample,83666,0,"orch_3fa#.wav",70
Sample,83833,0,"dm_open-hat.wav",70
Sample,83833,0,"ce_3mi060.wav",70
Sample,83833,0,"dm_tambourine.wav",70
Sample,83833,0,"bs_0mib060.wav",70
Sample,83833,0,"orch_3mi.wav",70
Sample,84000,0,"fgt_0mi450.wav",70
Sample,84000,0,"sq01.wav",70
Sample,84000,0,"stw_2ra480.wav",70
Sample,84000,0,"bs_-2ra030.wav",70
Sample,84000,0,"dm_close-hat.wav",70
Sample,84000,0,"dm_kick.wav",70
Sample,84166,0,"bs_-1ra060.wav",70
Sample,84166,0,"ce_3mi060.wav",70
Sample,84166,0,"dm_open-hat.wav",70
Sample,84166,0,"dm_tambourine.wav",70
Sample,84333,0,"ce_3mi060.wav",70
Sample,84333,0,"dm_kick.wav",70
Sample,84333,0,"bs_-2ra030.wav",70
Sample,84333,0,"dm_snare01.wav",70
Sample,84333,0,"dm_snare03.wav",70
Sample,84333,0,"dm_close-hat.wav",70
Sample,84500,0,"dm_open-hat.wav",70
Sample,84500,0,"dm_tambourine.wav",70
Sample,84500,0,"ce_3mib060.wav",70
Sample,84500,0,"bs_-1ra060.wav",70
Sample,84666,0,"ce_3mi060.wav",70
Sample,84666,0,"bs_-2ra030.wav",70
Sample,84666,0,"dm_close-hat.wav",70
Sample,84666,0,"dm_kick.wav",70
Sample,84833,0,"dm_open-hat.wav",70
Sample,84833,0,"bs_-1ra060.wav",70
Sample,84833,0,"dm_tambourine.wav",70
Sample,85000,0,"dm_kick.wav",70
Sample,85000,0,"bs_-2ra030.wav",70
Sample,85000,0,"dm_snare03.wav",70
Sample,85000,0,"syw_3reb060.wav",70
Sample,85000,0,"dm_close-hat.wav",70
Sample,85000,0,"ce_4reb060.wav",70
Sample,85000,0,"dm_snare01.wav",70
Sample,85166,0,"bs_-1ra060.wav",70
Sample,85166,0,"dm_tambourine.wav",70
Sample,85166,0,"dm_open-hat.wav",70
Sample,85166,0,"ce_3si120.wav",70
Sample,85166,0,"syw_2si120.wav",70
Sample,85166,0,"orch_3fa#.wav",70
Sample,85333,0,"fgt_0fa#450.wav",70
Sample,85333,0,"sq01.wav",70
Sample,85333,0,"stw_2si480.wav",70
Sample,85333,0,"bs_-2si030.wav",70
Sample,85333,0,"dm_close-hat.wav",70
Sample,85333,0,"dm_kick.wav",70
Sample,85500,0,"bs_-1si060.wav",70
Sample,85500,0,"dm_tambourine.wav",70
Sample,85500,0,"syw_2ra120.wav",70
Sample,85500,0,"dm_open-hat.wav",70
Sample,85500,0,"ce_3ra120.wav",70
Sample,85666,0,"dm_close-hat.wav",70
Sample,85666,0,"bs_-2si030.wav",70
Sample,85666,0,"dm_kick.wav",70
Sample,85666,0,"dm_snare01.wav",70
Sample,85666,0,"dm_snare03.wav",70
Sample,85833,0,"ce_3so#120.wav",70
Sample,85833,0,"bs_-1si060.wav",70
Sample,85833,0,"syw_2so#120.wav",70
Sample,85833,0,"dm_open-hat.wav",70
Sample,85833,0,"dm_tambourine.wav",70
Sample,86000,0,"dm_kick.wav",70
Sample,86000,0,"dm_close-hat.wav",70
Sample,86000,0,"bs_-2si030.wav",70
Sample,86166,0,"syw_2fa#180.wav",70
Sample,86166,0,"dm_tambourine.wav",70
Sample,86166,0,"bs_-1si060.wav",70
Sample,86166,0,"ce_3fa#120.wav",70
Sample,86166,0,"dm_open-hat.wav",70
Sample,86333,0,"dm_close-hat.wav",70
Sample,86333,0,"dm_kick.wav",70
Sample,86333,0,"dm_snare01.wav",70
Sample,86333,0,"dm_cymbal02.wav",70
Sample,86333,0,"dm_snare03.wav",70
Sample,86333,0,"bs_-2si030.wav",70
Sample,86500,0,"dm_open-hat.wav",70
Sample,86500,0,"bs_-1si060.wav",70
Sample,86500,0,"dm_tambourine.wav",70
Sample,86666,0,"stw_3reb960.wav",70
Sample,86666,0,"sq02.wav",70
Sample,86666,0,"ce_3mib060.wav",70
Sample,86666,0,"bs_-1reb030.wav",70
Sample,86666,0,"syw_2mib060.wav",70
Sample,86666,0,"dm_close-hat.wav",70
Sample,86666,0,"fgt_0so#900.wav",70
Sample,86666,0,"dm_kick.wav",70
Sample,86833,0,"syw_2mi060.wav",70
Sample,86833,0,"bs_0reb060.wav",70
Sample,86833,0,"dm_open-hat.wav",70
Sample,86833,0,"ce_3mi060.wav",70
Sample,86833,0,"dm_tambourine.wav",70
Sample,87000,0,"syw_2mib060.wav",70
Sample,87000,0,"ce_3mib060.wav",70
Sample,87000,0,"dm_close-hat.wav",70
Sample,87000,0,"dm_kick.wav",70
Sample,87000,0,"bs_-1mib030.wav",70
Sample,87000,0,"dm_snare01.wav",70
Sample,87000,0,"dm_snare03.wav",70
Sample,87166,0,"ce_3reb420.wav",70
Sample,87166,0,"dm_tambourine.wav",70
Sample,87166,0,"dm_open-hat.wav",70
Sample,87166,0,"bs_0mib060.wav",70
Sample,87166,0,"syw_2reb480.wav",70
Sample,87333,0,"bs_-1mi030.wav",70
Sample,87333,0,"dm_close-hat.wav",70
Sample,87333,0,"dm_kick.wav",70
Sample,87500,0,"dm_open-hat.wav",70
Sample,87500,0,"bs_0mi060.wav",70
Sample,87500,0,"dm_tambourine.wav",70
Sample,87666,0,"dm_kick.wav",70
Sample,87666,0,"dm_snare03.wav",70
Sample,87666,0,"bs_-1mib030.wav",70
Sample,87666,0,"dm_close-hat.wav",70
Sample,87666,0,"dm_snare01.wav",70
Sample,87833,0,"dm_tambourine.wav",70
Sample,87833,0,"bs_0mib060.wav",70
Sample,87833,0,"dm_open-hat.wav",70
Sample,88000,0,"dm_close-hat.wav",70
Sample,88000,0,"dm_kick.wav",70
Sample,88000,0,"sq02.wav",70
Sample,88000,0,"bs_-1reb030.wav",70
Sample,88166,0,"bs_0reb060.wav",70
Sample,88166,0,"dm_open-hat.wav",70
Sample,88166,0,"dm_tambourine.wav",70
Sample,88333,0,"dm_snare03.wav",70
Sample,88333,0,"bs_-1mib030.wav",70
Sample,88333,0,"dm_snare01.wav",70
Sample,88333,0,"dm_kick.wav",70
Sample,88333,0,"dm_close-hat.wav",70
Sample,88500,0,"dm_tambourine.wav",70
Sample,88500,0,"dm_open-hat.wav",70
Sample,88500,0,"bs_0mib060.wav",70
Sample,88666,0,"bs_-1mi030.wav",70
Sample,88666,0,"dm_close-hat.wav",70
Sample,88666,0,"dm_kick.wav",70
Sample,88833,0,"dm_open-hat.wav",70
Sample,88833,0,"bs_0mi060.wav",70
Sample,88833,0,"dm_tambourine.wav",70
Sample,89000,0,"dm_kick.wav",70
Sample,89000,0,"dm_snare01.wav",70
Sample,89000,0,"dm_snare03.wav",70
Sample,89000,0,"dm_cymbal02.wav",70
Sample,89000,0,"dm_close-hat.wav",70
Sample,89000,0,"bs_-1mib030.wav",70
Sample,89166,0,"dm_open-hat.wav",70
Sample,89166,0,"dm_tambourine.wav",70
Sample,89166,0,"ce_3mi060.wav",70
Sample,89166,0,"bs_0mib060.wav",70
Sample,89166,0,"syw_2mi060.wav",70
Sample,89166,0,"orch_3mi.wav",70
Sample,89333,0,"fgt_0mi450.wav",70
Sample,89333,0,"sq01.wav",70
Sample,89333,0,"stw_2ra480.wav",70
Sample,89333,0,"bs_-2ra030.wav",70
Sample,89333,0,"dm_close-hat.wav",70
Sample,89500,0,"syw_2mi060.wav",70
Sample,89500,0,"ce_3mi060.wav",70
Sample,89500,0,"bs_-1ra060.wav",70
Sample,89500,0,"dm_open-hat.wav",70
Sample,89500,0,"dm_tambourine.wav",70
Sample,89666,0,"ce_3mi060.wav",70
Sample,89666,0,"dm_close-hat.wav",70
Sample,89666,0,"bs_-2ra030.wav",70
Sample,89666,0,"dm_snare01.wav",70
Sample,89666,0,"dm_snare03.wav",70
Sample,89666,0,"syw_2mi060.wav",70
Sample,89833,0,"dm_open-hat.wav",70
Sample,89833,0,"dm_tambourine.wav",70
Sample,89833,0,"syw_2mib060.wav",70
Sample,89833,0,"ce_3mib060.wav",70
Sample,89833,0,"bs_-1ra060.wav",70
Sample,90000,0,"ce_3mi060.wav",70
Sample,90000,0,"syw_2mi060.wav",70
Sample,90000,0,"bs_-2ra030.wav",70
Sample,90000,0,"dm_close-hat.wav",70
Sample,90166,0,"dm_open-hat.wav",70
Sample,90166,0,"bs_-1ra060.wav",70
Sample,90166,0,"dm_tambourine.wav",70
Sample,90333,0,"syw_3reb060.wav",70
Sample,90333,0,"dm_snare03.wav",70
Sample,90333,0,"ce_4reb060.wav",70
Sample,90333,0,"bs_-2ra030.wav",70
Sample,90333,0,"dm_close-hat.wav",70
Sample,90333,0,"dm_snare01.wav",70
Sample,90500,0,"ce_3si120.wav",70
Sample,90500,0,"dm_tambourine.wav",70
Sample,90500,0,"dm_open-hat.wav",70
Sample,90500,0,"syw_2si120.wav",70
Sample,90500,0,"bs_-1ra060.wav",70
Sample,90500,0,"orch_3fa#.wav",70
Sample,90666,0,"fgt_0fa#450.wav",70
Sample,90666,0,"sq01.wav",70
Sample,90666,0,"stw_2si480.wav",70
Sample,90666,0,"bs_-2si030.wav",70
Sample,90666,0,"dm_close-hat.wav",70
Sample,90833,0,"bs_-1si060.wav",70
Sample,90833,0,"dm_tambourine.wav",70
Sample,90833,0,"syw_2ra120.wav",70
Sample,90833,0,"ce_3ra120.wav",70
Sample,90833,0,"dm_open-hat.wav",70
Sample,91000,0,"dm_close-hat.wav",70
Sample,91000,0,"bs_-2si030.wav",70
Sample,91000,0,"dm_snare01.wav",70
Sample,91000,0,"dm_snare03.wav",70
Sample,91166,0,"bs_-1si060.wav",70
Sample,91166,0,"syw_2so#120.wav",70
Sample,91166,0,"dm_open-hat.wav",70
Sample,91166,0,"ce_3so#120.wav",70
Sample,91166,0,"dm_tambourine.wav",70
Sample,91333,0,"bs_-2si030.wav",70
Sample,91333,0,"dm_close-hat.wav",70
Sample,91500,0,"dm_open-hat.wav",70
Sample,91500,0,"dm_tambourine.wav",70
Sample,91500,0,"syw_2fa#120.wav",70
Sample,91500,0,"bs_-1si060.wav",70
Sample,91500,0,"ce_3fa#120.wav",70
Sample,91666,0,"bs_-2si030.wav",70
Sample,91666,0,"dm_cymbal02.wav",70
Sample,91666,0,"dm_snare01.wav",70
Sample,91666,0,"dm_snare03.wav",70
Sample,91666,0,"dm_close-hat.wav",70
Sample,91833,0,"bs_-1si060.wav",70
Sample,91833,0,"syw_2fa#120.wav",70
Sample,91833,0,"orch_3fa#.wav",70
Sample,91833,0,"dm_open-hat.wav",70
Sample,91833,0,"dm_tambourine.wav",70
Sample,91833,0,"ce_3fa#120.wav",70
Sample,92000,0,"bs_-1reb030.wav",70
Sample,92000,0,"dm_close-hat.wav",70
Sample,92000,0,"stw_3reb960.wav",70
Sample,92000,0,"fgt_0so#900.wav",70
Sample,92000,0,"sq02.wav",70
Sample,92166,0,"dm_open-hat.wav",70
Sample,92166,0,"dm_tambourine.wav",70
Sample,92166,0,"ce_3so#060.wav",70
Sample,92166,0,"syw_2so#060.wav",70
Sample,92166,0,"bs_0reb060.wav",70
Sample,92333,0,"dm_snare01.wav",70
Sample,92333,0,"dm_snare03.wav",70
Sample,92333,0,"ce_3so#060.wav",70
Sample,92333,0,"dm_close-hat.wav",70
Sample,92333,0,"bs_-1mib030.wav",70
Sample,92333,0,"syw_2so#060.wav",70
Sample,92500,0,"bs_0mib060.wav",70
Sample,92500,0,"dm_open-hat.wav",70
Sample,92500,0,"dm_tambourine.wav",70
Sample,92666,0,"ce_3so#120.wav",70
Sample,92666,0,"bs_-1mi030.wav",70
Sample,92666,0,"dm_close-hat.wav",70
Sample,92666,0,"syw_2so#120.wav",70
Sample,92833,0,"dm_tambourine.wav",70
Sample,92833,0,"bs_0mi060.wav",70
Sample,92833,0,"dm_open-hat.wav",70
Sample,93000,0,"dm_close-hat.wav",70
Sample,93000,0,"dm_snare03.wav",70
Sample,93000,0,"bs_-1mib030.wav",70
Sample,93000,0,"dm_snare01.wav",70
Sample,93166,0,"bs_0mib060.wav",70
Sample,93166,0,"syw_2fa#120.wav",70
Sample,93166,0,"orch_3fa#.wav",70
Sample,93166,0,"dm_open-hat.wav",70
Sample,93166,0,"dm_tambourine.wav",70
Sample,93166,0,"ce_3fa#120.wav",70
Sample,93333,0,"dm_close-hat.wav",70
Sample,93333,0,"bs_-1reb030.wav",70
Sample,93333,0,"sq02.wav",70
Sample,93500,0,"bs_0reb060.wav",70
Sample,93500,0,"dm_open-hat.wav",70
Sample,93500,0,"syw_2so#060.wav",70
Sample,93500,0,"ce_3so#060.wav",70
Sample,93500,0,"dm_tambourine.wav",70
Sample,93666,0,"dm_snare01.wav",70
Sample,93666,0,"dm_snare03.wav",70
Sample,93666,0,"syw_2so#060.wav",70
Sample,93666,0,"bs_-1mib030.wav",70
Sample,93666,0,"ce_3so#060.wav",70
Sample,93666,0,"dm_close-hat.wav",70
Sample,93833,0,"dm_tambourine.wav",70
Sample,93833,0,"bs_0mib060.wav",70
Sample,93833,0,"dm_open-hat.wav",70
Sample,94000,0,"syw_2so#060.wav",70
Sample,94000,0,"dm_close-hat.wav",70
Sample,94000,0,"bs_-1mi030.wav",70
Sample,94000,0,"ce_3so#060.wav",70
Sample,94166,0,"bs_0mi060.wav",70
Sample,94166,0,"dm_open-hat.wav",70
Sample,94166,0,"dm_tambourine.wav",70
Sample,94333,0,"dm_close-hat.wav",70
Sample,94333,0,"dm_snare03.wav",70
Sample,94333,0,"dm_snare01.wav",70
Sample,94333,0,"syw_2fa#060.wav",70
Sample,94333,0,"dm_cymbal02.wav",70
Sample,94333,0,"ce_3fa#060.wav",70
Sample,94333,0,"orch_3fa#.wav",70
Sample,94333,0,"bs_-1mib030.wav",70
Sample,94500,0,"dm_open-hat.wav",70
Sample,94500,0,"bs_0mib060.wav",70
Sample,94500,0,"orch_3mi.wav",70
Sample,94500,0,"syw_2mi060.wav",70
Sample,94500,0,"dm_tambourine.wav",70
Sample,94500,0,"ce_3mi060.wav",70
Sample,94666,0,"bs_-2ra030.wav",70
Sample,94666,0,"dm_close-hat.wav",70
Sample,94666,0,"stw_2ra480.wav",70
Sample,94666,0,"fgt_0mi450.wav",70
Sample,94666,0,"sq01.wav",70
Sample,94833,0,"dm_open-hat.wav",70
Sample,94833,0,"dm_tambourine.wav",70
Sample,94833,0,"bs_-1ra060.wav",70
Sample,94833,0,"syw_2mi060.wav",70
Sample,94833,0,"ce_3mi060.wav",70
Sample,95000,0,"dm_snare01.wav",70
Sample,95000,0,"dm_snare03.wav",70
Sample,95000,0,"ce_3mi060.wav",70
Sample,95000,0,"dm_close-hat.wav",70
Sample,95000,0,"bs_-2ra030.wav",70
Sample,95000,0,"syw_2mi060.wav",70
Sample,95166,0,"bs_-1ra060.wav",70
Sample,95166,0,"dm_open-hat.wav",70
Sample,95166,0,"ce_3mib060.wav",70
Sample,95166,0,"syw_2mib060.wav",70
Sample,95166,0,"dm_tambourine.wav",70
Sample,95333,0,"syw_2mi060.wav",70
Sample,95333,0,"dm_close-hat.wav",70
Sample,95333,0,"bs_-2ra030.wav",70
Sample,95333,0,"ce_3mi060.wav",70
Sample,95500,0,"dm_tambourine.wav",70
Sample,95500,0,"bs_-1ra060.wav",70
Sample,95500,0,"dm_open-hat.wav",70
Sample,95666,0,"dm_close-hat.wav",70
Sample,95666,0,"dm_snare01.wav",70
Sample,95666,0,"dm_snare03.wav",70
Sample,95666,0,"ce_4reb060.wav",70
Sample,95666,0,"syw_3reb060.wav",70
Sample,95666,0,"bs_-2ra030.wav",70
Sample,95833,0,"ce_3si120.wav",70
Sample,95833,0,"bs_-1ra060.wav",70
Sample,95833,0,"orch_3fa#.wav",70
Sample,95833,0,"syw_2si120.wav",70
Sample,95833,0,"dm_tambourine.wav",70
Sample,95833,0,"dm_open-hat.wav",70
Sample,96000,0,"bs_-2si030.wav",70
Sample,96000,0,"dm_close-hat.wav",70
Sample,96000,0,"stw_2si480.wav",70
Sample,96000,0,"fgt_0fa#450.wav",70
Sample,96000,0,"sq01.wav",70
Sample,96166,0,"syw_2ra120.wav",70
Sample,96166,0,"dm_open-hat.wav",70
Sample,96166,0,"ce_3ra120.wav",70
Sample,96166,0,"bs_-1si060.wav",70
Sample,96166,0,"dm_tambourine.wav",70
Sample,96333,0,"dm_snare01.wav",70
Sample,96333,0,"dm_snare03.wav",70
Sample,96333,0,"bs_-2si030.wav",70
Sample,96333,0,"dm_close-hat.wav",70
Sample,96500,0,"ce_3so#120.wav",70
Sample,96500,0,"dm_tambourine.wav",70
Sample,96500,0,"dm_open-hat.wav",70
Sample,96500,0,"bs_-1si060.wav",70
Sample,96500,0,"syw_2so#120.wav",70
Sample,96666,0,"dm_close-hat.wav",70
Sample,96666,0,"bs_-2si030.wav",70
Sample,96833,0,"syw_2fa#180.wav",70
Sample,96833,0,"bs_-1si060.wav",70
Sample,96833,0,"dm_open-hat.wav",70
Sample,96833,0,"ce_3fa#120.wav",70
Sample,96833,0,"dm_tambourine.wav",70
Sample,97000,0,"dm_snare03.wav",70
Sample,97000,0,"dm_cymbal02.wav",70
Sample,97000,0,"dm_close-hat.wav",70
Sample,97000,0,"bs_-2si030.wav",70
Sample,97000,0,"dm_snare01.wav",70
Sample,97166,0,"dm_tambourine.wav",70
Sample,97166,0,"bs_-1si060.wav",70
Sample,97166,0,"dm_open-hat.wav",70
Sample,97333,0,"stw_3reb480.wav",70
Sample,97333,0,"bs_-1reb030.wav",70
Sample,97333,0,"dm_close-hat.wav",70
Sample,97333,0,"syw_2mib060.wav",70
Sample,97333,0,"ce_3mib060.wav",70
Sample,97333,0,"fgt_0so#180.wav",70
Sample,97333,0,"dm_kick.wav",70
Sample,97500,0,"bs_0reb060.wav",70
Sample,97500,0,"dm_open-hat.wav",70
Sample,97500,0,"syw_2mi060.wav",70
Sample,97500,0,"ce_3mi060.wav",70
Sample,97666,0,"bs_-1reb030.wav",70
Sample,97666,0,"ce_3mib060.wav",70
Sample,97666,0,"dm_snare01.wav",70
Sample,97666,0,"dm_close-hat.wav",70
Sample,97666,0,"dm_kick.wav",70
Sample,97666,0,"syw_2mib060.wav",70
Sample,97666,0,"dm_snare03.wav",70
Sample,97833,0,"dm_kick.wav",70
Sample,97833,0,"dm_snare01.wav",70
Sample,97833,0,"syw_2reb480.wav",70
Sample,97833,0,"bs_0reb060.wav",70
Sample,97833,0,"ce_3reb420.wav",70
Sample,97833,0,"fgt_1reb300.wav",70
Sample,97833,0,"dm_snare03.wav",70
Sample,99000,0,"dm_snare01.wav",70
Sample,99250,0,"dm_snare01.wav",70
Sample,99333,0,"dm_close-hat.wav",70
Sample,99500,0,"dm_open-hat.wav",70
Sample,99500,0,"dm_snare01.wav",70
Sample,99666,0,"dm_snare01.wav",70
Sample,99666,0,"dm_close-hat.wav",70
Sample,99666,0,"dm_snare03.wav",70
Sample,100000,0,"last.wav",70
//Background Colour Transformations
3,100,163,162,255

[TimingPoints]
0,333.333333333333,4,2,0,70,1,0

[HitObjects]
213,192,2500,5,0,0:0:0:0:syw_2mi060.wav
384,192,2500,1,0,0:0:0:0:ce_3mi060.wav
213,192,2833,1,0,0:0:0:0:syw_2mi060.wav
384,192,2833,1,0,0:0:0:0:ce_3mi060.wav
213,192,3000,1,0,0:0:0:0:syw_2mi060.wav
384,192,3000,1,0,0:0:0:0:ce_3mi060.wav
128,192,3166,1,0,0:0:0:0:syw_2mib060.wav
298,192,3166,1,0,0:0:0:0:ce_3mib060.wav
213,192,3333,1,0,0:0:0:0:syw_2mi060.wav
384,192,3333,1,0,0:0:0:0:ce_3mi060.wav
469,192,3666,1,0,0:0:0:0:syw_3reb060.wav
384,192,3833,1,0,0:0:0:0:syw_2si120.wav
298,192,4166,1,0,0:0:0:0:syw_2ra120.wav
213,192,4500,1,0,0:0:0:0:syw_2so#120.wav
128,192,4833,1,0,0:0:0:0:syw_2fa#120.wav
128,192,5166,1,0,0:0:0:0:syw_2fa#120.wav
298,192,5500,1,0,0:0:0:0:syw_2so#060.wav
469,192,5500,1,0,0:0:0:0:ce_3so#060.wav
298,192,5666,1,0,0:0:0:0:syw_2so#060.wav
469,192,5666,1,0,0:0:0:0:ce_3so#060.wav
298,192,6000,1,0,0:0:0:0:syw_2so#120.wav
469,192,6000,1,0,0:0:0:0:ce_3so#120.wav
213,192,6500,1,0,0:0:0:0:syw_2fa#120.wav
384,192,6500,1,0,0:0:0:0:ce_3fa#120.wav
298,192,6833,1,0,0:0:0:0:syw_2so#060.wav
469,192,6833,1,0,0:0:0:0:ce_3so#060.wav
298,192,7000,1,0,0:0:0:0:syw_2so#060.wav
469,192,7000,1,0,0:0:0:0:ce_3so#060.wav
298,192,7333,1,0,0:0:0:0:syw_2so#060.wav
469,192,7333,1,0,0:0:0:0:ce_3so#060.wav
213,192,7666,1,0,0:0:0:0:syw_2fa#060.wav
384,192,7666,1,0,0:0:0:0:ce_3fa#060.wav
213,192,7833,1,0,0:0:0:0:syw_2mi060.wav
384,192,7833,1,0,0:0:0:0:ce_3mi060.wav
213,192,8166,1,0,0:0:0:0:syw_2mi060.wav
384,192,8166,1,0,0:0:0:0:ce_3mi060.wav
213,192,8333,1,0,0:0:0:0:syw_2mi060.wav
384,192,8333,1,0,0:0:0:0:ce_3mi060.wav
128,192,8500,1,0,0:0:0:0:syw_2mib060.wav
298,192,8500,1,0,0:0:0:0:ce_3mib060.wav
213,192,8666,1,0,0:0:0:0:syw_2mi060.wav
384,192,8666,1,0,0:0:0:0:ce_3mi060.wav
469,192,9000,1,0,0:0:0:0:syw_3reb060.wav
384,192,9166,1,0,0:0:0:0:syw_2si120.wav
298,192,9500,1,0,0:0:0:0:syw_2ra120.wav
213,192,9833,1,0,0:0:0:0:syw_2so#120.wav
128,192,10166,1,0,0:0:0:0:syw_2fa#180.wav
213,192,10666,1,0,0:0:0:0:syw_2mib060.wav
298,192,10833,1,0,0:0:0:0:syw_2mi060.wav
213,192,11000,1,0,0:0:0:0:syw_2mib060.wav
128,192,11166,1,0,0:0:0:0:syw_2reb480.wav
469,192,12000,1,0,0:0:0:0:dm_snare02.wav
128,192,12083,1,0,0:0:0:0:dm_snare02.wav
469,192,12166,1,0,0:0:0:0:dm_snare02.wav
128,192,12250,1,0,0:0:0:0:dm_snare02.wav
469,192,12333,1,0,0:0:0:0:dm_snare02.wav
128,192,12416,1,0,0:0:0:0:dm_snare02.wav
469,192,12500,1,0,0:0:0:0:dm_snare02.wav
128,192,12583,1,0,0:0:0:0:dm_snare02.wav
469,192,12666,1,0,0:0:0:0:dm_snare02.wav
128,192,12750,1,0,0:0:0:0:dm_snare02.wav
469,192,12833,1,0,0:0:0:0:dm_snare02.wav
128,192,12916,1,0,0:0:0:0:dm_snare02.wav
469,192,13000,1,0,0:0:0:0:dm_snare02.wav
128,192,13083,1,0,0:0:0:0:dm_snare02.wav
469,192,13166,1,0,0:0:0:0:dm_snare02.wav
128,192,13250,1,0,0:0:0:0:dm_snare02.wav
42,192,13333,1,0,0:0:0:0:explosion.wav
384,192,13500,1,0,0:0:0:0:vbw_2mi030.wav
213,192,13583,1,0,0:0:0:0:vbw_2mi030.wav
384,192,13666,1,0,0:0:0:0:vbw_2mi060.wav
384,192,13833,1,0,0:0:0:0:vbw_2mi030.wav
213,192,13916,1,0,0:0:0:0:vbw_2mi030.wav
384,192,14000,1,0,0:0:0:0:vbw_2mi060.wav
128,192,14166,1,0,0:0:0:0:vbw_2reb060.wav
128,192,14500,1,0,0:0:0:0:vbw_2reb030.wav
128,192,14583,1,0,0:0:0:0:vbw_2reb030.wav
384,192,14666,1,0,0:0:0:0:vbw_2mi060.wav
384,192,14833,1,0,0:0:0:0:vbw_2mi030.wav
213,192,14916,1,0,0:0:0:0:vbw_2mi030.wav
384,192,15000,1,0,0:0:0:0:vbw_2mi060.wav
128,192,15166,1,0,0:0:0:0:vbw_2reb060.wav
469,192,15500,1,0,0:0:0:0:vbw_2so#060.wav
298,192,15666,1,0,0:0:0:0:vbw_2fa#060.wav
469,192,15833,1,0,0:0:0:0:vbw_2so#060.wav
384,192,16166,1,0,0:0:0:0:vbw_2mi030.wav
213,192,16249,1,0,0:0:0:0:vbw_2mi030.wav
384,192,16333,1,0,0:0:0:0:vbw_2mi060.wav
384,192,16500,1,0,0:0:0:0:vbw_2mi030.wav
213,192,16583,1,0,0:0:0:0:vbw_2mi030.wav
384,192,16666,1,0,0:0:0:0:vbw_2mi060.wav
128,192,16833,1,0,0:0:0:0:vbw_2reb060.wav
469,192,17166,1,0,0:0:0:0:vbw_2so#060.wav
384,192,17500,1,0,0:0:0:0:vbw_2fa#060.wav
298,192,17833,1,0,0:0:0:0:vbw_2mi060.wav
384,192,18166,1,0,0:0:0:0:vbw_2fa#060.wav
469,192,18833,1,0,0:0:0:0:vbw_2fa#030.wav
298,192,18916,1,0,0:0:0:0:vbw_2fa#030.wav
469,192,19000,1,0,0:0:0:0:vbw_2fa#060.wav
469,192,19166,1,0,0:0:0:0:vbw_2fa#030.wav
298,192,19250,1,0,0:0:0:0:vbw_2fa#030.wav
469,192,19333,1,0,0:0:0:0:vbw_2fa#060.wav
128,192,19500,1,0,0:0:0:0:vbw_2mib060.wav
469,192,19833,1,0,0:0:0:0:vbw_2so#060.wav
384,192,20166,1,0,0:0:0:0:vbw_2fa#060.wav
298,192,20500,1,0,0:0:0:0:vbw_2mi060.wav
213,192,20833,1,0,0:0:0:0:vbw_2mib060.wav
128,192,21166,1,0,0:0:0:0:fgtR_-1so#060.wav
298,192,21166,1,0,0:0:0:0:fgtL_0reb060.wav
128,192,21500,1,0,0:0:0:0:fgtR_-1so#060.wav
298,192,21500,1,0,0:0:0:0:fgtL_0reb060.wav
128,192,21666,1,0,0:0:0:0:fgtR_-1so#060.wav
384,192,21666,1,0,0:0:0:0:fgtL_0so#060.wav
298,192,21833,1,0,0:0:0:0:fgtR_-1si060.wav
469,192,21833,1,0,0:0:0:0:fgtL_0si060.wav
213,192,22000,1,0,0:0:0:0:fgtR_-1sib180.wav
384,192,22000,1,0,0:0:0:0:fgtL_0sib180.wav
128,192,22500,1,0,0:0:0:0:fgtR_-1so#060.wav
298,192,22500,1,0,0:0:0:0:fgtL_0reb060.wav
128,192,22833,1,0,0:0:0:0:fgtR_-1so#060.wav
298,192,22833,1,0,0:0:0:0:fgtL_0reb060.wav
128,192,23000,1,0,0:0:0:0:fgtR_-1so#060.wav
384,192,23000,1,0,0:0:0:0:fgtL_0so#060.wav
298,192,23166,1,0,0:0:0:0:fgtR_-1si060.wav
469,192,23166,1,0,0:0:0:0:fgtL_0si060.wav
213,192,23333,1,0,0:0:0:0:fgtR_-1sib180.wav
384,192,23333,1,0,0:0:0:0:fgtL_0sib180.wav
128,192,23666,1,0,0:0:0:0:vbw_3mib030.wav
298,192,23666,1,0,0:0:0:0:orch_2si.wav
298,192,23833,1,0,0:0:0:0:vbw_3mi030.wav
469,192,23833,1,0,0:0:0:0:orch_3reb.wav
384,192,24166,1,0,0:0:0:0:vbw_2mi030.wav
213,192,24250,1,0,0:0:0:0:vbw_2mi030.wav
384,192,24333,1,0,0:0:0:0:vbw_2mi060.wav
384,192,24500,1,0,0:0:0:0:vbw_2mi030.wav
213,192,24583,1,0,0:0:0:0:vbw_2mi030.wav
384,192,24666,1,0,0:0:0:0:vbw_2mi060.wav
128,192,24833,1,0,0:0:0:0:vbw_2reb060.wav
128,192,25166,1,0,0:0:0:0:vbw_2reb030.wav
128,192,25250,1,0,0:0:0:0:vbw_2reb030.wav
384,192,25333,1,0,0:0:0:0:vbw_2mi060.wav
384,192,25500,1,0,0:0:0:0:vbw_2mi030.wav
213,192,25583,1,0,0:0:0:0:vbw_2mi030.wav
384,192,25666,1,0,0:0:0:0:vbw_2mi060.wav
128,192,25833,1,0,0:0:0:0:vbw_2reb060.wav
469,192,26166,1,0,0:0:0:0:vbw_2so#060.wav
298,192,26333,1,0,0:0:0:0:vbw_2fa#060.wav
469,192,26500,1,0,0:0:0:0:vbw_2so#060.wav
384,192,26833,1,0,0:0:0:0:vbw_2mi030.wav
213,192,26916,1,0,0:0:0:0:vbw_2mi030.wav
384,192,27000,1,0,0:0:0:0:vbw_2mi060.wav
384,192,27166,1,0,0:0:0:0:vbw_2mi030.wav
213,192,27250,1,0,0:0:0:0:vbw_2mi030.wav
384,192,27333,1,0,0:0:0:0:vbw_2mi060.wav
128,192,27500,1,0,0:0:0:0:vbw_2reb060.wav
469,192,27833,1,0,0:0:0:0:vbw_2so#060.wav
384,192,28166,1,0,0:0:0:0:vbw_2fa#060.wav
298,192,28500,1,0,0:0:0:0:vbw_2mi060.wav
384,192,28833,1,0,0:0:0:0:vbw_2fa#060.wav
469,192,29500,1,0,0:0:0:0:vbw_2fa#030.wav
298,192,29583,1,0,0:0:0:0:vbw_2fa#030.wav
469,192,29666,1,0,0:0:0:0:vbw_2fa#060.wav
469,192,29833,1,0,0:0:0:0:vbw_2fa#030.wav
298,192,29916,1,0,0:0:0:0:vbw_2fa#030.wav
469,192,30000,1,0,0:0:0:0:vbw_2fa#060.wav
128,192,30166,1,0,0:0:0:0:vbw_2mib060.wav
469,192,30500,1,0,0:0:0:0:vbw_2so#060.wav
384,192,30833,1,0,0:0:0:0:vbw_2fa#060.wav
298,192,31166,1,0,0:0:0:0:vbw_2mi060.wav
213,192,31500,1,0,0:0:0:0:vbw_2mib060.wav
128,192,31833,1,0,0:0:0:0:fgtR_-1so#060.wav
298,192,31833,1,0,0:0:0:0:fgtL_0reb060.wav
128,192,32166,1,0,0:0:0:0:fgtR_-1so#060.wav
298,192,32166,1,0,0:0:0:0:fgtL_0reb060.wav
128,192,32333,1,0,0:0:0:0:fgtR_-1so#060.wav
384,192,32333,1,0,0:0:0:0:fgtL_0so#060.wav
298,192,32499,1,0,0:0:0:0:fgtR_-1si060.wav
469,192,32499,1,0,0:0:0:0:fgtL_0si060.wav
213,192,32666,1,0,0:0:0:0:fgtR_-1sib180.wav
384,192,32666,1,0,0:0:0:0:fgtL_0sib180.wav
128,192,33166,1,0,0:0:0:0:fgtR_-1so#060.wav
298,192,33166,1,0,0:0:0:0:fgtL_0reb060.wav
128,192,33500,1,0,0:0:0:0:fgtR_-1so#060.wav
298,192,33500,1,0,0:0:0:0:fgtL_0reb060.wav
128,192,33666,1,0,0:0:0:0:fgtR_-1so#060.wav
384,192,33666,1,0,0:0:0:0:fgtL_0so#060.wav
298,192,33833,1,0,0:0:0:0:fgtR_-1si060.wav
469,192,33833,1,0,0:0:0:0:fgtL_0si060.wav
213,192,34000,1,0,0:0:0:0:fgtR_-1sib180.wav
384,192,34000,1,0,0:0:0:0:fgtL_0sib180.wav
128,192,34333,1,0,0:0:0:0:vbw_3mib030.wav
298,192,34333,1,0,0:0:0:0:orch_2si.wav
298,192,34500,1,0,0:0:0:0:vbw_3mi030.wav
469,192,34500,1,0,0:0:0:0:orch_3reb.wav
42,192,34500,1,0,0:0:0:0:scr.wav
213,192,35666,1,0,0:0:0:0:sq_1si060.wav
384,192,35833,1,0,0:0:0:0:sq_2reb390.wav
213,192,37000,1,0,0:0:0:0:sq_1si060.wav
469,192,37166,1,0,0:0:0:0:sq_2mi120.wav
384,192,37500,1,0,0:0:0:0:sq_2reb120.wav
213,192,37833,1,0,0:0:0:0:sq_1si120.wav
384,192,38166,1,0,0:0:0:0:sq_2reb150.wav
213,192,38666,1,0,0:0:0:0:sq_1si240.wav
213,192,39333,1,0,0:0:0:0:sq_1si060.wav
384,192,39500,1,0,0:0:0:0:sq_2reb150.wav
213,192,40000,1,0,0:0:0:0:sq_1so#060.wav
298,192,40166,1,0,0:0:0:0:sq_1ra060.wav
213,192,40333,1,0,0:0:0:0:sq_1so#060.wav
128,192,40500,1,0,0:0:0:0:sq_1mi060.wav
128,192,40833,1,0,0:0:0:0:sq_1mi060.wav
213,192,41000,1,0,0:0:0:0:sq_1so#060.wav
298,192,41166,1,0,0:0:0:0:sq_1si060.wav
384,192,41333,1,0,0:0:0:0:sq_2reb330.wav
213,192,42333,1,0,0:0:0:0:sq_1si060.wav
469,192,42500,1,0,0:0:0:0:sq_2mi120.wav
384,192,42833,1,0,0:0:0:0:sq_2reb120.wav
213,192,43166,1,0,0:0:0:0:sq_1si120.wav
384,192,43500,1,0,0:0:0:0:sq_2reb120.wav
213,192,43833,1,0,0:0:0:0:sq_1si270.wav
213,192,44666,1,0,0:0:0:0:sq_1si060.wav
128,192,44833,1,0,0:0:0:0:sq_1so#060.wav
213,192,45000,1,0,0:0:0:0:sq_1si060.wav
298,192,45166,1,0,0:0:0:0:sq_2do060.wav
298,192,45500,1,0,0:0:0:0:sq_2do060.wav
298,192,45666,1,0,0:0:0:0:sq_2do060.wav
384,192,45833,1,0,0:0:0:0:sq_2mib060.wav
469,192,46000,1,0,0:0:0:0:sq_2so#120.wav
42,192,46333,1,0,0:0:0:0:orch_3so#.wav
298,192,46666,1,0,0:0:0:0:ts_0so#360.wav
213,192,47666,1,0,0:0:0:0:ts_0fa#060.wav
469,192,47833,1,0,0:0:0:0:ts_0si120.wav
384,192,48166,1,0,0:0:0:0:ts_0ra120.wav
298,192,48500,1,0,0:0:0:0:ts_0so#120.wav
384,192,48833,1,0,0:0:0:0:ts_0ra120.wav
298,192,49166,1,0,0:0:0:0:ts_0so#420.wav
213,192,50333,1,0,0:0:0:0:ts_0fa#060.wav
469,192,50500,1,0,0:0:0:0:ts_0si120.wav
384,192,50833,1,0,0:0:0:0:ts_0ra120.wav
298,192,51166,1,0,0:0:0:0:ts_0so#120.wav
384,192,51500,1,0,0:0:0:0:ts_0ra120.wav
128,192,51833,1,0,0:0:0:0:ts_0mi270.wav
128,192,52666,1,0,0:0:0:0:ts_0mi060.wav
213,192,52833,1,0,0:0:0:0:ts_0fa#060.wav
298,192,53000,1,0,0:0:0:0:ts_0so#060.wav
128,192,53166,1,0,0:0:0:0:ts_0mib540.wav
128,192,54500,1,0,0:0:0:0:fgtR_-1so#060.wav
298,192,54500,1,0,0:0:0:0:fgtL_0reb060.wav
128,192,54833,1,0,0:0:0:0:fgtR_-1so#060.wav
298,192,54833,1,0,0:0:0:0:fgtL_0reb060.wav
128,192,55000,1,0,0:0:0:0:fgtR_-1so#060.wav
384,192,55000,1,0,0:0:0:0:fgtL_0so#060.wav
298,192,55166,1,0,0:0:0:0:fgtR_-1si060.wav
469,192,55166,1,0,0:0:0:0:fgtL_0si060.wav
213,192,55333,1,0,0:0:0:0:fgtR_-1sib180.wav
384,192,55333,1,0,0:0:0:0:fgtL_0sib180.wav
128,192,55833,1,0,0:0:0:0:fgtR_-1so#060.wav
298,192,55833,1,0,0:0:0:0:fgtL_0reb060.wav
128,192,56166,1,0,0:0:0:0:fgtR_-1so#060.wav
298,192,56166,1,0,0:0:0:0:fgtL_0reb060.wav
128,192,56333,1,0,0:0:0:0:fgtR_-1so#060.wav
384,192,56333,1,0,0:0:0:0:fgtL_0so#060.wav
298,192,56500,1,0,0:0:0:0:fgtR_-1si060.wav
469,192,56500,1,0,0:0:0:0:fgtL_0si060.wav
213,192,56666,1,0,0:0:0:0:fgtR_-1sib180.wav
384,192,56666,1,0,0:0:0:0:fgtL_0sib180.wav
128,192,57000,1,0,0:0:0:0:ts_1si060.wav
42,192,57000,1,0,0:0:0:0:orch_2si.wav
213,192,57166,1,0,0:0:0:0:ts_2reb270.wav
42,192,57166,1,0,0:0:0:0:orch_3reb.wav
213,192,58000,1,0,0:0:0:0:ts_2reb120.wav
128,192,58333,1,0,0:0:0:0:ts_1si060.wav
213,192,58500,1,0,0:0:0:0:ts_2reb120.wav
298,192,58833,1,0,0:0:0:0:ts_2mi180.wav
384,192,59333,1,0,0:0:0:0:ts_2so#060.wav
298,192,59500,1,0,0:0:0:0:ts_2fa#060.wav
213,192,59666,1,0,0:0:0:0:ts_2mi060.wav
128,192,59833,1,0,0:0:0:0:ts_2mib060.wav
213,192,60000,1,0,0:0:0:0:ts_2reb210.wav
213,192,60666,1,0,0:0:0:0:ts_2reb120.wav
128,192,61000,1,0,0:0:0:0:ts_1si060.wav
213,192,61166,1,0,0:0:0:0:ts_2reb120.wav
384,192,61500,1,0,0:0:0:0:ts_2mi180.wav
384,192,62000,1,0,0:0:0:0:ts_2mi060.wav
469,192,62166,1,0,0:0:0:0:ts_2fa#060.wav
384,192,62333,1,0,0:0:0:0:ts_2mi120.wav
298,192,62666,1,0,0:0:0:0:ts_2mib210.wav
298,192,63333,1,0,0:0:0:0:ts_2mib060.wav
213,192,63500,1,0,0:0:0:0:ts_2reb060.wav
128,192,63666,1,0,0:0:0:0:ts_1si060.wav
469,192,63833,1,0,0:0:0:0:ts_2so#180.wav
384,192,64333,1,0,0:0:0:0:ts_2fa#120.wav
298,192,64666,1,0,0:0:0:0:ts_2mi120.wav
213,192,64999,1,0,0:0:0:0:ts_2mib120.wav
213,192,65333,1,0,0:0:0:0:ts_2mib060.wav
298,192,65499,1,0,0:0:0:0:ts_2mi060.wav
213,192,65666,1,0,0:0:0:0:ts_2mib060.wav
128,192,65833,1,0,0:0:0:0:ts_2reb540.wav
298,192,67666,1,0,0:0:0:0:sq_1si060.wav
42,192,67666,1,0,0:0:0:0:orch_2si.wav
384,192,67833,1,0,0:0:0:0:sq_2reb390.wav
42,192,67833,1,0,0:0:0:0:orch_3reb.wav
128,192,68000,1,0,0:0:0:0:dm_kick.wav
128,192,68333,1,0,0:0:0:0:dm_kick.wav
128,192,68666,1,0,0:0:0:0:dm_kick.wav
128,192,69000,1,0,0:0:0:0:dm_kick.wav
298,192,69000,1,0,0:0:0:0:sq_1si060.wav
469,192,69166,1,0,0:0:0:0:sq_2mi120.wav
128,192,69333,1,0,0:0:0:0:dm_kick.wav
384,192,69500,1,0,0:0:0:0:sq_2reb120.wav
128,192,69666,1,0,0:0:0:0:dm_kick.wav
298,192,69833,1,0,0:0:0:0:sq_1si120.wav
128,192,70000,1,0,0:0:0:0:dm_kick.wav
384,192,70166,1,0,0:0:0:0:sq_2reb150.wav
128,192,70333,1,0,0:0:0:0:dm_kick.wav
128,192,70666,1,0,0:0:0:0:dm_kick.wav
298,192,70666,1,0,0:0:0:0:sq_1si240.wav
128,192,71000,1,0,0:0:0:0:dm_kick.wav
128,192,71333,1,0,0:0:0:0:dm_kick.wav
298,192,71333,1,0,0:0:0:0:sq_1si060.wav
384,192,71500,1,0,0:0:0:0:sq_2reb150.wav
128,192,71666,1,0,0:0:0:0:dm_kick.wav
128,192,72000,1,0,0:0:0:0:dm_kick.wav
298,192,72000,1,0,0:0:0:0:sq_1so#060.wav
384,192,72166,1,0,0:0:0:0:sq_1ra060.wav
128,192,72333,1,0,0:0:0:0:dm_kick.wav
298,192,72333,1,0,0:0:0:0:sq_1so#060.wav
213,192,72500,1,0,0:0:0:0:sq_1mi060.wav
128,192,72666,1,0,0:0:0:0:dm_kick.wav
213,192,72833,1,0,0:0:0:0:sq_1mi060.wav
128,192,73000,1,0,0:0:0:0:dm_kick.wav
298,192,73000,1,0,0:0:0:0:sq_1so#060.wav
384,192,73166,1,0,0:0:0:0:sq_1si060.wav
128,192,73333,1,0,0:0:0:0:dm_kick.wav
469,192,73333,1,0,0:0:0:0:sq_2reb330.wav
128,192,73666,1,0,0:0:0:0:dm_kick.wav
128,192,74000,1,0,0:0:0:0:dm_kick.wav
128,192,74333,1,0,0:0:0:0:dm_kick.wav
298,192,74333,1,0,0:0:0:0:sq_1si060.wav
469,192,74500,1,0,0:0:0:0:sq_2mi120.wav
128,192,74666,1,0,0:0:0:0:dm_kick.wav
384,192,74833,1,0,0:0:0:0:sq_2reb120.wav
128,192,75000,1,0,0:0:0:0:dm_kick.wav
298,192,75166,1,0,0:0:0:0:sq_1si120.wav
128,192,75333,1,0,0:0:0:0:dm_kick.wav
469,192,75500,1,0,0:0:0:0:sq_2reb120.wav
128,192,75666,1,0,0:0:0:0:dm_kick.wav
128,192,75833,1,0,0:0:0:0:dm_kick.wav
384,192,75833,1,0,0:0:0:0:sq_1si270.wav
128,192,76000,1,0,0:0:0:0:dm_kick.wav
128,192,76333,1,0,0:0:0:0:dm_kick.wav
128,192,76666,1,0,0:0:0:0:dm_kick.wav
384,192,76666,1,0,0:0:0:0:sq_1si060.wav
213,192,76833,1,0,0:0:0:0:sq_1so#060.wav
128,192,77000,1,0,0:0:0:0:dm_kick.wav
384,192,77000,1,0,0:0:0:0:sq_1si060.wav
298,192,77166,1,0,0:0:0:0:sq_2do060.wav
128,192,77333,1,0,0:0:0:0:dm_kick.wav
298,192,77500,1,0,0:0:0:0:sq_2do060.wav
128,192,77666,1,0,0:0:0:0:dm_kick.wav
298,192,77666,1,0,0:0:0:0:sq_2do060.wav
384,192,77833,1,0,0:0:0:0:sq_2mib060.wav
128,192,78000,1,0,0:0:0:0:dm_kick.wav
469,192,78000,1,0,0:0:0:0:sq_2so#120.wav
213,192,78500,1,0,0:0:0:0:blw_1mi060.wav
384,192,78500,1,0,0:0:0:0:syw_2mi060.wav
42,192,78500,1,0,0:0:0:0:dm_cymbal.wav
213,192,78833,1,0,0:0:0:0:blw_1mi060.wav
384,192,78833,1,0,0:0:0:0:syw_2mi060.wav
213,192,79000,1,0,0:0:0:0:blw_1mi060.wav
384,192,79000,1,0,0:0:0:0:syw_2mi060.wav
128,192,79166,1,0,0:0:0:0:blw_1mib060.wav
298,192,79166,1,0,0:0:0:0:syw_2mib060.wav
213,192,79333,1,0,0:0:0:0:blw_1mi120.wav
384,192,79333,1,0,0:0:0:0:syw_2mi060.wav
469,192,79666,1,0,0:0:0:0:blw_2reb060.wav
384,192,79833,1,0,0:0:0:0:blw_1si120.wav
298,192,80166,1,0,0:0:0:0:blw_1ra120.wav
213,192,80500,1,0,0:0:0:0:blw_1so#120.wav
128,192,80833,1,0,0:0:0:0:blw_1fa#120.wav
128,192,81166,1,0,0:0:0:0:blw_1fa#120.wav
298,192,81500,1,0,0:0:0:0:blw_1so#060.wav
469,192,81500,1,0,0:0:0:0:syw_2so#060.wav
298,192,81666,1,0,0:0:0:0:blw_1so#060.wav
469,192,81666,1,0,0:0:0:0:syw_2so#060.wav
298,192,82000,1,0,0:0:0:0:blw_1so#120.wav
469,192,82000,1,0,0:0:0:0:syw_2so#120.wav
213,192,82500,1,0,0:0:0:0:blw_1fa#120.wav
384,192,82500,1,0,0:0:0:0:syw_2fa#120.wav
298,192,82833,1,0,0:0:0:0:blw_1so#060.wav
469,192,82833,1,0,0:0:0:0:syw_2so#060.wav
298,192,83000,1,0,0:0:0:0:blw_1so#060.wav
469,192,83000,1,0,0:0:0:0:syw_2so#060.wav
298,192,83333,1,0,0:0:0:0:blw_1so#060.wav
469,192,83333,1,0,0:0:0:0:syw_2so#060.wav
213,192,83666,1,0,0:0:0:0:blw_1fa#060.wav
384,192,83666,1,0,0:0:0:0:syw_2fa#060.wav
213,192,83833,1,0,0:0:0:0:blw_1mi060.wav
384,192,83833,1,0,0:0:0:0:syw_2mi060.wav
213,192,84166,1,0,0:0:0:0:blw_1mi060.wav
384,192,84166,1,0,0:0:0:0:syw_2mi060.wav
213,192,84333,1,0,0:0:0:0:blw_1mi060.wav
384,192,84333,1,0,0:0:0:0:syw_2mi060.wav
128,192,84500,1,0,0:0:0:0:blw_1mib060.wav
298,192,84500,1,0,0:0:0:0:syw_2mib060.wav
213,192,84666,1,0,0:0:0:0:blw_1mi120.wav
384,192,84666,1,0,0:0:0:0:syw_2mi060.wav
469,192,85000,1,0,0:0:0:0:blw_2reb060.wav
384,192,85166,1,0,0:0:0:0:blw_1si120.wav
298,192,85500,1,0,0:0:0:0:blw_1ra120.wav
213,192,85833,1,0,0:0:0:0:blw_1so#120.wav
128,192,86166,1,0,0:0:0:0:blw_1fa#180.wav
213,192,86666,1,0,0:0:0:0:blw_1mib060.wav
298,192,86833,1,0,0:0:0:0:blw_1mi060.wav
213,192,87000,1,0,0:0:0:0:blw_1mib060.wav
128,192,87166,1,0,0:0:0:0:blw_1reb270.wav
298,192,89166,1,0,0:0:0:0:blw_1mi060.wav
128,192,89333,1,0,0:0:0:0:dm_kick.wav
298,192,89500,1,0,0:0:0:0:blw_1mi060.wav
128,192,89666,1,0,0:0:0:0:dm_kick.wav
298,192,89666,1,0,0:0:0:0:blw_1mi060.wav
213,192,89833,1,0,0:0:0:0:blw_1mib060.wav
128,192,90000,1,0,0:0:0:0:dm_kick.wav
298,192,90000,1,0,0:0:0:0:blw_1mi120.wav
128,192,90333,1,0,0:0:0:0:dm_kick.wav
469,192,90333,1,0,0:0:0:0:blw_2reb060.wav
469,192,90500,1,0,0:0:0:0:blw_1si120.wav
128,192,90666,1,0,0:0:0:0:dm_kick.wav
384,192,90833,1,0,0:0:0:0:blw_1ra120.wav
128,192,91000,1,0,0:0:0:0:dm_kick.wav
298,192,91166,1,0,0:0:0:0:blw_1so#120.wav
128,192,91333,1,0,0:0:0:0:dm_kick.wav
213,192,91500,1,0,0:0:0:0:blw_1fa#120.wav
128,192,91666,1,0,0:0:0:0:dm_kick.wav
213,192,91833,1,0,0:0:0:0:blw_1fa#120.wav
128,192,92000,1,0,0:0:0:0:dm_kick.wav
469,192,92166,1,0,0:0:0:0:blw_1so#060.wav
128,192,92333,1,0,0:0:0:0:dm_kick.wav
469,192,92333,1,0,0:0:0:0:blw_1so#060.wav
128,192,92666,1,0,0:0:0:0:dm_kick.wav
469,192,92666,1,0,0:0:0:0:blw_1so#120.wav
128,192,93000,1,0,0:0:0:0:dm_kick.wav
213,192,93166,1,0,0:0:0:0:blw_1fa#120.wav
128,192,93333,1,0,0:0:0:0:dm_kick.wav
469,192,93500,1,0,0:0:0:0:blw_1so#060.wav
128,192,93666,1,0,0:0:0:0:dm_kick.wav
469,192,93666,1,0,0:0:0:0:blw_1so#060.wav
128,192,94000,1,0,0:0:0:0:dm_kick.wav
469,192,94000,1,0,0:0:0:0:blw_1so#060.wav
128,192,94333,1,0,0:0:0:0:dm_kick.wav
384,192,94333,1,0,0:0:0:0:blw_1fa#060.wav
298,192,94500,1,0,0:0:0:0:blw_1mi060.wav
128,192,94666,1,0,0:0:0:0:dm_kick.wav
298,192,94833,1,0,0:0:0:0:blw_1mi060.wav
128,192,95000,1,0,0:0:0:0:dm_kick.wav
298,192,95000,1,0,0:0:0:0:blw_1mi060.wav
213,192,95166,1,0,0:0:0:0:blw_1mib060.wav
128,192,95333,1,0,0:0:0:0:dm_kick.wav
298,192,95333,1,0,0:0:0:0:blw_1mi120.wav
128,192,95666,1,0,0:0:0:0:dm_kick.wav
469,192,95666,1,0,0:0:0:0:blw_2reb060.wav
469,192,95833,1,0,0:0:0:0:blw_1si120.wav
128,192,96000,1,0,0:0:0:0:dm_kick.wav
384,192,96166,1,0,0:0:0:0:blw_1ra120.wav
128,192,96333,1,0,0:0:0:0:dm_kick.wav
298,192,96500,1,0,0:0:0:0:blw_1so#120.wav
128,192,96666,1,0,0:0:0:0:dm_kick.wav
213,192,96833,1,0,0:0:0:0:blw_1fa#180.wav
128,192,97000,1,0,0:0:0:0:dm_kick.wav
128,192,97166,1,0,0:0:0:0:dm_kick.wav
298,192,97333,1,0,0:0:0:0:blw_1mib060.wav
384,192,97500,1,0,0:0:0:0:blw_1mi060.wav
298,192,97666,1,0,0:0:0:0:blw_1mib060.wav
213,192,97833,1,0,0:0:0:0:blw_1reb270.wav
42,192,97833,1,0,0:0:0:0:dm_cymbal.wav
213,192,98666,1,0,0:0:0:0:dm_close-hat.wav
384,192,98833,1,0,0:0:0:0:dm_open-hat.wav
213,192,99000,1,0,0:0:0:0:dm_close-hat.wav
384,192,99166,1,0,0:0:0:0:dm_open-hat.wav
128,192,99333,1,0,0:0:0:0:dm_snare02.wav
469,192,99416,1,0,0:0:0:0:dm_snare02.wav
128,192,99500,1,0,0:0:0:0:dm_snare02.wav
469,192,99583,1,0,0:0:0:0:dm_snare02.wav
128,192,99666,1,0,0:0:0:0:dm_snare02.wav
469,192,99750,1,0,0:0:0:0:dm_snare02.wav
128,192,99833,1,0,0:0:0:0:dm_snare02.wav
469,192,99916,1,0,0:0:0:0:dm_snare02.wav
