osu file format v5

[General]
AudioFilename: 07 Follow Me.mp3
AudioLeadIn: 0
PreviewTime: -1
Countdown: 2
SampleSet: Soft
StackLeniency: 0.7
Mode: 0
LetterboxInBreaks: 1

[Metadata]
Title:Follow Me
Artist:Rocket Boys
Creator:vince850
Version:Run with Me
Source:
Tags:

[Difficulty]
HPDrainRate:4
CircleSize:5
OverallDifficulty:5
SliderMultiplier:1.4
SliderTickRate:1

[Events]
//Background and Video events
0,0,"becktitleanimeps4.jpg"
//Break Periods
2,30903,32466
2,51186,52444
2,83850,87540
2,107551,124990
//Storyboard Layer 0 (Background)
//Storyboard Layer 1 (Failing)
//Storyboard Layer 2 (Passing)
//Storyboard Layer 3 (Foreground)
//Storyboard Sound Samples
//Background Colour Transformations
3,100,78,48,194

[TimingPoints]
1230,303.854482,4,2,0,100,1

[Colours]
Combo1 : 192,192,192
Combo2 : 5,240,5
Combo3 : 5,5,240
Combo4 : 128,128,255
Combo5 : 128,128,128

[HitObjects]
384,64,17410,1,0
384,64,17714,1,0
256,64,18093,1,0
256,64,18245,1,0
96,64,18549,1,0
96,64,18701,1,0
192,160,19005,1,0
192,160,19157,1,0
320,160,19841,1,0
352,256,20448,1,0
256,256,20828,1,0
96,256,21132,1,0
416,64,22423,5,0
320,64,22803,1,0
224,64,23259,1,0
224,160,23639,1,0
224,256,23943,1,0
224,352,24246,1,0
320,352,24626,1,0
320,256,24930,1,0
288,192,25234,1,0
320,128,25462,1,0
320,96,25690,1,0
256,32,26070,1,0
160,128,26449,5,0
160,192,26753,1,0
224,256,27133,1,0
224,256,27361,1,0
224,96,27741,1,0
320,128,28045,1,0
320,128,28197,1,0
384,256,28500,1,0
288,320,28956,5,0
192,288,29260,1,0
96,192,29564,1,0
160,96,29944,1,0
256,64,30248,1,0
320,128,30551,1,0
352,160,30703,1,0
416,96,33666,5,0
416,160,33970,1,0
416,224,34274,1,0
416,288,34578,1,0
480,192,35185,1,0
352,192,35489,1,0
416,192,35869,1,0
416,128,36477,1,0
416,256,36780,1,0
416,192,37084,1,0
416,64,37996,5,0
96,64,38680,1,0
96,288,39287,1,0
256,288,39591,1,0
416,288,40275,1,0
352,224,40579,1,0
256,192,40807,12,0,42934
256,192,43313,5,0
352,160,43921,1,0
352,224,44605,1,0
320,288,44909,1,0
256,288,45288,1,0
256,96,46504,2,0,B|320:128|384:192|288:256|256:256|256:256|96:192|256:96,2,455
384,320,49011,1,0
384,192,49314,1,0
384,64,49542,1,0
288,192,50530,1,0
288,192,50758,1,0
288,192,50986,1,0
384,32,53644,5,0
384,96,53948,1,0
384,160,54252,1,0
384,224,54556,1,0
352,192,55164,1,0
352,128,55543,1,0
352,64,55847,1,0
256,64,56455,5,0
224,96,56759,1,0
256,128,57063,1,0
224,192,57746,1,0
256,224,58050,1,0
224,256,58278,1,0
352,64,58962,1,0
352,128,59266,1,0
352,192,59570,1,0
288,160,60253,5,0
256,224,60785,1,0
288,256,61165,1,0
256,128,62380,5,0
288,192,63672,1,0
256,256,64963,1,0
256,256,65191,1,0
416,160,66102,1,0
416,224,66710,1,0
352,192,67318,1,0
288,192,68002,1,0
288,192,68229,1,0
288,192,68457,1,0
160,32,69293,5,0
160,128,69977,1,0
160,224,70584,1,0
160,320,71116,1,0
256,320,71800,1,0
352,320,72483,1,0
352,224,72939,1,0
352,128,73699,5,0
352,32,74307,1,0
416,64,74914,1,0
448,128,75522,1,0
448,192,76206,1,0
416,256,76509,1,0
416,256,76661,1,0
256,192,77421,12,0,80232
256,64,80687,5,0
320,160,81143,1,0
256,224,81447,1,0
224,224,81751,1,0
160,160,82055,1,0
160,256,82435,1,0
224,320,82738,1,0
256,192,83650,1,0
192,160,88740,5,0
256,96,89271,1,0
320,96,89879,1,0
288,192,90563,1,0
320,224,90715,1,0
352,192,90943,1,0
224,64,91474,1,0
288,128,92082,1,0
224,192,92690,1,0
288,256,93297,1,0
160,64,93981,2,0,B|288:-32|384:96|256:160|256:160|256:384,2,490
416,64,97172,5,0
352,128,97703,1,0
288,192,98387,1,0
224,256,98995,1,0
160,320,99602,1,0
416,256,100210,1,0
352,320,100514,1,0
416,320,100818,1,0
320,224,101501,1,0
256,160,102109,1,0
384,32,103097,5,0
416,64,103325,1,0
384,128,103628,1,0
416,192,103932,1,0
384,224,104236,1,0
416,288,104540,1,0
64,64,105224,5,0
128,128,105528,1,0
192,192,105831,1,0
256,256,106135,1,0
320,192,106439,1,0
384,128,106743,1,0
448,64,107047,1,0
256,64,107351,1,0
256,64,126190,5,0
448,192,126721,1,0
256,320,127405,1,0
64,192,128013,1,0
256,192,128696,1,0
256,224,129304,1,0
288,160,129912,1,0
224,160,130216,1,0
416,64,131507,5,0
416,128,132115,1,0
352,96,132723,1,0
160,64,133558,2,0,B|160:320|160:320|352:320|320:160|128:192,2,595
256,64,136749,1,0
256,160,137356,1,0
256,256,137888,1,0
192,64,138572,5,0
192,128,138952,1,0
192,192,139255,1,0
192,256,139559,1,0
192,320,139939,1,0
256,96,140243,1,0
288,96,140395,1,0
352,96,140699,1,0
256,192,141154,1,0
320,192,141686,1,0
384,192,142066,1,0
224,96,143661,5,0
352,128,144041,1,0
192,192,144497,1,0
256,64,145712,5,0
256,96,145864,1,0
320,128,146168,1,0
256,160,146472,1,0
256,224,146776,1,0
256,256,147004,1,0
224,192,147384,1,0
288,192,147611,1,0
256,96,149283,5,0
256,288,149890,1,0
224,192,150498,1,0
288,192,150650,1,0
256,160,150954,1,0
256,224,151410,1,0
224,160,151789,1,0
288,160,152093,1,0
224,224,152245,1,0
416,256,152701,5,0
320,320,153005,1,0
192,320,153309,1,0
96,224,153688,1,0
128,160,153916,1,0
160,128,154068,1,0
256,64,154828,5,0
320,128,155284,1,0
128,96,156119,5,0
96,160,156499,1,0
128,160,156727,1,0
128,224,157031,1,0
256,96,157411,1,0
224,160,157715,1,0
256,160,157866,1,0
256,224,158246,1,0
256,288,158702,1,0
320,256,159234,1,0
384,224,159918,1,0
384,288,160373,1,0
288,64,161209,5,0
224,64,161589,1,0
256,160,162424,1,0
256,288,163640,5,0
192,256,163944,1,0
128,160,164323,1,0
128,128,164551,1,0
128,128,165463,1,0
256,64,166147,1,0
384,128,166678,1,0
256,192,167286,1,0
320,256,167970,1,0
224,256,168577,5,0
224,128,168881,1,0
288,128,169185,1,0
288,256,169489,1,0
256,64,171084,1,0
256,192,171768,1,0
256,320,172376,1,0
384,192,172983,1,0
256,192,173591,12,0,186201
