osu file format v11

[General]
AudioFilename: le xmas.MP3
AudioLeadIn: 0
PreviewTime: 31668
Countdown: 1
SampleSet: Normal
StackLeniency: 0.7
Mode: 0
LetterboxInBreaks: 0

[Editor]
Bookmarks: 6957
DistanceSpacing: 1.2
BeatDivisor: 2
GridSize: 4

[Metadata]
Title:Shitty Christmas
TitleUnicode:Shitty Christmas
Artist:Rocco La Bete
ArtistUnicode:Rocco La Bete
Creator:-Bakari-
Version:Crappy New Year
Source:
Tags:xmas single Gabe
BeatmapID:201534
BeatmapSetID:70023

[Difficulty]
HPDrainRate:4
CircleSize:4
OverallDifficulty:4
ApproachRate:5
SliderMultiplier:0.9
SliderTickRate:2

[Events]
//Background and Video events
0,0,"20121120-115239.jpg"
//Break Periods
2,62139,70844
//Storyboard Layer 0 (Background)
//Storyboard Layer 1 (Fail)
//Storyboard Layer 2 (Pass)
//Storyboard Layer 3 (Foreground)
//Storyboard Sound Samples
//Background Colour Transformations
3,100,163,162,255

[TimingPoints]
11413,315.789473684211,4,1,0,45,1,0
31623,-100,4,1,0,55,0,1
48676,-100,4,1,0,45,0,0
72044,-100,4,1,0,50,0,0
81518,-100,4,2,0,5,0,0
82149,-100,4,1,0,50,0,1
101728,-100,4,2,0,5,0,0

[Colours]
Combo1 : 205,73,77
Combo2 : 230,215,132
Combo3 : 136,164,89

[HitObjects]
192,256,11412,6,0,P|256:308|320:248,1,180,4|8,0:0|0:0,0:0:0
416,212,12360,1,0,0:0:0
336,136,12676,2,0,P|396:128|364:40,1,180,0|8,0:0|0:0,0:0:0
176,136,13939,6,0,P|116:128|148:40,1,180,0|8,0:0|0:0,0:0:0
40,20,14886,1,0,0:0:0
24,128,15202,2,0,P|40:168|72:196|72:196|96:244|80:288,1,180,0|8,0:0|0:0,0:0:0
188,288,16149,1,0,0:0:0
276,348,16465,6,0,P|356:316|348:216,1,180,0|8,0:0|0:0,0:0:0
260,192,17412,1,0,0:0:0
359,152,17728,2,0,P|356:68|276:36,1,180,0|8,0:0|0:0,0:0:0
72,112,18991,6,0,P|108:136|108:136|160:136,1,90,4|0,0:0|0:0,0:0:0
256,176,19623,1,8,0:0:0
256,176,19939,2,0,P|256:76,2,90
357,136,20886,2,0,P|404:136|404:136|440:112,1,90,8|0,0:0|0:0,0:0:0
352,48,21518,5,0,0:0:0
244,60,21834,2,0,P|148:44,1,90,0|8,0:0|0:0,0:0:0
72,112,22465,1,0,0:0:0
100,216,22781,2,0,P|136:304,1,90,0|0,0:0|0:0,0:0:0
208,220,23413,2,0,P|176:136,2,90,8|0|0,0:0|0:0|0:0,0:0:0
256,316,24360,5,0,0:0:0
304,220,24676,2,0,P|336:136,2,90,8|0|0,0:0|0:0|0:0,0:0:0
348,320,25623,1,0,0:0:0
456,308,25939,1,8,0:0:0
436,200,26255,1,0,0:0:0
480,100,26570,6,0,P|384:104|332:172,1,180,0|8,0:0|0:0,0:0:0
256,240,27518,1,2,0:0:0
256,240,27834,1,0,0:0:0
156,280,28149,2,0,P|60:296,1,90,0|8,0:0|0:0,0:0:0
20,196,28781,1,0,0:0:0
128,200,29097,6,0,P|160:152|160:152|140:124|140:68|168:32,1,180,0|8,0:0|0:0,0:0:0
256,100,30044,1,0,0:0:0
347,36,30360,2,0,P|372:68|372:124|352:152|352:152|384:200,1,180,0|0,0:0|0:0,0:0:0
448,284,31307,1,0,0:0:0
340,300,31623,5,0,0:0:0
236,268,31939,1,0,0:0:0
204,164,32255,1,8,0:0:0
0,104,32886,6,0,P|70:182|54:246,1,180,4|8,0:0|0:0,0:0:0
204,88,34149,2,0,P|256:28|304:89,1,180,4|8,0:0|0:0,0:0:0
512,104,35413,6,0,P|441:182|457:246,2,180,4|8|4,0:0|0:0|0:0,0:0:0
300,48,37307,2,0,P|256:112|212:48,2,180,8|4|8,0:0|0:0|0:0,0:0:0
176,216,39202,6,0,P|200:304,1,90
312,304,39834,2,0,P|335:217,1,90,8|0,0:0|0:0,0:0:0
336,112,40465,2,0,P|256:76|176:112,1,180,0|8,0:0|0:0,0:0:0
104,316,41728,6,0,P|144:232|184:272,1,180,0|8,0:0|0:0,0:0:0
212,164,42676,2,0,P|256:100|292:168,1,180,0|0,0:0|0:0,0:0:0
329,267,43623,2,0,P|368:232|408:316,1,180,8|0,0:0|0:0,0:0:0
388,100,44886,5,8,0:0:0
256,276,45518,1,0,0:0:0
124,100,46149,1,8,0:0:0
96,200,46465,6,0,P|188:180|228:100,1,180,0|0,0:0|0:0,0:0:0
256,64,47255,1,0,0:0:0
284,112,47413,2,0,P|323:182|415:202,1,180,8|4,0:0|0:0,0:0:0
256,360,48676,1,8,0:0:0
460,296,49307,6,0,P|448:252|448:204,1,90,4|0,0:0|0:0,0:0:0
384,120,49939,2,0,P|376:164|372:212,1,90,8|0,0:0|0:0,0:0:0
300,292,50570,2,0,P|296:236|300:196,2,90,4|0|8,0:0|0:0|0:0,0:0:0
108,204,51834,6,0,P|84:148|160:68,1,180,4|8,0:0|0:0,0:0:0
256,108,52781,1,0,0:0:0
356,68,53097,2,0,P|428:148|404:204,1,180,0|8,0:0|0:0,0:0:0
192,240,54360,6,0,P|224:272|208:320|208:320|256:312|304:320|304:320|288:272|320:236,1,270
421,228,55623,2,0,P|420:264|396:312,2,90,0|0|8,0:0|0:0|0:0,0:0:0
404,120,56570,1,0,0:0:0
320,188,56886,6,0,P|256:284|196:188,1,270,0|0,0:0|0:0,0:0:0
112,132,58149,1,0,0:0:0
90,228,58465,2,0,P|92:264|116:312,1,90,0|8,0:0|0:0,0:0:0
256,156,59413,5,4,0:0:0
148,164,59728,2,0,P|256:8|364:168,1,450
256,324,61939,5,4,0:0:0
88,344,72044,6,0,P|156:288|76:156,1,270,4|0,0:0|0:0,0:0:0
16,68,73307,1,0,0:0:0
124,52,73623,2,0,P|216:32,1,90,0|8,0:0|0:0,0:0:0
256,132,74255,1,0,0:0:0
300,32,74570,6,0,P|388:52,1,90,0|0,0:0|0:0,0:0:0
496,68,75202,1,8,0:0:0
434,156,75518,2,0,P|356:288|424:344,1,270,0|8,0:0|0:0,0:0:0
256,208,77097,6,0,P|228:240|228:280|288:308|288:360|252:380,1,180,0|8,0:0|0:0,0:0:0
156,340,78044,1,0,0:0:0
52,308,78360,2,0,P|68:248|48:132,1,180,0|8,0:0|0:0,0:0:0
8,32,79307,1,0,0:0:0
256,192,79623,12,0,81518,0:0:0
332,276,82149,6,0,P|456:172|332:84,1,360,2|4,0:0|0:0,0:0:0
256,284,84044,1,8,0:0:0
176,84,84676,6,0,P|54:172|178:276,1,360,4|4,0:0|0:0,0:0:0
352,140,86570,1,8,0:0:0
448,192,86886,1,0,0:0:0
352,244,87202,1,4,0:0:0
160,140,87834,5,8,0:0:0
160,244,88149,1,0,0:0:0
64,192,88465,1,4,0:0:0
208,352,89097,1,8,0:0:0
300,156,89728,6,0,P|256:148|208:156,2,90,0|0|8,0:0|0:0|0:0,0:0:0
408,140,90676,1,0,0:0:0
336,60,90991,2,0,P|256:24|176:60,1,180,0|8,0:0|0:0,0:0:0
272,268,92255,6,0,P|308:356,1,90,4|0,0:0|0:0,0:0:0
397,300,92886,2,0,P|432:272|452:232,1,90,8|0,0:0|0:0,0:0:0
348,204,93518,2,0,P|320:156|368:48,1,180,4|8,0:0|0:0,0:0:0
256,44,94465,1,0,0:0:0
146,49,94781,6,0,P|192:156|164:204,1,180,4|8,0:0|0:0,0:0:0
60,232,95728,2,0,P|80:272|120:304,1,90,0|4,0:0|0:0,0:0:0
206,351,96360,2,0,P|240:268,1,90,0|8,0:0|0:0,0:0:0
256,160,96991,1,0,0:0:0
268,268,97307,6,0,P|332:244|424:296,2,180,4|8|0,0:0|0:0|0:0,0:0:0
300,184,98886,2,0,P|256:196|212:184,1,90,0|8,0:0|0:0,0:0:0
256,192,99834,12,0,101728,0:0:0
