osu file format v12

[General]
AudioFilename: Here With Me by Susie Suh x Robot Koch.mp3
AudioLeadIn: 0
PreviewTime: 170533
Countdown: 1
SampleSet: Soft
StackLeniency: 0.7
Mode: 0
LetterboxInBreaks: 1
WidescreenStoryboard: 0

[Editor]
Bookmarks: 15456,30225,44994,59763,74533,81917,89302,96687,104071,111456,126225,140994,155763,170533,185302,196379,200071,214840,229610
DistanceSpacing: 1.2
BeatDivisor: 4
GridSize: 4

[Metadata]
Title:Here With Me
TitleUnicode:Here With Me
Artist:Robot Koch ft. Susie Suh
ArtistUnicode:Robot Koch ft. Susie Suh
Creator:Ayu
Version:Hard
Source:
Tags:
BeatmapID:357624
BeatmapSetID:143838

[Difficulty]
HPDrainRate:6
CircleSize:4
OverallDifficulty:6
ApproachRate:7
SliderMultiplier:1.6
SliderTickRate:1

[Events]
//Background and Video events
0,0,"wallpaper-521474.jpg",0,0
//Break Periods
2,74617,80901
2,152186,154724
//Storyboard Layer 0 (Background)
//Storyboard Layer 1 (Fail)
//Storyboard Layer 2 (Pass)
//Storyboard Layer 3 (Foreground)
//Storyboard Sound Samples
//Background Colour Transformations
3,100,163,162,255

[TimingPoints]
571,461.538461538462,4,2,0,30,1,0
15340,-125,4,2,0,30,0,0
44878,-100,4,2,0,30,0,1
74417,-125,4,2,0,30,0,0
105109,-125,4,2,0,5,0,0
105340,-125,4,2,0,30,0,0
111340,-100,4,2,0,30,0,1
140878,-125,4,2,0,30,0,0
170417,-100,4,2,0,30,0,1
196263,-125,4,2,0,30,0,0
199955,-100,4,2,0,30,0,0
214724,-111.111111111111,4,2,0,30,0,0
222109,-125,4,2,0,30,0,0

[Colours]
Combo1 : 216,214,205
Combo2 : 180,179,156
Combo3 : 250,250,250

[HitObjects]
52,180,571,6,0,B|132:144|132:216|212:180,1,160,4|0,3:0|0:0,0:0:0:0:
264,128,1263,1,0,3:0:0:0:
264,128,1494,2,0,P|304:108|408:144,1,160,0|0,1:0|0:0,0:0:0:0:
452,208,2186,1,0,3:0:0:0:
316,296,2417,5,4,3:0:0:0:
316,296,2647,2,0,P|284:324|176:300,1,160,4|0,3:0|0:0,0:0:0:0:
128,240,3340,2,0,L|140:80,1,160,0|0,1:0|0:0,0:0:0:0:
139,80,4032,1,0,3:0:0:0:
296,56,4263,6,0,P|316:92|312:132,2,80,4|0|0,3:0|0:0|0:0,0:0:0:0:
296,56,4955,1,0,3:0:0:0:
224,16,5186,2,0,L|384:32,1,160,0|0,1:0|0:0,0:0:0:0:
448,76,5878,1,0,3:0:0:0:
332,184,6109,5,4,3:0:0:0:
332,184,6340,2,0,P|312:220|376:320,1,160,4|0,3:0|0:0,0:0:0:0:
392,240,7032,2,0,B|320:204|320:272|236:240,1,160,0|0,1:0|0:0,0:0:0:0:
238,240,7724,1,0,3:0:0:0:
124,120,7955,6,0,P|180:160|264:128,1,160,4|0,3:0|0:0,0:0:0:0:
196,80,8647,1,0,3:0:0:0:
128,40,8878,2,0,P|88:48|56:80,1,80,0|0,1:0|0:0,0:0:0:0:
52,152,9340,2,0,L|60:232,1,80,0|0,0:0|3:0,0:0:0:0:
204,304,9801,5,4,3:0:0:0:
204,304,10032,2,0,L|220:144,1,160,4|0,3:0|0:0,0:0:0:0:
156,91,10724,2,0,P|226:61|291:103,1,160,0|0,1:0|0:0,0:0:0:0:
220,144,11417,1,0,3:0:0:0:
368,80,11647,6,0,L|376:240,1,160,4|0,3:0|0:0,0:0:0:0:
375,239,12340,1,0,3:0:0:0:
424,304,12571,1,0,1:0:0:0:
424,304,13263,2,0,P|464:288|500:288,2,80,0|4|4,3:0|3:0|3:0,0:0:0:0:
424,304,14417,1,0,1:0:0:0:
424,304,16955,6,0,P|364:280|308:308,2,128
492,260,18109,2,0,L|500:132,1,128,0|0,3:0|0:0,0:0:0:0:
499,132,18801,1,0,0:0:0:0:
364,56,19032,6,0,P|308:24|200:76,1,192,0|0,3:0|0:0,0:0:0:0:
176,148,19955,2,0,P|187:208|237:246,1,128,0|0,3:0|0:0,0:0:0:0:
316,256,20647,1,0,0:0:0:0:
416,160,20878,6,0,P|428:132|428:92,1,64,0|0,3:0|0:0,0:0:0:0:
336,52,21340,2,0,P|337:83|349:113,1,64
416,160,21801,1,0,3:0:0:0:
456,232,22032,1,0,0:0:0:0:
432,308,22263,1,0,0:0:0:0:
372,356,22494,1,0,0:0:0:0:
227,269,22724,6,0,P|186:232|75:299,1,192,4|0,2:0|0:0,0:0:0:0:
156,308,23647,2,0,P|180:336|268:340,1,128,0|0,3:0|0:0,0:0:0:0:
265,341,24340,1,0,0:0:0:0:
328,180,24571,6,0,P|300:160|164:216,1,192,0|0,3:0|0:0,0:0:0:0:
112,148,25494,2,0,P|80:164|-4:136,1,128,0|0,3:0|0:0,0:0:0:0:
60,84,26186,1,0,0:0:0:0:
140,68,26417,2,0,P|172:64|208:76,1,64,0|0,3:0|0:0,0:0:0:0:
264,120,26878,2,0,P|292:136|388:120,2,128,0|0|0,0:0|3:0|0:0,0:0:0:0:
264,120,28032,1,0,0:0:0:0:
132,176,28263,6,0,P|120:204|120:240,1,64,0|0,3:0|0:0,0:0:0:0:
212,284,28724,2,0,P|211:252|199:222,1,64
132,176,29186,1,0,3:0:0:0:
176,108,29417,1,0,0:0:0:0:
244,68,29647,1,0,0:0:0:0:
320,56,29878,1,0,0:0:0:0:
464,184,30109,6,0,L|460:248,1,64,4|0,0:0|0:0,0:0:0:0:
384,288,30571,2,0,L|380:224,1,64,0|0,0:0|0:0,0:0:0:0:
316,176,31032,2,0,P|252:160|204:192,1,128,0|0,3:0|0:0,0:0:0:0:
40,128,31724,6,0,P|68:144|164:116,2,128
96,68,32878,2,0,L|100:200,1,128,0|0,3:0|0:0,0:0:0:0:
99,195,33571,1,0,0:0:0:0:
228,308,33801,6,0,P|240:284|244:248,1,64,0|0,3:0|0:0,0:0:0:0:
152,300,34263,2,0,P|154:331|167:360,1,64,0|0,0:0|0:0,0:0:0:0:
228,308,34724,1,0,3:0:0:0:
300,344,34955,1,0,0:0:0:0:
376,320,35186,1,0,0:0:0:0:
416,252,35417,1,0,0:0:0:0:
324,104,35647,6,0,L|260:116,1,64,0|0,3:0|0:0,0:0:0:0:
208,28,36109,2,0,L|272:40,1,64
324,104,36571,2,0,P|328:136|316:164,1,64,0|0,3:0|0:0,0:0:0:0:
264,220,37032,2,0,P|251:249|255:280,1,64
456,304,37494,5,0,3:0:0:0:
500,236,37724,1,0,0:0:0:0:
472,160,37955,1,0,0:0:0:0:
400,124,38186,1,0,0:0:0:0:
264,220,38417,6,0,P|240:244|144:240,1,128,0|0,3:0|0:0,0:0:0:0:
151,244,39109,1,0,0:0:0:0:
194,176,39340,2,0,P|218:152|309:151,1,128,0|0,3:0|0:0,0:0:0:0:
307,149,40032,1,0,0:0:0:0:
368,204,40263,2,0,P|340:184|376:48,1,192,0|0,3:0|0:0,0:0:0:0:
400,128,41186,2,0,P|428:148|392:284,1,192,0|0,3:0|0:0,0:0:0:0:
368,204,42109,1,0,3:0:0:0:
108,232,44878,6,0,P|152:268|248:240,1,160,4|0,0:0|0:0,0:0:0:0:
180,192,45571,1,0,3:0:0:0:
112,151,45801,2,0,P|64:163|37:269,1,160,0|0,1:0|0:0,0:0:0:0:
76,328,46494,1,0,0:0:0:0:
232,304,46724,6,0,P|244:268|240:224,1,80,4|0,3:0|0:0,0:0:0:0:
188,164,47186,2,0,P|220:188|324:152,1,160,0|0,3:0|1:0,0:0:0:0:
380,96,47878,1,0,0:0:0:0:
404,172,48109,2,0,P|392:212|400:256,1,80,0|0,3:0|0:0,0:0:0:0:
252,320,48571,6,0,P|288:264|256:180,1,160,4|0,3:0|0:0,0:0:0:0:
208,248,49263,1,0,3:0:0:0:
252,320,49494,2,0,B|332:356|332:284|412:320,1,160,0|0,1:0|0:0,0:0:0:0:
472,360,50186,1,0,0:0:0:0:
416,212,50417,5,4,3:0:0:0:
452,140,50647,1,4,3:0:0:0:
400,80,50878,2,0,P|364:68|324:80,1,80
268,136,51340,2,0,P|300:96|264:-4,1,160,0|0,1:0|0:0,0:0:0:0:
224,68,52032,1,0,0:0:0:0:
68,108,52263,6,0,L|84:272,1,160,4|0,3:0|0:0,0:0:0:0:
136,328,52955,1,0,3:0:0:0:
208,292,53186,2,0,P|240:316|344:280,1,160,0|0,1:0|0:0,0:0:0:0:
272,240,53878,1,0,0:0:0:0:
148,140,54109,6,0,P|132:176|140:216,1,80,4|0,3:0|0:0,0:0:0:0:
208,260,54571,2,0,P|176:288|72:260,1,160,0|0,3:0|1:0,0:0:0:0:
139,214,55263,1,0,0:0:0:0:
280,136,55494,6,0,P|320:140|356:164,1,80
384,236,55955,2,0,L|372:76,1,160,4|0,3:0|0:0,0:0:0:0:
300,40,56647,1,0,3:0:0:0:
300,40,56878,2,0,P|264:24|164:76,1,160,0|0,1:0|0:0,0:0:0:0:
136,152,57571,1,0,0:0:0:0:
268,240,57801,6,0,P|280:208|276:160,1,80,4|4,3:0|3:0,0:0:0:0:
192,208,58263,2,0,P|188:247|200:285,1,80,0|0,0:0|3:0,0:0:0:0:
268,328,58724,2,0,L|428:316,1,160,0|0,1:0|0:0,0:0:0:0:
500,280,59417,1,0,0:0:0:0:
408,148,59647,6,0,P|368:132|296:160,2,120,4|0|0,3:0|0:0|3:0,0:0:0:0:
452,216,60571,2,0,P|480:184|452:80,1,160,0|0,1:0|0:0,0:0:0:0:
408,148,61263,1,0,0:0:0:0:
256,192,61494,6,0,P|248:228|264:268,1,80,4|4,3:0|3:0,0:0:0:0:
332,224,61955,2,0,L|416:228,1,80
388,304,62417,2,0,L|220:312,1,160,0|0,1:0|3:0,0:0:0:0:
156,280,63109,1,0,0:0:0:0:
172,120,63340,6,0,P|212:108|248:116,1,80,4|0,3:0|3:0,0:0:0:0:
208,196,63801,2,0,P|169:204|131:192,1,80,0|0,0:0|3:0,0:0:0:0:
88,124,64263,2,0,L|100:284,1,160,0|0,1:0|0:0,0:0:0:0:
140,352,64955,1,0,3:0:0:0:
280,272,65186,5,4,3:0:0:0:
344,220,65417,2,0,P|312:196|208:232,1,160,4|0,3:0|3:0,0:0:0:0:
280,272,66109,2,0,P|312:296|416:260,1,160,0|0,1:0|0:0,0:0:0:0:
416,180,66801,1,0,0:0:0:0:
272,112,67032,6,0,B|196:80|196:144|116:116,1,160,4|0,3:0|0:0,0:0:0:0:
68,52,67724,1,0,3:0:0:0:
68,52,67955,2,0,L|80:212,1,160,0|0,1:0|0:0,0:0:0:0:
32,276,68647,1,0,3:0:0:0:
168,192,68878,5,4,3:0:0:0:
168,192,69109,2,0,P|228:232|308:200,1,160,4|0,3:0|0:0,0:0:0:0:
240,152,69801,1,0,1:0:0:0:
172,112,70032,2,0,L|88:120,2,80,0|0|0,0:0|3:0|0:0,0:0:0:0:
300,24,70724,6,0,L|468:40,1,160,4|0,3:0|0:0,0:0:0:0:
496,112,71417,1,0,3:0:0:0:
496,112,71647,2,0,P|516:152|456:248,1,160,0|0,1:0|0:0,0:0:0:0:
436,168,72340,1,0,3:0:0:0:
300,80,72571,5,4,3:0:0:0:
300,80,72801,2,0,P|268:56|168:96,1,160,4|0,3:0|0:0,0:0:0:0:
148,176,73494,2,0,L|124:16,1,160,0|2,1:0|0:0,0:0:0:0:
124,17,74186,1,2,0:0:0:0:
16,84,74417,5,0,0:0:0:0:
308,152,81801,6,0,P|336:168|400:160,2,96
248,100,82724,2,0,P|220:92|184:96,1,64,2|0,0:0|0:0,0:0:0:0:
144,184,83186,2,0,P|175:187|206:179,1,64
80,132,83647,6,0,P|64:168|76:228,2,96,0|0|0,0:0|0:0|0:0,0:0:0:0:
140,80,84571,2,0,L|204:76,1,64,2|0,0:0|0:0,0:0:0:0:
272,192,85032,6,0,L|144:184,1,128
76,220,85724,1,0,0:0:0:0:
76,220,85955,2,0,P|64:232|68:340,1,128,0|2,0:0|0:0,0:0:0:0:
128,284,86647,1,0,0:0:0:0:
128,284,86878,2,0,P|168:276|188:260,1,64
336,272,87340,6,0,P|368:256|448:292,1,128
496,228,88032,2,0,P|480:200|476:164,1,64,0|2,0:0|0:0,0:0:0:0:
376,120,88494,2,0,P|392:148|396:184,2,64
196,212,89186,6,0,P|192:240|224:304,2,96,4|0|0,3:2|0:0|0:0,0:0:0:0:
248,148,90109,2,0,P|220:132|132:160,1,128,0|0,3:0|0:0,0:0:0:0:
196,212,90801,1,0,0:0:0:0:
324,296,91032,6,0,P|348:312|440:296,2,128,0|0|0,3:0|0:0|3:0,0:0:0:0:
280,228,92186,1,0,0:0:0:0:
300,152,92417,1,0,0:0:0:0:
368,112,92647,1,0,0:0:0:0:
216,156,92878,6,0,P|188:168|100:132,1,128,0|0,3:0|0:0,0:0:0:0:
168,88,93571,1,0,0:0:0:0:
216,156,93801,2,0,B|204:284,1,128,0|0,3:0|0:0,0:0:0:0:
148,340,94494,1,0,0:0:0:0:
292,304,94724,6,0,P|324:312|348:332,1,64,0|0,3:0|0:0,0:0:0:0:
416,292,95186,2,0,P|448:284|472:264,1,64
492,188,95647,2,0,L|484:120,1,64,0|0,3:0|0:0,0:0:0:0:
412,92,96109,2,0,L|420:24,1,64
316,96,96571,6,0,L|330:223,1,128,4|0,0:0|0:0,0:0:0:0:
284,288,97263,1,0,0:0:0:0:
284,288,97494,2,0,P|256:304|164:280,1,128,0|0,3:0|0:0,0:0:0:0:
228,228,98186,1,0,0:0:0:0:
348,168,98417,6,0,P|380:160|436:184,2,96,0|0|0,3:0|0:0|0:0,0:0:0:0:
284,116,99340,2,0,L|156:112,1,128,0|0,3:0|0:0,0:0:0:0:
76,104,100032,1,0,0:0:0:0:
160,228,100263,6,0,P|188:244|252:236,2,96,0|0|0,3:0|0:0|0:0,0:0:0:0:
96,280,101186,2,0,P|49:270|6:289,2,96,0|0|0,3:0|0:0|0:0,0:0:0:0:
156,332,102109,2,0,P|184:340|220:336,1,64,0|0,3:0|0:0,0:0:0:0:
284,292,102571,2,0,P|315:288|346:296,1,64
412,344,103032,2,0,P|392:320|404:224,1,128,0|0,3:0|0:0,0:0:0:0:
464,280,103724,1,0,0:0:0:0:
488,152,103955,5,0,3:0:0:0:
488,152,105340,6,0,P|464:128|472:40,2,128,0|4|0,0:0|3:0|0:0,0:0:0:0:
440,216,106494,1,0,0:0:0:0:
440,216,106724,2,0,P|420:240|324:248,1,128,0|0,3:0|0:0,0:0:0:0:
264,204,107417,1,0,0:0:0:0:
264,204,107647,2,0,P|201:199|153:238,1,128,0|0,3:0|0:0,0:0:0:0:
104,152,111340,6,0,L|264:164,1,160,4|0,0:0|0:0,0:0:0:0:
344,172,112032,1,0,3:0:0:0:
404,116,112263,2,0,P|424:156|372:248,1,160,0|0,1:0|0:0,0:0:0:0:
344,172,112955,1,0,0:0:0:0:
208,88,113186,6,0,L|128:96,1,80,4|0,3:0|3:0,0:0:0:0:
56,176,113647,2,0,L|136:184,1,80,0|0,0:0|3:0,0:0:0:0:
216,188,114109,1,0,1:0:0:0:
276,244,114340,1,0,0:0:0:0:
268,324,114571,1,0,0:0:0:0:
204,372,114801,1,0,0:0:0:0:
80,268,115032,6,0,P|64:232|68:192,1,80,4|0,3:0|3:0,0:0:0:0:
124,132,115494,2,0,P|127:92|111:56,1,80,0|0,0:0|3:0,0:0:0:0:
36,28,115955,2,0,L|196:32,1,160,0|0,1:0|0:0,0:0:0:0:
276,32,116647,1,0,3:0:0:0:
400,132,116878,5,4,3:0:0:0:
452,196,117109,2,0,P|480:148|432:56,1,160,4|0,3:0|0:0,0:0:0:0:
400,132,117801,2,0,P|372:180|420:272,1,160,0|0,1:0|0:0,0:0:0:0:
492,272,118494,1,0,0:0:0:0:
340,324,118724,6,0,P|304:308|232:336,2,120,4|0|0,3:0|0:0|3:0,0:0:0:0:
384,256,119647,2,0,P|340:208|364:116,1,160,0|0,1:0|0:0,0:0:0:0:
416,180,120340,1,0,0:0:0:0:
260,220,120571,6,0,P|220:220|180:200,1,80,4|0,3:0|0:0,0:0:0:0:
120,252,121032,2,0,P|80:252|42:271,1,80,0|0,3:0|0:0,0:0:0:0:
16,348,121494,2,0,L|4:188,1,160,0|0,1:0|0:0,0:0:0:0:
44,120,122186,1,0,0:0:0:0:
188,48,122417,6,0,B|264:80|264:16|344:48,1,160,4|0,3:0|0:0,0:0:0:0:
404,100,123109,1,0,3:0:0:0:
404,100,123340,2,0,P|428:132|400:244,1,160,0|0,1:0|0:0,0:0:0:0:
332,280,124032,1,0,3:0:0:0:
260,136,124263,5,4,3:0:0:0:
260,136,124494,2,0,L|100:120,1,160,4|0,3:0|0:0,0:0:0:0:
60,48,125186,2,0,P|24:92|56:188,1,160,0|0,1:0|0:0,0:0:0:0:
100,120,125878,1,0,0:0:0:0:
196,248,126109,6,0,P|236:232|304:264,2,120,4|0|0,3:0|0:0|3:0,0:0:0:0:
152,316,127032,2,0,P|120:276|156:176,1,160,0|0,1:0|0:0,0:0:0:0:
196,248,127724,1,0,0:0:0:0:
336,324,127955,2,0,P|376:336|416:328,1,80,4|0,3:0|3:0,0:0:0:0:
460,240,128417,2,0,P|420:233|383:245,1,80
248,156,128878,6,0,P|212:136|200:28,1,160,0|0,1:0|0:0,0:0:0:0:
268,76,129571,1,0,0:0:0:0:
332,124,129801,2,0,L|336:204,1,80,4|0,3:0|0:0,0:0:0:0:
412,224,130263,2,0,L|416:144,1,80,0|0,0:0|3:0,0:0:0:0:
256,152,130724,6,0,L|264:312,1,160,0|0,1:0|0:0,0:0:0:0:
204,364,131417,1,0,0:0:0:0:
204,364,131647,2,0,P|164:360|124:344,1,80,4|4,3:0|3:0,0:0:0:0:
104,268,132109,2,0,P|141:253|180:249,1,80,0|0,0:0|3:0,0:0:0:0:
208,172,132571,2,0,P|128:164|48:132,1,160,0|0,1:0|0:0,0:0:0:0:
196,56,133263,5,0,0:0:0:0:
196,56,133494,2,0,P|272:32|336:72,1,160,4|0,3:0|0:0,0:0:0:0:
388,132,134186,1,0,3:0:0:0:
388,132,134417,2,0,B|424:212|352:212|388:292,1,160,0|0,1:0|0:0,0:0:0:0:
436,348,135109,1,0,3:0:0:0:
288,288,135340,6,0,P|252:272|212:272,1,80,4|4,3:0|3:0,0:0:0:0:
152,372,135801,2,0,P|191:372|228:356,1,80
128,292,136263,1,0,1:0:0:0:
128,292,136494,2,0,P|80:224|88:148,1,160
244,184,137186,5,4,3:0:0:0:
312,228,137417,2,0,P|260:264|176:228,1,160,0|0,0:0|3:0,0:0:0:0:
244,184,138109,2,0,P|296:148|380:184,1,160,0|0,1:0|0:0,0:0:0:0:
420,252,138801,1,0,3:0:0:0:
276,324,139032,6,0,P|240:328|196:312,1,80,4|4,3:0|3:0,0:0:0:0:
296,240,139494,2,0,P|333:226|372:230,1,80
292,144,139955,2,0,L|128:136,1,160,0|0,1:0|0:0,0:0:0:0:
132,136,140647,1,0,0:0:0:0:
48,184,140878,1,4,0:0:0:0:
256,192,144571,12,0,148263,0:0:0:0:
376,252,155647,6,0,P|408:196|392:132,1,128,4|0,3:0|0:0,0:0:0:0:
328,184,156340,1,0,3:0:0:0:
280,244,156571,2,0,P|276:276|280:308,1,64,0|0,1:0|0:0,0:0:0:0:
376,316,157032,2,0,P|379:284|375:252,1,64
244,148,157494,6,0,P|184:136|124:164,1,128,4|0,3:0|0:0,0:0:0:0:
56,128,158186,1,0,0:0:0:0:
92,60,158417,2,0,P|124:68|164:64,1,64,0|0,1:0|0:0,0:0:0:0:
228,44,158878,2,0,P|260:36|300:40,1,64
416,160,159340,6,0,P|360:192|296:184,1,128,4|0,3:0|0:0,0:0:0:0:
232,148,160032,1,0,3:0:0:0:
164,184,160263,2,0,L|96:192,1,64,0|0,1:0|0:0,0:0:0:0:
120,264,160724,2,0,L|188:272,1,64,0|0,0:0|0:0,0:0:0:0:
224,100,161186,5,4,3:0:0:0:
224,100,161417,2,0,L|88:116,1,128,4|0,3:0|0:0,0:0:0:0:
32,160,162109,2,0,P|12:216|40:280,1,128,0|0,1:0|0:0,0:0:0:0:
104,316,162801,1,0,0:0:0:0:
236,204,163032,6,0,P|255:144|231:87,1,128,4|0,3:0|0:0,0:0:0:0:
176,148,163724,1,0,3:0:0:0:
156,224,163955,2,0,P|208:280|308:244,1,192,0|0,1:0|3:0,0:0:0:0:
236,204,164878,1,4,3:0:0:0:
236,204,165109,2,0,L|224:72,1,128,4|0,3:0|0:0,0:0:0:0:
280,24,165801,1,0,1:0:0:0:
280,24,166263,1,0,0:0:0:0:
432,228,166724,6,0,P|408:248|312:252,1,128,4|0,3:0|0:0,0:0:0:0:
360,168,167417,2,0,P|384:144|420:136,1,64,0|0,3:0|1:0,0:0:0:0:
412,135,168109,1,0,0:0:0:0:
180,244,168571,6,0,P|160:216|168:120,1,128,0|0,3:0|0:0,0:0:0:0:
220,72,169263,2,0,P|192:88|104:64,2,128
372,128,170417,6,0,P|408:172|380:268,1,160,4|0,0:0|0:0,0:0:0:0:
332,200,171109,1,0,3:0:0:0:
372,128,171340,2,0,P|404:116|448:120,1,80,0|0,1:0|0:0,0:0:0:0:
332,200,171801,2,0,P|292:205|255:192,1,80,0|0,3:0|0:0,0:0:0:0:
136,84,172263,6,0,P|100:64|0:112,2,160,4|0|0,3:0|0:0|1:0,0:0:0:0:
200,132,173417,1,0,0:0:0:0:
272,168,173647,2,0,P|308:176|360:168,1,80,0|0,3:0|0:0,0:0:0:0:
448,44,174109,6,0,B|416:124|480:124|448:204,1,160,4|0,3:0|0:0,0:0:0:0:
420,272,174801,1,0,3:0:0:0:
420,272,175032,2,0,P|388:296|276:272,1,160,0|0,1:0|0:0,0:0:0:0:
228,212,175724,1,0,0:0:0:0:
88,272,175955,6,0,P|72:308|76:352,1,80,4|4,3:0|3:0,0:0:0:0:
184,296,176417,2,0,P|186:256|170:220,1,80,0|0,0:0|3:0,0:0:0:0:
116,160,176878,2,0,P|144:180|256:152,1,160,0|0,1:0|0:0,0:0:0:0:
280,72,177571,1,0,0:0:0:0:
420,156,177801,6,0,P|400:188|416:272,2,120,4|0|0,3:0|0:0|3:0,0:0:0:0:
488,112,178724,2,0,P|400:76|352:112,1,160,0|0,1:0|0:0,0:0:0:0:
420,156,179417,1,0,3:0:0:0:
468,220,179647,2,0,P|480:260|472:296,1,80,4|4,3:0|3:0,0:0:0:0:
364,352,180109,2,0,P|355:313|367:275,1,80,0|0,0:0|0:0,0:0:0:0:
320,208,180571,2,0,P|276:236|184:192,1,160,0|0,1:0|0:0,0:0:0:0:
256,156,181263,1,0,3:0:0:0:
404,92,181494,6,0,L|412:252,1,160,4|0,3:0|0:0,0:0:0:0:
344,300,182186,1,0,3:0:0:0:
344,300,182417,2,0,P|404:332|484:292,1,160,0|0,1:0|0:0,0:0:0:0:
411,251,183109,1,0,3:0:0:0:
264,192,183340,6,0,P|220:188|188:204,1,80,4|4,3:0|3:0,0:0:0:0:
128,100,183801,2,0,P|164:116|203:111,1,80,0|0,0:0|3:0,0:0:0:0:
104,180,184263,2,0,P|76:252|124:320,1,160,0|0,1:0|0:0,0:0:0:0:
156,244,184955,1,0,0:0:0:0:
296,168,185186,6,0,P|336:156|400:192,2,120,4|0|0,0:0|0:0|3:0,0:0:0:0:
236,220,186109,2,0,P|172:236|104:176,1,160,0|0,1:0|0:0,0:0:0:0:
184,156,186801,1,0,3:0:0:0:
336,216,187032,6,0,P|344:248|332:292,1,80,4|4,3:0|3:0,0:0:0:0:
236,220,187494,2,0,P|223:182|231:143,1,80
296,96,187955,2,0,P|264:120|152:96,1,160,0|0,1:0|0:0,0:0:0:0:
84,136,188647,1,0,3:0:0:0:
148,284,188878,6,0,P|188:288|232:272,1,80,4|0,3:0|0:0,0:0:0:0:
304,300,189340,2,0,P|344:296|388:312,1,80,0|0,0:0|3:0,0:0:0:0:
448,264,189801,2,0,P|420:232|452:124,1,160,0|0,1:0|0:0,0:0:0:0:
492,196,190494,1,0,0:0:0:0:
348,124,190724,6,0,P|308:132|272:116,1,80,4|4,3:0|3:0,0:0:0:0:
348,24,191186,2,0,P|384:8|422:16,1,80
456,92,191647,2,0,L|440:252,1,160,0|0,1:0|0:0,0:0:0:0:
380,304,192340,1,0,0:0:0:0:
248,212,192571,6,0,P|160:176|112:212,1,160,4|0,3:0|0:0,0:0:0:0:
180,256,193263,1,0,3:0:0:0:
252,296,193494,2,0,L|412:288,1,160,0|0,1:0|0:0,0:0:0:0:
488,196,194186,2,0,L|408:192,1,80,0|4,3:0|3:0,0:0:0:0:
340,148,194647,2,0,P|288:88|308:12,1,160,4|0,3:0|0:0,0:0:0:0:
456,72,195340,5,0,1:0:0:0:
456,72,195571,2,0,P|472:112|452:188,2,120,0|0|2,0:0|0:0|0:0,0:0:0:0:
456,72,199955,5,4,1:2:0:0:
256,192,200071,12,4,203647,3:0:0:0:
220,136,203878,6,0,P|144:104|80:144,1,160,4|0,3:0|3:0,0:0:0:0:
60,220,204571,2,0,L|48:56,1,160,0|0,1:0|0:0,0:0:0:0:
48,60,205263,1,0,3:0:0:0:
156,180,205494,6,0,L|150:259,1,80,4|0,3:0|0:0,0:0:0:0:
256,316,205955,6,0,L|250:236,1,80,0|0,0:0|0:0,0:0:0:0:
300,172,206417,2,0,P|332:148|436:188,1,160,0|0,1:0|0:0,0:0:0:0:
364,224,207109,1,0,0:0:0:0:
204,244,207340,5,4,3:0:0:0:
256,192,207455,12,4,212878,3:0:0:0:
320,248,213109,6,0,P|364:252|400:232,2,80,4|0|0,3:0|0:0|0:0,0:0:0:0:
252,208,213801,2,0,P|164:176|112:216,1,160,0|0,1:0|0:0,0:0:0:0:
184,256,214494,1,0,0:0:0:0:
332,312,214724,6,0,P|404:332|464:300,1,143.999995605469,4|0,3:0|0:0,0:0:0:0:
504,240,215417,1,0,3:0:0:0:
504,240,215647,2,0,L|496:96,1,143.999995605469,0|0,1:0|0:0,0:0:0:0:
440,48,216340,1,0,0:0:0:0:
304,120,216571,6,0,P|268:144|176:120,1,143.999995605469,4|0,3:0|0:0,0:0:0:0:
132,64,217263,1,0,0:0:0:0:
132,64,217494,2,0,P|148:132|108:192,1,143.999995605469,0|0,1:0|0:0,0:0:0:0:
52,236,218186,1,0,0:0:0:0:
168,312,218417,6,0,L|240:304,1,71.9999978027344,4|0,3:0|0:0,0:0:0:0:
304,224,218878,2,0,L|232:216,1,71.9999978027344,0|0,3:0|0:0,0:0:0:0:
288,128,219340,2,0,P|360:112|420:148,1,143.999995605469,0|0,1:0|0:0,0:0:0:0:
460,204,220032,1,0,0:0:0:0:
304,224,220263,6,0,P|272:224|236:208,1,71.9999978027344,4|0,3:0|0:0,0:0:0:0:
144,304,220724,2,0,P|176:288|212:287,1,71.9999978027344,0|0,3:0|0:0,0:0:0:0:
156,216,221186,2,0,P|116:156|124:88,1,143.999995605469,0|0,1:0|0:0,0:0:0:0:
180,40,221878,1,0,0:0:0:0:
304,128,222109,6,0,P|316:164|288:248,1,128,4|0,0:0|0:0,0:0:0:0:
224,288,222801,1,0,3:0:0:0:
224,288,223032,2,0,L|360:300,1,128,0|0,1:0|0:0,0:0:0:0:
416,256,223724,1,0,0:0:0:0:
304,128,223955,5,4,3:0:0:0:
304,128,224186,2,0,P|244:104|192:132,1,128,4|0,3:0|0:0,0:0:0:0:
144,196,224878,2,0,P|100:220|28:200,1,128,0|0,1:0|0:0,0:0:0:0:
84,140,225571,1,0,0:0:0:0:
232,200,225801,6,0,P|252:228|240:320,1,128,4|0,3:0|0:0,0:0:0:0:
172,348,226494,1,0,3:0:0:0:
172,348,226724,2,0,L|308:368,1,128,0|0,1:0|0:0,0:0:0:0:
372,344,227417,1,0,0:0:0:0:
444,176,227647,6,0,P|456:144|456:108,1,64,4|4,3:0|3:0,0:0:0:0:
356,164,228109,2,0,P|357:195|368:225,1,64
268,196,228571,2,0,P|240:180|148:200,1,128,0|0,1:0|0:0,0:0:0:0:
150,197,229263,1,0,0:0:0:0:
44,148,229494,1,4,0:0:0:0:
