osu file format v12

[General]
AudioFilename: Robin Thicke Feat T.I. & Pharrell - Blurred Lines.mp3
AudioLeadIn: 979
PreviewTime: 48431
Countdown: 0
SampleSet: None
StackLeniency: 0.5
Mode: 0
LetterboxInBreaks: 0
EpilepsyWarning: 1
WidescreenStoryboard: 0

[Editor]
DistanceSpacing: 1
BeatDivisor: 4
GridSize: 4

[Metadata]
Title:Blurred Lines
TitleUnicode:Blurred Lines
Artist:Robin Thicke Feat. T.I. & Pharrell
ArtistUnicode:Robin Thicke Feat. T.I. & Pharrell
Creator:BounceBabe
Version:Normal
Source:
Tags:cut mix -bakari-
BeatmapID:291459
BeatmapSetID:112173

[Difficulty]
HPDrainRate:4
CircleSize:3
OverallDifficulty:3
ApproachRate:4
SliderMultiplier:1.2
SliderTickRate:2

[Events]
//Background and Video events
0,0,"BG.jpg",0,0
//Break Periods
2,82381,86861
//Storyboard Layer 0 (Background)
//Storyboard Layer 1 (Fail)
//Storyboard Layer 2 (Pass)
//Storyboard Layer 3 (Foreground)
//Storyboard Sound Samples
//Background Colour Transformations
3,100,255,255,255

[TimingPoints]
2181,500,4,3,1,35,1,0
10556,-100,4,3,2,35,0,0
10806,-100,4,3,1,35,0,0
12556,-100,4,3,2,35,0,0
12806,-100,4,3,1,35,0,0
14556,-100,4,3,2,35,0,0
14806,-100,4,3,1,35,0,0
18556,-100,4,3,2,35,0,0
18806,-100,4,3,1,35,0,0
20556,-100,4,3,2,35,0,0
20806,-100,4,3,1,35,0,0
22556,-100,4,3,2,35,0,0
22806,-100,4,3,1,35,0,0
24556,-100,4,3,2,35,0,0
24806,-100,4,3,1,35,0,0
30556,-100,4,3,2,35,0,0
30806,-100,4,3,1,35,0,0
34556,-100,4,3,2,35,0,0
34806,-100,4,3,1,35,0,0
36556,-100,4,3,2,35,0,0
36806,-100,4,3,1,35,0,0
39556,-100,4,3,2,35,0,0
40056,-100,4,3,1,35,0,0
50181,-100,4,3,1,45,0,1
50556,-100,4,3,2,45,0,1
50806,-100,4,3,1,45,0,1
58556,-100,4,3,2,45,0,1
58806,-100,4,3,1,45,0,1
66056,-100,4,3,1,45,0,0
66181,-100,4,3,1,45,0,1
66556,-100,4,3,2,45,0,1
66806,-100,4,3,1,45,0,1
74556,-100,4,3,2,45,0,1
74806,-100,4,3,1,45,0,1
82181,-100,4,3,1,45,0,0
88181,-100,4,2,1,45,0,0
89681,-100,4,3,1,45,0,0
90556,-100,4,3,2,45,0,0
90806,-100,4,3,1,45,0,0
98556,-100,4,3,2,45,0,0
98806,-100,4,3,1,45,0,0
100556,-100,4,3,2,45,0,0
100806,-100,4,3,1,45,0,0
103556,-100,4,3,2,45,0,0
104056,-100,4,3,1,45,0,0
114181,-100,4,3,1,45,0,1
114306,-100,4,3,1,45,0,0
114556,-100,4,3,2,45,0,0
114806,-100,4,3,1,45,0,0
122556,-100,4,3,2,45,0,0
122806,-100,4,3,1,45,0,0
130181,-100,4,3,1,45,0,1
138556,-100,4,3,2,45,0,1
138806,-100,4,3,1,45,0,1
146056,-100,4,3,1,45,0,0
146181,-100,4,3,1,45,0,1
146556,-100,4,3,2,45,0,1
146806,-100,4,3,1,45,0,1
154556,-100,4,3,2,45,0,1
154806,-100,4,3,1,45,0,1
162181,-100,4,3,1,45,0,0
170181,-100,4,3,1,35,0,0
174181,-100,4,3,1,25,0,0
176181,-100,4,2,1,15,0,0

[Colours]
Combo1 : 255,200,0
Combo2 : 128,255,128
Combo3 : 255,128,255
Combo4 : 128,255,255

[HitObjects]
32,308,2181,2,0,P|46:334|128:348,1,120,4|8,0:0|0:0,0:0:0:0:
248,348,3181,1,0,0:0:0:0:
304,348,3431,2,0,L|368:348,2,60,0|8|8,0:0|0:0|0:0,0:0:0:0:
272,300,4181,6,0,L|184:204,1,120,0|8,0:0|0:0,0:0:0:0:
104,124,5181,1,0,0:0:0:0:
56,92,5431,2,0,L|0:68,2,60,0|8|0,0:0|0:0|0:0,0:0:0:0:
112,60,6181,6,0,P|174:63|232:52,1,120,0|8,0:0|0:0,0:0:0:0:
352,44,7181,1,0,0:0:0:0:
412,40,7431,2,0,L|472:36,2,60,0|8|8,0:0|0:0|0:0,0:0:0:0:
392,92,8181,6,0,L|432:212,1,120,0|8,0:0|0:0,0:0:0:0:
468,320,9181,1,0,0:0:0:0:
416,348,9431,2,0,L|356:372,2,60,0|8|0,0:0|0:0|0:0,0:0:0:0:
420,288,10181,6,0,P|332:288|292:208,2,180,0|0|8,0:0|0:0|0:0,0:0:0:0:
464,244,11931,1,8,0:0:0:0:
504,204,12181,6,0,P|463:130|375:130,2,180,0|0|8,0:0|0:0|0:0,0:0:0:0:
456,244,13931,1,0,0:0:0:0:
408,212,14181,6,0,L|248:124,2,180,0|0|8,0:0|0:0|0:0,0:0:0:0:
456,244,15931,1,8,0:0:0:0:
448,304,16181,6,0,P|387:328|328:328,1,120,0|8,0:0|0:0,0:0:0:0:
232,264,17181,2,0,P|177:264|117:288,1,120,0|8,0:0|0:0,0:0:0:0:
16,352,18181,6,0,P|-8:256|96:176,1,240
192,112,19681,2,8,L|248:72,1,60
288,40,20181,6,0,P|367:139|463:115,1,240
408,8,21681,1,8,0:0:0:0:
463,115,22181,6,0,P|378:210|419:301,1,240
304,344,23681,2,8,L|232:352,1,60
184,352,24181,6,0,B|120:312|120:312|88:224|88:224|24:184,1,240
40,64,25681,1,8,0:0:0:0:
160,56,26181,6,0,L|280:40,1,120,0|8,0:0|0:0,0:0:0:0:
336,32,26931,1,0,0:0:0:0:
392,56,27181,2,0,P|424:128|464:144,1,120,0|8,0:0|0:0,0:0:0:0:
472,200,27931,1,8,0:0:0:0:
472,256,28181,6,0,L|376:336,1,120,0|8,0:0|0:0,0:0:0:0:
320,336,28931,1,0,0:0:0:0:
264,336,29181,2,0,P|248:288|176:264,1,120,0|8,0:0|0:0,0:0:0:0:
128,248,29931,1,0,0:0:0:0:
72,224,30181,6,0,P|24:144|48:56,2,180,0|0|8,0:0|0:0|0:0,0:0:0:0:
128,248,31931,1,8,0:0:0:0:
184,264,32181,6,0,L|304:280,1,120,0|8,0:0|0:0,0:0:0:0:
392,192,33181,2,0,L|510:207,1,120,0|8,0:0|0:0,0:0:0:0:
480,96,34181,6,0,B|416:96|376:32|376:32|256:56,1,240
208,72,35431,1,0,0:0:0:0:
152,96,35681,2,8,L|112:144,1,60
80,192,36181,6,0,B|144:192|184:256|184:256|240:244,1,180
296,236,37181,2,0,L|336:188,1,60,0|0,0:0|0:0,0:0:0:0:
392,168,37681,2,0,L|432:120,1,60,8|0,0:0|0:0,0:0:0:0:
344,40,38431,5,0,0:0:0:0:
308,88,38681,2,0,L|268:136,1,60,8|0,0:0|0:0,0:0:0:0:
212,148,39181,2,0,P|108:204|32:128,1,240
136,48,40681,2,0,P|184:16|248:24,2,120,8|0|8,0:0|0:0|0:0,0:0:0:0:
88,80,41931,1,0,0:0:0:0:
24,184,42431,5,0,0:0:0:0:
24,240,42681,2,0,P|48:328|136:336,1,180,8|0,0:0|0:0,0:0:0:0:
184,344,43681,2,8,L|248:344,1,60
304,344,44181,1,0,0:0:0:0:
416,312,44681,6,0,P|416:256|480:144,1,180,8|0,0:0|0:0,0:0:0:0:
472,88,45681,2,0,L|416:40,1,60,8|0,0:0|0:0,0:0:0:0:
368,32,46181,6,0,L|248:56,2,120,0|8|0,0:0|0:0|0:0,0:0:0:0:
400,144,47681,2,8,L|416:208,1,60
424,264,48181,6,0,P|360:320|320:328,1,120,0|8,0:0|0:0,0:0:0:0:
224,264,49181,2,0,P|191:271|127:327,1,120,0|8,0:0|0:0,0:0:0:0:
24,264,50181,6,0,P|56:200|8:48,1,240,4|0,0:1|0:0,0:0:0:0:
128,32,51681,2,8,L|176:88,1,60
208,120,52181,5,0,0:0:0:0:
248,232,52681,1,8,0:0:0:0:
256,352,53181,1,0,0:0:0:0:
368,304,53681,1,8,0:0:0:0:
480,264,54181,5,0,0:0:0:0:
384,192,54681,2,0,P|400:144|400:72,2,120,8|0|8,0:0|0:0|0:0,0:0:0:0:
344,232,55931,2,0,P|296:248|224:248,1,120,8|0,0:0|0:0,0:0:0:0:
168,232,56681,5,8,0:0:0:0:
80,144,57181,2,0,P|40:96|32:40,1,120,0|8,0:0|0:0,0:0:0:0:
152,25,58181,6,0,B|220:120|220:120|168:232,1,240,4|0,0:1|0:0,0:0:0:0:
240,328,59681,2,8,L|312:336,1,60
360,340,60181,6,0,P|392:284|448:276,1,120,0|8,0:0|0:0,0:0:0:0:
488,236,60931,1,0,0:0:0:0:
476,176,61181,2,0,L|496:56,1,120,0|8,0:0|0:0,0:0:0:0:
376,52,62181,6,0,L|248:52,1,120,0|8,0:0|0:0,0:0:0:0:
216,100,62931,1,0,0:0:0:0:
184,148,63181,2,0,L|64:148,1,120,0|8,0:0|0:0,0:0:0:0:
32,196,63931,1,8,0:0:0:0:
8,252,64181,6,0,P|56:292|56:348,1,120,0|8,0:0|0:0,0:0:0:0:
176,340,65181,2,0,L|304:340,1,120,0|8,0:0|0:0,0:0:0:0:
416,324,66181,6,0,B|456:268|424:148|472:84,1,240,4|0,0:1|0:0,0:0:0:0:
368,28,67681,2,8,L|304:52,1,60
256,76,68181,5,0,0:0:0:0:
200,100,68431,2,0,L|136:124,2,60,0|8|0,0:0|0:0|0:0,0:0:0:0:
256,76,69181,2,0,P|288:148|328:164,1,120,0|8,0:0|0:0,0:0:0:0:
392,260,70181,5,0,0:0:0:0:
360,308,70431,2,0,L|328:364,2,60,0|8|0,0:0|0:0|0:0,0:0:0:0:
392,260,71181,2,0,L|264:252,1,120,0|8,0:0|0:0,0:0:0:0:
216,244,71931,1,8,0:0:0:0:
96,228,72431,6,0,L|48:180,2,60,0|8|0,0:0|0:0|0:0,0:0:0:0:
152,236,73181,2,0,L|240:140,1,120,0|8,0:0|0:0,0:0:0:0:
272,100,73931,1,0,0:0:0:0:
304,52,74181,6,0,P|352:108|504:76,1,240,4|0,0:1|0:0,0:0:0:0:
496,204,75681,2,8,L|480:276,1,60
472,324,76181,5,0,0:0:0:0:
352,340,76681,1,8,0:0:0:0:
296,356,76931,2,0,L|232:372,2,60
312,300,77681,1,8,0:0:0:0:
408,228,78181,5,0,0:0:0:0:
416,108,78681,1,8,0:0:0:0:
416,52,78931,2,0,L|464:4,2,60
368,84,79681,2,8,L|320:132,1,60
256,192,80181,12,4,82181,0:1:0:0:
48,32,88181,5,2,0:0:0:0:
128,120,88681,1,8,0:3:0:0:
8,152,89181,1,2,0:0:0:0:
88,240,89681,1,8,0:3:0:0:
88,240,89931,1,0,0:0:0:0:
88,240,90181,6,0,B|160:256|176:328|176:328|288:328,1,240
400,328,91681,1,8,0:0:0:0:
448,296,91931,2,0,L|488:224,1,60,8|0,0:0|0:0,0:0:0:0:
480,120,92681,6,0,B|416:112|416:112|384:56,1,120,8|0,0:0|0:0,0:0:0:0:
272,56,93681,2,0,L|304:112,2,60,8|0|0,0:0|0:0|0:0,0:0:0:0:
152,48,94681,5,8,0:0:0:0:
48,104,95181,1,0,0:0:0:0:
40,224,95681,1,8,0:0:0:0:
56,280,95931,1,8,0:0:0:0:
96,324,96181,6,0,P|144:284|156:228,3,120,0|8|0|8,0:0|0:0|0:0|0:0,0:0:0:0:
200,120,98181,6,0,B|248:56|248:56|336:80|336:80|384:24,1,240
432,56,99431,1,0,0:0:0:0:
488,88,99681,2,8,L|520:144,1,60
504,200,100181,6,0,B|448:240|448:240|404:240|404:240|348:284,1,180
300,308,101181,2,8,L|270:255,1,60,0|0,0:0|0:0,0:0:0:0:
216,228,101681,2,8,L|184:172,1,60,8|0,0:0|0:0,0:0:0:0:
136,72,102431,5,0,0:0:0:0:
96,120,102681,2,0,P|80:148|76:176,1,60,8|0,0:0|0:0,0:0:0:0:
84,236,103181,2,0,P|155:312|259:256,1,240
344,176,104681,2,0,P|392:144|456:152,2,120,8|0|8,0:0|0:0|0:0,0:0:0:0:
296,212,105931,2,0,L|236:200,1,60
180,192,106431,5,0,0:0:0:0:
120,184,106681,2,0,B|112:248|48:256|48:256|88:320,1,180,8|0,0:0|0:0,0:0:0:0:
136,344,107681,2,8,L|200:344,1,60
256,344,108181,1,0,0:0:0:0:
376,344,108681,6,0,B|432:312|400:216|456:184,1,180,8|0,0:0|0:0,0:0:0:0:
472,128,109681,2,8,L|448:72,1,60,8|0,0:0|0:0,0:0:0:0:
400,40,110181,6,0,L|272:32,2,120,0|8|0,0:0|0:0|0:0,0:0:0:0:
472,136,111681,2,8,L|488:200,1,60
496,256,112181,6,0,B|448:304|448:304|384:312,1,120,0|8,0:0|0:0,0:0:0:0:
280,272,113181,2,0,B|228:278|228:278|180:326,1,120,0|8,0:0|0:0,0:0:0:0:
72,272,114181,6,0,B|88:184|88:184|128:112|128:112|144:40,1,240,4|0,0:1|0:0,0:0:0:0:
264,32,115681,2,8,L|288:88,1,60,8|8,0:0|0:0,0:0:0:0:
312,144,116181,5,0,0:0:0:0:
432,176,116681,1,8,0:0:0:0:
436,296,117181,1,0,0:0:0:0:
324,336,117681,1,8,0:0:0:0:
240,248,118181,5,0,0:0:0:0:
128,200,118681,2,0,P|72:192|16:232,2,120,8|0|8,0:0|0:0|0:0,0:0:0:0:
168,160,119931,2,0,P|160:104|200:48,1,120,8|0,0:0|0:0,0:0:0:0:
240,16,120681,5,8,0:0:0:0:
304,112,121181,2,0,P|312:168|272:224,1,120,0|8,0:0|0:0,0:0:0:0:
288,336,122181,6,0,P|368:336|440:208,1,240,4|0,0:1|0:0,0:0:0:0:
424,88,123681,2,8,L|384:40,1,60
328,40,124181,6,0,L|200:32,1,120,0|8,0:0|0:0,0:0:0:0:
176,80,124931,1,0,0:0:0:0:
144,128,125181,2,0,L|24:120,1,120,0|8,0:0|0:0,0:0:0:0:
0,240,126181,6,0,B|56:264|56:264|96:312,1,120,0|8,0:0|0:0,0:0:0:0:
152,304,126931,1,0,0:0:0:0:
208,296,127181,2,0,B|245:341|245:341|301:365,1,120,0|8,0:0|0:0,0:0:0:0:
360,352,127931,1,8,0:0:0:0:
256,192,128181,12,4,130181,0:1:0:0:
336,336,130681,6,0,P|432:288|456:224,1,180,8|0,0:0|0:0,0:0:0:0:
448,168,131681,2,8,L|400:112,1,60
368,80,132181,5,0,0:0:0:0:
256,32,132681,1,8,0:0:0:0:
136,56,133181,1,0,0:0:0:0:
72,160,133681,1,8,0:0:0:0:
104,272,134181,5,0,0:0:0:0:
208,336,134681,2,0,L|336:344,2,120,8|0|8,0:0|0:0|0:0,0:0:0:0:
176,288,135931,2,0,L|168:168,1,120,8|0,0:0|0:0,0:0:0:0:
164,108,136681,5,8,0:0:0:0:
236,12,137181,2,0,P|276:60|284:116,1,120,0|8,0:0|0:0,0:0:0:0:
280,232,138181,6,0,P|296:320|424:304,1,240,4|0,0:1|0:0,0:0:0:0:
488,208,139681,2,8,L|472:144,1,60
464,88,140181,6,0,P|432:32|376:24,1,120,0|8,0:0|0:0,0:0:0:0:
320,24,140931,1,0,0:0:0:0:
264,24,141181,2,0,P|214:34|182:90,1,120,0|8,0:0|0:0,0:0:0:0:
136,200,142181,6,0,L|240:288,1,120,0|8,0:0|0:0,0:0:0:0:
272,240,142931,1,0,0:0:0:0:
320,200,143181,2,0,L|424:288,1,120,0|8,0:0|0:0,0:0:0:0:
464,248,143931,1,8,0:0:0:0:
472,192,144181,6,0,P|456:136|472:64,1,120,0|8,0:0|0:0,0:0:0:0:
352,40,145181,2,0,L|224:32,1,120,0|8,0:0|0:0,0:0:0:0:
112,16,146181,6,0,B|72:72|104:192|56:256,1,240,4|0,0:1|0:0,0:0:0:0:
144,336,147681,2,8,L|208:312,1,60
256,296,148181,5,0,0:0:0:0:
312,272,148431,2,0,L|376:248,2,60,0|8|0,0:0|0:0|0:0,0:0:0:0:
256,296,149181,2,0,P|224:224|184:208,1,120,0|8,0:0|0:0,0:0:0:0:
72,176,150181,5,0,0:0:0:0:
60,116,150431,2,0,L|48:52,2,60,0|8|0,0:0|0:0|0:0,0:0:0:0:
72,176,151181,2,0,L|175:99,1,120,0|8,0:0|0:0,0:0:0:0:
216,74,151931,1,8,0:0:0:0:
328,32,152431,6,0,L|400:24,2,60,0|8|0,0:0|0:0|0:0,0:0:0:0:
272,56,153181,2,0,P|288:112|328:160,1,120,0|8,0:0|0:0,0:0:0:0:
376,192,153931,1,0,0:0:0:0:
416,232,154181,6,0,P|416:288|264:344,1,240,4|0,0:1|0:0,0:0:0:0:
168,288,155681,2,8,L|120:248,1,60
72,208,156181,5,0,0:0:0:0:
72,88,156681,1,8,0:0:0:0:
120,56,156931,2,0,L|166:17,2,60
72,88,157681,1,8,0:0:0:0:
144,184,158181,5,0,0:0:0:0:
264,192,158681,1,8,0:0:0:0:
320,216,158931,2,0,L|376:256,2,60
264,192,159681,2,0,L|208:152,1,60,8|8,0:0|0:0,0:0:0:0:
160,128,160181,5,0,0:0:0:0:
72,48,160681,1,8,0:0:0:0:
56,168,161181,2,0,L|48:232,1,60
8,272,161681,2,0,L|0:336,1,60,8|0,0:0|0:0,0:0:0:0:
56,352,162181,6,0,L|176:352,1,120,4|8,0:0|0:0,0:0:0:0:
296,352,163181,1,0,0:0:0:0:
352,352,163431,2,0,L|424:352,2,60,0|8|8,0:0|0:0|0:0,0:0:0:0:
320,304,164181,6,0,P|304:240|328:184,1,120,4|8,0:0|0:0,0:0:0:0:
408,104,165181,1,0,0:0:0:0:
456,64,165431,2,0,L|480:0,2,60,0|8|0,0:0|0:0|0:0,0:0:0:0:
464,120,166181,6,0,P|464:184|432:232,1,120,4|8,0:0|0:0,0:0:0:0:
328,280,167181,1,0,0:0:0:0:
288,320,167431,2,0,L|248:368,2,60,0|8|8,0:0|0:0|0:0,0:0:0:0:
264,264,168181,6,0,B|232:240|232:240|200:160,1,120,4|8,0:0|0:0,0:0:0:0:
136,64,169181,1,0,0:0:0:0:
80,40,169431,2,0,L|24:16,2,60,0|8|0,0:0|0:0|0:0,0:0:0:0:
88,96,170181,6,0,P|96:144|48:192,1,120,4|8,0:0|0:0,0:0:0:0:
96,304,171181,1,0,0:0:0:0:
128,360,171431,2,0,L|192:376,2,60,0|8|8,0:0|0:0|0:0,0:0:0:0:
144,304,172181,6,0,P|200:272|216:208,1,120,4|8,0:0|0:0,0:0:0:0:
224,104,173181,1,0,0:0:0:0:
192,56,173431,2,0,L|136:24,2,60,0|8|0,0:0|0:0|0:0,0:0:0:0:
248,56,174181,6,0,L|376:48,1,120,4|8,0:0|0:0,0:0:0:0:
480,88,175181,1,0,0:0:0:0:
496,144,175431,2,0,L|512:216,2,60,0|8|8,0:0|0:0|0:0,0:0:0:0:
256,192,176181,12,2,178181,0:0:0:0:
