osu file format v12

[General]
AudioFilename: Robin Thicke Feat T.I. & Pharrell - Blurred Lines.mp3
AudioLeadIn: 979
PreviewTime: 48431
Countdown: 0
SampleSet: None
StackLeniency: 0.5
Mode: 0
LetterboxInBreaks: 0
EpilepsyWarning: 1
WidescreenStoryboard: 0

[Editor]
DistanceSpacing: 1.2
BeatDivisor: 4
GridSize: 8

[Metadata]
Title:Blurred Lines
TitleUnicode:Blurred Lines
Artist:Robin Thicke Feat. T.I. & Pharrell
ArtistUnicode:Robin Thicke Feat. T.I. & Pharrell
Creator:BounceBabe
Version:Naughty
Source:
Tags:cut mix -bakari-
BeatmapID:291458
BeatmapSetID:112173

[Difficulty]
HPDrainRate:7
CircleSize:4
OverallDifficulty:7
ApproachRate:8
SliderMultiplier:1.8
SliderTickRate:2

[Events]
//Background and Video events
0,0,"BG.jpg",0,0
//Break Periods
//Storyboard Layer 0 (Background)
//Storyboard Layer 1 (Fail)
//Storyboard Layer 2 (Pass)
//Storyboard Layer 3 (Foreground)
//Storyboard Sound Samples
//Background Colour Transformations
3,100,255,255,255

[TimingPoints]
2181,500,4,3,1,35,1,0
50181,-100,4,3,1,45,0,1
66056,-100,4,3,1,45,0,0
66181,-100,4,3,1,45,0,1
82181,-100,4,3,1,45,0,0
88181,-100,4,2,1,45,0,0
89681,-100,4,3,1,45,0,0
114181,-100,4,3,1,45,0,1
114306,-100,4,3,1,45,0,0
130181,-100,4,3,1,45,0,1
146056,-100,4,3,1,45,0,0
146181,-100,4,3,1,45,0,1
162181,-100,4,3,1,45,0,0
170181,-100,4,3,1,35,0,0
174181,-100,4,3,1,25,0,0
176181,-100,4,2,1,15,0,0

[Colours]
Combo1 : 255,200,0
Combo2 : 128,255,128
Combo3 : 255,128,255
Combo4 : 128,255,255

[HitObjects]
32,64,2181,6,0,P|111:63|143:159,1,180,4|8,0:0|0:0,0:0:0:0:
152,256,2931,1,0,0:0:0:0:
152,256,3431,2,0,L|208:336,2,90,0|8|8,0:0|0:0|0:0,0:0:0:0:
256,216,4181,6,0,L|359:367,1,180,4|8,0:0|0:0,0:0:0:0:
464,368,4931,1,0,0:0:0:0:
464,368,5431,2,0,P|456:320|424:288,2,90,0|8|0,0:0|0:0|0:0,0:0:0:0:
360,368,6181,6,0,B|296:343|248:376|176:352,1,180,4|8,0:0|0:0,0:0:0:0:
80,328,6931,1,0,0:0:0:0:
80,328,7431,2,0,P|40:272|40:240,2,90,0|8|8,0:0|0:0|0:0,0:0:0:0:
136,240,8181,6,0,P|192:184|176:88,1,180,4|8,0:0|0:0,0:0:0:0:
88,40,8931,1,0,0:0:0:0:
88,40,9431,2,0,L|16:104,2,90,0|8|0,0:0|0:0|0:0,0:0:0:0:
192,40,10181,6,0,P|280:56|368:40,1,180,4|8,0:0|0:0,0:0:0:0:
480,40,10931,1,0,0:0:0:0:
480,40,11431,2,0,L|488:135,2,90,0|8|8,0:0|0:0|0:0,0:0:0:0:
368,39,12181,6,0,L|383:223,1,180,4|8,0:0|0:0,0:0:0:0:
392,328,12931,1,0,0:0:0:0:
392,328,13431,2,0,P|356:349|304:352,2,90,0|8|0,0:0|0:0|0:0,0:0:0:0:
312,256,14181,6,0,P|248:248|200:152,1,180,4|8,0:0|0:0,0:0:0:0:
128,72,14931,1,0,0:0:0:0:
128,72,15431,2,0,P|84:100|64:136,2,90,0|8|8,0:0|0:0|0:0,0:0:0:0:
168,168,16181,6,0,L|128:248,1,90
232,240,16681,2,0,L|272:159,1,90,8|0,0:0|0:0,0:0:0:0:
376,152,17181,2,0,L|336:232,1,90
440,224,17681,2,0,L|480:144,1,90,8|0,0:0|0:0,0:0:0:0:
480,32,18181,5,4,0:0:0:0:
480,32,18681,2,0,L|464:128,1,90,8|0,0:0|0:0,0:0:0:0:
504,224,19181,2,0,L|488:320,1,90
392,336,19681,1,8,0:0:0:0:
303,218,19931,2,0,P|303:287|391:335,1,180,8|0,0:0|0:0,0:0:0:0:
408,232,20681,2,0,L|424:144,1,90,8|0,0:0|0:0,0:0:0:0:
320,120,21181,1,0,0:0:0:0:
240,48,21431,2,0,P|192:48|144:64,2,90,0|8|0,0:0|0:0|0:0,0:0:0:0:
320,120,22181,5,4,0:0:0:0:
320,120,22681,1,8,0:0:0:0:
384,208,22931,2,0,P|424:256|448:264,1,90
376,344,23431,2,0,P|336:296|312:288,1,90,0|8,0:0|0:0,0:0:0:0:
123,330,23931,2,0,P|208:320|216:240,1,180,8|0,0:0|0:0,0:0:0:0:
112,224,24681,1,8,0:0:0:0:
56,128,24931,2,0,P|31:113|15:57,2,90
160,128,25681,1,8,0:0:0:0:
256,80,25931,1,0,0:0:0:0:
256,80,26181,6,0,L|344:112,1,90,0|0,0:0|0:0,0:0:0:0:
440,144,26681,2,0,L|352:176,1,90,8|0,0:0|0:0,0:0:0:0:
248,200,27181,2,0,L|336:232,1,90
432,264,27681,2,0,L|344:296,2,90,8|8|0,0:0|0:0|0:0,0:0:0:0:
512,192,28431,5,0,0:0:0:0:
504,88,28681,1,8,0:0:0:0:
416,24,28931,1,0,0:0:0:0:
304,0,29181,1,0,0:0:0:0:
208,48,29431,1,0,0:0:0:0:
416,24,29681,1,8,0:0:0:0:
208,48,29931,1,0,0:0:0:0:
328,208,30181,1,0,0:0:0:0:
320,104,30431,5,0,0:0:0:0:
424,144,30681,2,0,P|444:188|440:232,1,90,8|0,0:0|0:0,0:0:0:0:
368,312,31181,1,0,0:0:0:0:
264,288,31431,1,0,0:0:0:0:
160,288,31681,2,0,P|104:296|80:320,1,90,8|8,0:0|0:0,0:0:0:0:
24,224,32181,6,0,L|64:144,1,90,0|0,0:0|0:0,0:0:0:0:
152,80,32681,2,0,L|112:160,1,90,8|0,0:0|0:0,0:0:0:0:
112,272,33181,2,0,L|152:192,1,90
240,128,33681,2,0,L|200:208,2,90,8|0|4,0:0|0:0|0:0,0:0:0:0:
312,48,34431,5,0,0:0:0:0:
344,152,34681,1,8,0:0:0:0:
416,72,34931,1,0,0:0:0:0:
344,152,35181,2,0,P|352:216|368:232,1,90
456,168,35681,1,8,0:0:0:0:
430,324,35931,2,0,P|480:248|455:167,1,180,8|0,0:0|0:0,0:0:0:0:
416,72,36681,5,8,0:0:0:0:
312,40,36931,2,0,P|256:32|224:48,1,90
128,88,37431,1,0,0:0:0:0:
280,144,37681,1,8,0:0:0:0:
160,240,37931,1,0,0:0:0:0:
120,336,38181,5,4,0:0:0:0:
224,328,38431,2,0,L|312:296,2,90,0|8|0,0:0|0:0|0:0,0:0:0:0:
160,240,39181,1,0,0:0:0:0:
120,336,39431,1,0,0:0:0:0:
56,248,39681,1,8,0:0:0:0:
111,88,39931,2,0,B|56:160|56:160|40:200|56:248,1,180,8|0,0:0|0:0,0:0:0:0:
160,240,40681,5,8,0:0:0:0:
120,336,40931,1,0,0:0:0:0:
264,224,41181,1,0,0:0:0:0:
224,320,41431,1,0,0:0:0:0:
264,224,41681,2,0,P|312:184|344:176,1,90,8|0,0:0|0:0,0:0:0:0:
440,144,42181,5,0,0:0:0:0:
360,72,42431,2,0,P|385:64|433:24,2,90,0|8|0,0:0|0:0|0:0,0:0:0:0:
256,96,43181,2,0,P|230:103|182:143,1,90
80,184,43681,1,8,0:0:0:0:
35,356,43931,2,0,B|55:311|47:263|47:263|80:184,1,180,8|0,0:0|0:0,0:0:0:0:
72,80,44681,5,8,0:0:0:0:
80,184,44931,1,0,0:0:0:0:
72,80,45181,1,0,0:0:0:0:
168,128,45431,1,0,0:0:0:0:
72,80,45681,1,8,0:0:0:0:
256,72,45931,1,0,0:0:0:0:
176,232,46181,1,0,0:0:0:0:
176,232,46431,5,0,0:0:0:0:
248,312,46681,1,8,0:0:0:0:
352,336,46931,1,0,0:0:0:0:
456,320,47181,2,0,P|488:296|496:248,1,90
488,81,47681,2,0,P|455:104|448:152,2,90,8|8|0,0:0|0:0|0:0,0:0:0:0:
488,80,48431,5,0,0:0:0:0:
392,40,48681,2,0,L|304:24,1,90,8|0,0:0|0:0,0:0:0:0:
200,48,49181,2,0,L|288:64,1,90
368,136,49681,2,0,L|280:120,1,90,8|0,0:0|0:0,0:0:0:0:
184,160,50181,6,0,B|256:176|256:176|271:235|240:288,2,180,4|8|0,0:1|0:0|0:0,0:0:0:0:
80,144,51431,1,0,0:0:0:0:
112,248,51681,2,0,P|96:288|64:336,1,90,8|8,0:0|0:0,0:0:0:0:
80,144,52181,5,0,0:0:0:0:
152,64,52431,1,0,0:0:0:0:
256,48,52681,1,8,0:0:0:0:
352,96,52931,1,0,0:0:0:0:
256,48,53181,1,0,0:0:0:0:
352,96,53431,1,0,0:0:0:0:
408,192,53681,1,8,0:0:0:0:
408,296,53931,1,0,0:0:0:0:
408,296,54181,6,0,L|320:320,1,90,0|0,0:0|0:0,0:0:0:0:
129,296,54681,2,0,L|216:320,1,90,8|0,0:0|0:0,0:0:0:0:
296,248,55181,1,0,0:0:0:0:
384,184,55431,2,0,P|432:152|448:112,2,90,0|8|8,0:0|0:0|0:0,0:0:0:0:
288,144,56181,5,0,0:0:0:0:
200,80,56431,1,0,0:0:0:0:
96,64,56681,1,8,0:0:0:0:
136,168,56931,1,0,0:0:0:0:
96,64,57181,1,0,0:0:0:0:
136,168,57431,1,0,0:0:0:0:
104,272,57681,1,8,0:0:0:0:
24,344,57931,1,0,0:0:0:0:
104,272,58181,6,0,P|192:272|240:200,2,180,4|8|0,0:1|0:0|0:0,0:0:0:0:
24,200,59431,1,0,0:0:0:0:
24,96,59681,2,0,P|40:40|72:16,1,90,8|8,0:0|0:0,0:0:0:0:
168,24,60181,6,0,L|256:40,1,90
410,25,60681,2,0,L|368:40,2,45,8|0|0,0:0|0:0|0:0,0:0:0:0:
464,120,61181,1,0,0:0:0:0:
416,216,61431,2,0,P|392:272|408:304,1,90,0|8,0:0|0:0,0:0:0:0:
488,360,61931,2,0,P|512:304|502:280,1,90
416,216,62431,5,0,0:0:0:0:
320,168,62681,2,0,P|272:168|224:144,1,90,8|0,0:0|0:0,0:0:0:0:
74,55,63181,2,0,P|122:55|160:72,1,90
234,151,63681,1,8,0:0:0:0:
136,192,63931,1,8,0:0:0:0:
224,256,64181,1,0,0:0:0:0:
136,192,64431,6,0,L|96:144,2,45,0|0|8,0:0|0:0|0:0,0:0:0:0:
120,296,64931,1,0,0:0:0:0:
224,256,65181,2,0,P|272:280|296:320,1,90
384,248,65681,2,0,P|336:224|315:194,1,90,8|0,0:0|0:0,0:0:0:0:
408,144,66181,6,0,B|448:80|432:32|432:32|360:16,2,180,4|8|0,0:1|0:0|0:0,0:0:0:0:
384,248,67431,1,0,0:0:0:0:
479,190,67681,2,0,P|450:156|408:144,1,90,8|8,0:0|0:0,0:0:0:0:
296,304,68181,5,0,0:0:0:0:
392,352,68431,1,0,0:0:0:0:
192,304,68681,1,8,0:0:0:0:
96,344,68931,1,0,0:0:0:0:
192,304,69181,1,0,0:0:0:0:
104,240,69431,1,0,0:0:0:0:
96,344,69681,1,8,0:0:0:0:
200,192,69931,1,0,0:0:0:0:
240,88,70181,6,0,P|288:72|344:80,1,90
494,138,70681,2,0,P|446:154|408:152,1,90,8|0,0:0|0:0,0:0:0:0:
328,224,71181,1,0,0:0:0:0:
392,312,71431,2,0,P|430:314|478:298,2,90,0|8|8,0:0|0:0|0:0,0:0:0:0:
288,320,72181,5,0,0:0:0:0:
168,184,72431,1,0,0:0:0:0:
184,288,72681,1,8,0:0:0:0:
168,184,72931,1,0,0:0:0:0:
112,96,73181,1,0,0:0:0:0:
168,184,73431,1,0,0:0:0:0:
184,288,73681,1,8,0:0:0:0:
112,96,73931,1,0,0:0:0:0:
64,192,74181,6,0,B|88:256|24:304|48:368,2,180,4|8|0,0:1|0:0|0:0,0:0:0:0:
112,96,75431,1,0,0:0:0:0:
216,88,75681,2,0,L|312:80,1,90,8|8,0:0|0:0,0:0:0:0:
416,72,76181,5,0,0:0:0:0:
472,160,76431,1,0,0:0:0:0:
440,264,76681,1,8,0:0:0:0:
416,72,76931,1,0,0:0:0:0:
440,264,77181,1,0,0:0:0:0:
344,320,77431,2,0,P|288:328|264:360,2,90,0|8|0,0:0|0:0|0:0,0:0:0:0:
352,216,78181,5,0,0:0:0:0:
248,200,78431,1,0,0:0:0:0:
152,152,78681,2,0,L|112:112,2,45,8|0|0,0:0|0:0|0:0,0:0:0:0:
352,216,79181,1,0,0:0:0:0:
248,200,79431,2,0,P|280:144|304:128,2,90,0|8|8,0:0|0:0|0:0,0:0:0:0:
256,192,80181,12,4,82181,1:0:0:0:
128,336,82431,5,0,0:0:0:0:
136,232,82681,1,8,0:0:0:0:
40,272,82931,1,0,0:0:0:0:
128,336,83181,2,0,P|208:320|248:232,1,180,0|8,0:0|0:0,0:0:0:0:
200,136,83931,1,8,0:0:0:0:
112,72,84181,5,0,0:0:0:0:
200,136,84431,1,0,0:0:0:0:
104,176,84681,1,8,0:0:0:0:
112,72,84931,1,0,0:0:0:0:
200,136,85181,2,0,P|280:120|320:32,1,180,0|8,0:0|0:0,0:0:0:0:
432,40,85931,1,0,0:0:0:0:
408,144,86181,6,0,L|472:216,1,90
451,355,86681,2,0,L|392:288,1,90,8|0,0:0|0:0,0:0:0:0:
350,56,87181,2,0,P|296:128|320:208,1,180,0|8,0:0|0:0,0:0:0:0:
288,312,87931,1,8,0:0:0:0:
184,336,88181,6,2,L|96:352,1,90
24,272,88681,1,8,3:0:0:0:
216,232,88931,2,2,L|128:248,1,90
56,168,89431,1,0,3:0:0:0:
192,64,89681,1,8,0:0:0:0:
88,72,89931,1,0,0:0:0:0:
192,64,90181,6,0,L|288:48,1,90
384,32,90681,1,8,0:0:0:0:
488,56,90931,1,0,0:0:0:0:
384,32,91181,2,0,P|392:96|408:120,1,90
464,208,91681,1,8,0:0:0:0:
488,56,91931,1,8,0:0:0:0:
464,208,92181,1,0,0:0:0:0:
432,312,92431,5,0,0:0:0:0:
360,232,92681,1,8,0:0:0:0:
328,336,92931,1,0,0:0:0:0:
360,232,93181,2,0,P|328:192|288:176,1,90
192,136,93681,1,8,0:0:0:0:
360,232,93931,1,0,0:0:0:0:
192,136,94181,1,0,0:0:0:0:
88,112,94431,6,0,P|40:88|16:48,2,90,0|8|0,0:0|0:0|0:0,0:0:0:0:
192,136,95181,1,0,0:0:0:0:
296,168,95431,2,0,P|344:192|368:232,1,90,0|8,0:0|0:0,0:0:0:0:
400,320,95931,1,8,0:0:0:0:
480,248,96181,6,0,L|512:160,1,90
496,60,96681,2,0,L|465:144,1,90,8|0,0:0|0:0,0:0:0:0:
384,216,97181,2,0,L|415:132,1,90,0|0,0:0|0:0,0:0:0:0:
400,28,97681,2,0,L|369:112,2,90,8|0|4,0:0|0:0|0:0,0:0:0:0:
296,24,98431,5,0,0:0:0:0:
200,72,98681,1,8,0:0:0:0:
156,168,98931,1,0,0:0:0:0:
152,276,99181,2,0,P|168:356|184:372,1,90
256,292,99681,1,8,0:0:0:0:
414,329,99931,2,0,P|327:275|255:291,1,180,8|0,0:0|0:0,0:0:0:0:
152,276,100681,5,8,0:0:0:0:
56,224,100931,2,0,P|40:160|56:128,2,90
152,172,101681,1,8,0:0:0:0:
296,24,101931,1,0,0:0:0:0:
352,216,102181,1,4,0:0:0:0:
400,312,102431,5,0,0:0:0:0:
296,304,102681,2,0,P|240:296|208:312,2,90,8|0|0,0:0|0:0|0:0,0:0:0:0:
400,312,103431,1,0,0:0:0:0:
456,224,103681,1,8,0:0:0:0:
399,76,103931,2,0,P|464:144|456:224,1,180,8|0,0:0|0:0,0:0:0:0:
400,312,104681,5,8,0:0:0:0:
328,232,104931,1,0,0:0:0:0:
224,248,105181,1,0,0:0:0:0:
296,328,105431,1,0,0:0:0:0:
328,232,105681,2,0,P|352:184|352:144,1,90,8|0,0:0|0:0,0:0:0:0:
384,48,106181,6,0,L|280:16,1,90,0|0,0:0|0:0,0:0:0:0:
188,20,106681,2,0,L|101:46,2,90,8|0|0,0:0|0:0|0:0,0:0:0:0:
248,112,107431,1,0,0:0:0:0:
288,216,107681,1,8,0:0:0:0:
430,288,107931,2,0,P|335:279|287:215,1,180,8|0,0:0|0:0,0:0:0:0:
248,112,108681,5,8,0:0:0:0:
184,200,108931,1,0,0:0:0:0:
248,112,109181,1,0,0:0:0:0:
144,104,109431,1,0,0:0:0:0:
248,112,109681,1,8,0:0:0:0:
40,96,109931,1,0,0:0:0:0:
128,272,110181,1,0,0:0:0:0:
128,272,110431,5,0,0:0:0:0:
200,352,110681,1,8,0:0:0:0:
304,376,110931,1,0,0:0:0:0:
408,360,111181,2,0,P|456:328|472:296,1,90
510,132,111681,2,0,P|462:164|448:192,2,90,8|8|0,0:0|0:0|0:0,0:0:0:0:
510,132,112431,1,0,0:0:0:0:
456,40,112681,6,0,L|368:16,1,90,8|0,0:0|0:0,0:0:0:0:
264,32,113181,2,0,L|350:55,1,90
432,128,113681,2,0,L|345:104,1,90,8|0,0:0|0:0,0:0:0:0:
240,120,114181,6,0,B|336:144|336:144|328:184|352:240,2,180,4|8|0,0:1|0:0|0:0,0:0:0:0:
144,176,115431,1,0,0:0:0:0:
104,280,115681,2,0,L|40:344,1,90,8|8,0:0|0:0,0:0:0:0:
144,176,116181,5,0,0:0:0:0:
120,72,116431,1,0,0:0:0:0:
224,48,116681,1,8,0:0:0:0:
248,152,116931,1,0,0:0:0:0:
248,152,117181,1,0,0:0:0:0:
272,256,117431,1,0,0:0:0:0:
376,232,117681,1,8,0:0:0:0:
352,128,117931,1,0,0:0:0:0:
376,232,118181,6,0,L|440:304,1,90
352,128,118681,2,0,L|288:56,1,90,8|0,0:0|0:0,0:0:0:0:
184,40,119181,1,0,0:0:0:0:
96,96,119431,2,0,L|155:163,2,90,0|8|8,0:0|0:0|0:0,0:0:0:0:
32,184,120181,5,0,0:0:0:0:
32,288,120431,1,0,0:0:0:0:
112,360,120681,1,8,0:0:0:0:
216,368,120931,1,0,0:0:0:0:
112,360,121181,1,0,0:0:0:0:
216,368,121431,1,0,0:0:0:0:
320,344,121681,1,8,0:0:0:0:
376,248,121931,1,0,0:0:0:0:
320,344,122181,6,0,P|408:352|480:296,2,180,4|8|0,0:1|0:0|0:0,0:0:0:0:
240,272,123431,1,0,0:0:0:0:
192,176,123681,2,0,P|176:120|152:96,1,90,8|8,0:0|0:0,0:0:0:0:
48,96,124181,6,0,P|64:152|88:176,1,90
172,299,124681,2,0,L|144:264,2,45,8|0|0,0:0|0:0|0:0,0:0:0:0:
264,352,125181,1,0,0:0:0:0:
368,352,125431,2,0,L|464:304,1,90,0|8,0:0|0:0,0:0:0:0:
504,167,125931,2,0,L|424:208,1,90
320,240,126431,5,0,0:0:0:0:
216,216,126681,2,0,P|160:192|136:168,1,90,8|0,0:0|0:0,0:0:0:0:
3,44,127181,2,0,P|59:68|80:88,1,90
139,172,127681,1,8,0:0:0:0:
192,80,127931,1,8,0:0:0:0:
256,192,128181,12,4,130181,1:0:0:0:
368,344,130681,6,0,P|464:320|480:248,1,180,8|0,0:0|0:0,0:0:0:0:
496,144,131431,1,0,0:0:0:0:
408,80,131681,2,0,P|360:64|336:32,1,90,8|8,0:0|0:0,0:0:0:0:
232,40,132181,5,0,0:0:0:0:
128,80,132431,1,0,0:0:0:0:
32,224,132681,1,8,0:0:0:0:
136,184,132931,1,0,0:0:0:0:
240,144,133181,1,0,0:0:0:0:
220,296,133431,1,0,0:0:0:0:
136,184,133681,1,8,0:0:0:0:
328,208,133931,1,0,0:0:0:0:
432,168,134181,6,0,P|464:128|472:88,1,90
416,264,134681,2,0,P|384:304|376:344,1,90,8|0,0:0|0:0,0:0:0:0:
328,208,135181,2,0,P|288:176|248:168,2,90,0|0|8,0:0|0:0|0:0,0:0:0:0:
432,168,135931,1,8,0:0:0:0:
296,64,136181,5,0,0:0:0:0:
88,40,136431,1,0,0:0:0:0:
192,40,136681,1,8,0:0:0:0:
88,40,136931,1,0,0:0:0:0:
144,136,137181,1,0,0:0:0:0:
168,240,137431,1,0,0:0:0:0:
144,136,137681,1,8,0:0:0:0:
152,344,137931,1,0,0:0:0:0:
168,240,138181,6,0,P|96:240|40:152,2,180,4|8|0,0:1|0:0|0:0,0:0:0:0:
256,304,139431,1,0,0:0:0:0:
352,344,139681,2,0,L|448:328,1,90,8|8,0:0|0:0,0:0:0:0:
480,232,140181,5,0,0:0:0:0:
464,24,140431,1,0,0:0:0:0:
488,128,140681,2,0,L|528:104,2,45,8|0|0,0:0|0:0|0:0,0:0:0:0:
384,152,141181,2,0,P|328:192|304:192,1,90
200,200,141681,2,0,P|181:200|125:240,1,90,8|0,0:0|0:0,0:0:0:0:
40,312,142181,5,0,0:0:0:0:
16,208,142431,1,0,0:0:0:0:
72,32,142681,1,8,0:0:0:0:
96,136,142931,1,0,0:0:0:0:
128,240,143181,2,0,P|160:280|208:288,1,90
371,337,143681,2,0,P|346:301|304:288,1,90,8|8,0:0|0:0,0:0:0:0:
480,336,144181,5,0,0:0:0:0:
504,232,144431,2,0,L|528:184,2,45,0|0|8,0:0|0:0|0:0,0:0:0:0:
480,336,144931,1,0,0:0:0:0:
408,256,145181,2,0,L|368:176,1,90
232,40,145681,2,0,L|272:120,1,90,8|0,0:0|0:0,0:0:0:0:
367,175,146181,6,0,P|304:224|208:200,2,180,4|8|0,0:1|0:0|0:0,0:0:0:0:
408,72,147431,1,0,0:0:0:0:
472,160,147681,2,0,L|496:256,1,90,8|8,0:0|0:0,0:0:0:0:
440,344,148181,5,0,0:0:0:0:
232,320,148431,1,0,0:0:0:0:
336,336,148681,1,8,0:0:0:0:
128,280,148931,1,0,0:0:0:0:
56,200,149181,2,0,P|48:144|56:96,2,90,0|0|8,0:0|0:0|0:0,0:0:0:0:
128,280,149931,1,0,0:0:0:0:
232,320,150181,6,0,L|288:240,1,90
392,264,150681,2,0,L|443:190,1,90,8|0,0:0|0:0,0:0:0:0:
480,88,151181,1,0,0:0:0:0:
376,56,151431,2,0,L|324:129,2,90,0|8|8,0:0|0:0|0:0,0:0:0:0:
272,40,152181,5,0,0:0:0:0:
168,48,152431,1,0,0:0:0:0:
80,112,152681,2,0,P|72:160|40:192,1,90,8|0,0:0|0:0,0:0:0:0:
92,333,153181,2,0,P|100:285|128:256,1,90
232,256,153681,1,8,0:0:0:0:
184,160,153931,1,0,0:0:0:0:
232,256,154181,6,0,P|224:320|328:352,2,180,4|8|0,0:1|0:0|0:0,0:0:0:0:
288,168,155431,1,0,0:0:0:0:
320,64,155681,2,0,L|416:104,1,90,8|8,0:0|0:0,0:0:0:0:
288,168,156181,6,0,L|192:128,1,90
104,88,156681,1,8,0:0:0:0:
8,32,156931,1,0,0:0:0:0:
104,88,157181,1,0,0:0:0:0:
176,280,157431,1,0,0:0:0:0:
168,176,157681,1,8,0:0:0:0:
176,280,157931,1,0,0:0:0:0:
248,360,158181,6,0,L|336:340,1,90
472,275,158681,2,0,L|432:296,2,45,8|0|0,0:0|0:0|0:0,0:0:0:0:
488,168,159181,1,0,0:0:0:0:
464,64,159431,2,0,P|432:40|368:32,2,90,0|8|8,0:0|0:0|0:0,0:0:0:0:
488,168,160181,6,0,P|439:158|407:134,1,90
216,32,160681,1,8,0:0:0:0:
312,88,160931,1,0,0:0:0:0:
216,136,161181,2,0,P|176:168|168:208,1,90
39,340,161681,2,0,P|79:308|88:272,1,90,8|0,0:0|0:0,0:0:0:0:
88,160,162181,6,0,L|168:328,1,180,4|8,0:0|0:0,0:0:0:0:
272,352,162931,1,0,0:0:0:0:
272,352,163431,1,0,0:0:0:0:
456,272,163681,1,8,0:0:0:0:
376,344,163931,1,8,0:0:0:0:
472,168,164181,6,0,P|424:136|424:24,1,180,4|8,0:0|0:0,0:0:0:0:
320,16,164931,1,0,0:0:0:0:
320,16,165431,1,0,0:0:0:0:
216,16,165681,1,8,0:0:0:0:
120,72,165931,1,0,0:0:0:0:
88,176,166181,6,0,P|152:216|160:320,1,180,4|8,0:0|0:0,0:0:0:0:
264,352,166931,1,0,0:0:0:0:
264,352,167431,1,0,0:0:0:0:
456,280,167681,1,8,0:0:0:0:
368,344,167931,1,8,0:0:0:0:
480,176,168181,6,0,B|448:120|448:120|400:104|368:32,1,180,4|8,0:0|0:0,0:0:0:0:
264,24,168931,1,0,0:0:0:0:
264,24,169431,1,0,0:0:0:0:
288,128,169681,1,8,0:0:0:0:
264,232,169931,1,0,0:0:0:0:
200,320,170181,6,0,P|120:320|80:232,1,180,4|8,0:0|0:0,0:0:0:0:
64,128,170931,1,0,0:0:0:0:
64,128,171431,1,0,0:0:0:0:
248,32,171681,1,8,0:0:0:0:
168,104,171931,1,8,0:0:0:0:
352,8,172181,6,0,L|464:152,1,180,4|8,0:0|0:0,0:0:0:0:
488,256,172931,1,0,0:0:0:0:
488,256,173431,1,0,0:0:0:0:
400,312,173681,1,8,0:0:0:0:
296,312,173931,1,0,0:0:0:0:
200,256,174181,6,0,P|240:200|216:96,1,180,4|8,0:0|0:0,0:0:0:0:
128,40,174931,1,0,0:0:0:0:
128,40,175431,1,0,0:0:0:0:
40,240,175681,1,8,0:0:0:0:
84,140,175931,1,8,0:0:0:0:
256,192,176181,12,2,178181,0:0:0:0:
