osu file format v4

[General]
AudioFilename: 08-the-instinct.mp3
AudioLeadIn: 0
AudioHash: 60aecc922eeb91a39c50806a3c8e6995
PreviewTime: -1
Countdown: 1
SampleSet: Soft
EditorBookmarks: 16026,31680,32067,32326,32714,32973,48619,48878,49266,49524,65171,65430,65817,66076,81723,81981,82369,82628,94007,94266,172757,173016,173404,173662,189309,189567,189955,190214,222412,222671,223059,223317,238964,239223,239611,239869,248390

[Metadata]
Title:The Instinct v2
Artist:Robin Beanland, Greame Norgate
Creator:EiJi
Version:WIP

[Difficulty]
HPDrainRate:5
CircleSize:5
OverallDifficulty:5
SliderMultiplier: 1.4
SliderTickRate: 1

[Events]
//Background and Video events
0,-100000,"ki.jpg"
//Break Periods
2,99638,114273
2,116190,118411
2,120328,122548
2,124465,126686
2,128604,130824
2,132742,134962
2,136880,139100
2,141017,143238
//Storyboard Layer 0 (Background)
4,0,1,"warning.jpg",320,240 F,0,147020,147020,1,1 F,0,147280,147280,0,0 F,0,147530,147530,1,1 F,0,147790,147790,0,0 F,0,148050,148050,1,1 F,0,148310,148310,0,0
//Storyboard Layer 1 (Failing)
//Storyboard Layer 2 (Passing)
//Storyboard Layer 3 (Foreground)
//Storyboard Sound Samples
//Background Colour Transformations
3,0,163,162,255

[TimingPoints]
16680,517.241379310345,4,2,1,100
99438,517.241379310345,4,2,1,11
145472,517.241379310345,4,2,1,100
248408,666.644950727995,4,2,1,100

[HitObjects]
40,192,16680,1,2
264,200,17714,1,2
416,32,18748,5,2
416,56,18878,1,2
416,80,19007,1,2
360,80,19266,1,2
360,192,19783,1,2
136,208,20817,1,2
336,312,21852,1,2
344,88,22886,5,2
312,88,23016,1,2
280,88,23145,1,2
280,144,23404,1,2
392,144,23921,1,2
392,312,24697,5,2
336,312,24955,1,2
112,312,25990,5,2
112,200,26507,1,2
112,88,27024,5,2
136,88,27154,1,2
160,88,27283,1,2
216,88,27542,1,2
328,88,28059,5,2
440,88,28576,1,2
440,200,29093,1,2
216,200,30128,5,2
216,88,30645,1,2
328,88,31162,1,2
440,96,31680,5,2
440,152,31938,1,2
440,176,32067,1,2
440,232,32326,1,2
440,288,32585,1,2
408,288,32714,1,2
352,288,32973,5,2
320,288,33102,1,2
288,288,33231,1,2
256,288,33361,1,2
224,288,33490,1,2
168,288,33748,1,2
112,288,34007,1,2
80,288,34136,1,2
80,232,34395,1,2
80,200,34524,1,2
80,144,34783,1,2
80,88,35042,5,2
80,56,35171,1,2
80,24,35300,1,2
104,24,35430,1,2
128,24,35559,1,2
184,24,35817,1,2
240,24,36076,1,2
264,24,36205,1,2
320,24,36464,1,2
376,24,36723,1,2
400,24,36852,1,2
456,24,37111,5,2
456,48,37240,1,2
456,72,37369,1,2
456,96,37498,1,2
456,120,37628,1,2
456,176,37886,1,2
456,232,38145,1,2
456,256,38274,1,2
448,312,38533,1,2
392,312,38792,1,2
360,312,38921,1,2
304,312,39180,5,2
272,312,39309,1,2
240,312,39438,1,2
208,312,39567,1,2
176,312,39697,1,2
120,312,39955,1,2
64,312,40214,1,2
64,280,40343,1,2
64,224,40602,1,2
64,168,40861,1,2
64,136,40990,1,2
64,80,41248,1,2
64,48,41378,1,2
88,48,41507,1,2
200,48,42024,5,2
312,48,42542,1,2
424,48,43059,1,2
424,160,43576,1,2
424,272,44093,5,2
384,232,44352,1,2
368,208,44481,1,2
336,160,44740,1,2
280,160,44998,1,2
248,160,45128,1,2
192,160,45386,5,2
160,160,45516,1,2
128,160,45645,1,2
96,160,45774,1,2
64,160,45904,1,2
8,160,46162,5,2
8,272,46680,1,2
120,272,47197,1,2
232,264,47714,1,2
344,264,48231,5,2
344,208,48490,1,2
344,176,48619,1,2
344,120,48878,1,2
344,64,49136,1,2
312,64,49266,1,2
256,64,49524,1,2
224,64,49654,1,2
192,64,49783,1,2
80,64,50300,5,2
80,176,50817,1,2
80,288,51335,1,2
80,232,51593,1,2
248,232,52369,1,2
248,288,52628,1,2
416,296,53404,1,2
416,240,53662,1,2
192,256,54697,1,2
256,48,56507,5,2
256,104,56766,1,2
256,128,56895,1,2
312,136,57154,1,2
312,80,57412,1,2
312,48,57542,1,2
368,48,57800,1,2
368,72,57930,1,2
368,96,58059,1,2
368,208,58576,5,2
368,320,59093,1,2
256,320,59611,1,2
200,320,59869,1,2
32,320,60645,1,2
32,264,60904,1,2
32,96,61680,1,2
88,96,61938,1,2
256,96,62714,1,2
256,320,63748,1,2
440,200,64783,5,2
384,200,65042,1,2
352,200,65171,1,2
296,200,65430,1,2
240,200,65688,1,2
208,200,65817,1,2
152,200,66076,1,2
120,200,66205,1,2
88,200,66335,1,2
88,88,66852,5,2
88,200,67369,1,2
200,200,67886,1,2
200,256,68145,1,2
200,312,68404,1,2
256,312,68662,1,2
280,312,68792,1,2
304,312,68921,1,2
360,312,69180,1,2
360,144,69955,5,2
360,200,70214,1,2
360,256,70473,1,2
360,312,70731,1,2
328,312,70861,1,2
296,312,70990,1,2
240,312,71248,1,2
208,312,71378,1,2
152,312,71636,1,2
96,312,71895,1,2
64,312,72024,1,2
64,256,72283,5,2
64,224,72412,1,2
64,224,72542,1,2
64,192,72671,1,2
64,192,72800,1,2
64,160,72930,1,2
64,160,73059,1,2
64,104,73317,1,2
64,104,73447,1,2
120,104,73705,1,2
176,104,73964,1,2
200,104,74093,1,2
256,104,74352,1,2
280,104,74481,1,2
304,104,74611,1,2
416,104,75128,5,2
416,216,75645,1,2
304,216,76162,1,2
248,216,76421,1,2
80,216,77197,5,2
136,216,77455,1,2
304,216,78231,5,2
248,216,78490,1,2
192,216,78748,1,2
192,272,79007,1,2
248,272,79266,1,2
304,272,79524,1,2
328,272,79654,1,2
384,272,79912,1,2
440,272,80171,1,2
464,272,80300,1,2
464,216,80559,5,2
464,216,80688,1,2
432,216,80817,1,2
432,216,80947,1,2
400,216,81076,1,2
344,216,81335,1,2
288,216,81593,1,2
256,216,81723,1,2
200,216,81981,1,2
144,216,82240,1,2
112,216,82369,1,2
56,216,82628,1,2
24,216,82757,1,2
0,216,82886,1,2
192,96,83921,5,2
272,96,84309,1,2
352,96,84697,1,2
352,152,84955,1,2
352,176,85085,1,2
352,200,85214,1,2
352,256,85473,1,2
296,256,85731,1,2
264,256,85861,1,2
208,256,86119,1,2
176,256,86248,1,2
120,256,86507,1,2
120,200,86766,1,2
144,200,86895,1,2
168,200,87024,1,2
280,200,87542,5,2
392,200,88059,1,2
392,112,88447,1,2
328,168,88835,1,2
288,200,89093,1,2
248,240,89352,1,2
200,272,89611,1,2
144,280,89869,1,2
112,280,89998,1,2
64,248,90257,1,2
48,168,90645,1,2
96,136,90904,1,2
120,120,91033,1,2
144,104,91162,1,2
296,104,91873,5,2
368,104,92197,1,2
448,104,92585,1,2
448,184,92973,1,2
248,240,93942,5,2
216,240,94072,1,2
184,240,94201,1,2
184,72,94977,5,2
240,72,95236,1,2
152,184,97886,5,2
288,184,98533,1,2
200,184,98921,1,2
256,184,99180,1,2
256,152,99309,1,2
256,120,99438,1,2
256,192,115473,12,2,115990
256,192,119611,12,2,120128
256,192,123748,12,2,124265
256,192,127886,12,2,128404
256,192,132024,12,2,132542
256,192,136162,12,2,136680
256,192,140300,12,2,140817
256,192,144438,12,2,144955
344,64,149093,5,2
312,64,149223,1,2
280,64,149352,1,2
280,120,149611,1,2
280,176,149869,1,2
304,176,149998,1,2
280,224,150257,1,2
304,224,150386,1,2
280,272,150645,1,2
280,328,150904,5,2
248,328,151033,1,2
216,328,151162,1,2
184,328,151292,1,2
152,328,151421,1,2
152,272,151680,1,2
152,216,151938,1,2
176,216,152067,1,2
152,160,152326,1,2
176,160,152455,1,2
152,104,152714,1,2
152,48,152973,5,2
176,48,153102,1,2
200,48,153231,1,2
224,48,153361,1,2
248,48,153490,1,2
248,104,153748,1,2
248,160,154007,1,2
216,160,154136,1,2
248,208,154395,1,2
216,208,154524,1,2
248,256,154783,1,2
248,312,155042,5,2
216,312,155171,1,2
184,312,155300,1,2
152,312,155430,1,2
120,312,155559,1,2
120,256,155817,1,2
120,200,156076,1,2
144,200,156205,1,2
120,144,156464,1,2
120,88,156723,1,2
144,88,156852,1,2
120,32,157111,1,2
144,32,157240,1,2
168,32,157369,1,2
280,40,157886,5,2
280,152,158404,1,2
280,264,158921,1,2
280,320,159180,1,2
224,320,159438,5,2
224,288,159567,1,2
224,256,159697,1,2
168,256,159955,1,2
112,256,160214,1,2
80,256,160343,1,2
80,200,160602,1,2
160,200,160990,1,2
272,200,161507,1,2
440,200,162283,1,2
72,64,164093,5,2
72,200,164740,5,2
72,112,165128,1,2
128,112,165386,1,2
152,112,165516,1,2
176,112,165645,1,2
160,224,166162,5,2
160,336,166680,1,2
272,336,167197,5,2
272,280,167455,1,2
440,272,168231,5,2
440,328,168490,1,2
272,336,169266,5,2
272,280,169524,1,2
328,280,169783,1,2
352,280,169912,1,2
376,280,170042,1,2
376,224,170300,1,2
376,168,170559,1,2
376,136,170688,1,2
376,80,170947,1,2
320,80,171205,1,2
288,80,171335,1,2
232,80,171593,5,2
200,80,171723,1,2
168,80,171852,1,2
136,80,171981,1,2
104,80,172111,1,2
104,136,172369,1,2
104,216,172757,1,2
104,272,173016,1,2
104,352,173404,1,2
160,352,173662,1,2
216,352,173921,1,2
264,200,174049,1,2
264,200,174178,1,2
264,200,174437,1,2
264,200,174696,1,2
264,200,174825,1,2
264,200,175084,1,2
264,200,175472,1,2
264,200,175730,1,2
264,200,176506,1,2
264,200,176765,1,2
264,200,177540,1,2
264,200,177799,1,2
264,200,178834,1,2
256,192,180127,1,2
256,192,180256,1,2
256,192,180385,1,2
256,192,180644,1,2
256,192,180903,1,2
256,192,181032,1,2
256,192,181290,1,2
256,192,181549,1,2
256,192,181678,1,2
256,192,181937,1,2
256,192,182066,1,2
256,192,182196,1,2
256,192,182713,1,2
256,192,183230,1,2
256,192,183747,1,2
256,192,184006,1,2
256,192,184782,1,2
256,192,185040,1,2
224,120,185816,1,0
224,120,186075,1,0
264,192,188920,1,0
264,192,189178,1,0
264,192,189308,1,0
264,192,189566,1,0
264,192,189825,1,0
264,192,189954,1,0
264,192,190213,1,0
264,192,190342,1,0
264,192,190472,1,0
264,192,190989,1,0
264,192,191506,1,0
264,192,191894,1,0
264,192,192282,1,0
