osu file format v6

[General]
AudioFilename: The Great Mighty POO.mp3
AudioLeadIn: 0
PreviewTime: -1
Countdown: 0
SampleSet: Soft
StackLeniency: 0.7
Mode: 1
LetterboxInBreaks: 1

[Editor]
Bookmarks: 14900,38823,62305,85205
DistanceSpacing: 0.800000011920929
BeatDivisor: 4
GridSize: 32

[Metadata]
Title:The Great Mighty Poo
Artist:Robin Beanland
Creator:ZomfgLOLlipop
Version:HOLY SHIT O_O
Source:
Tags:

[Difficulty]
HPDrainRate:6
CircleSize:6
OverallDifficulty:7
SliderMultiplier:1.4
SliderTickRate:1

[Events]
//Background and Video events
0,0,"conker7.jpg"
//Break Periods
2,58148,62205
2,82205,84405
//Storyboard Layer 0 (Background)
//Storyboard Layer 1 (Fail)
//Storyboard Layer 2 (Pass)
//Storyboard Layer 3 (Foreground)
//Storyboard Sound Samples
//Background Colour Transformations
3,100,163,162,255

[TimingPoints]
9050,600,4,2,0,100,1,0
36423,600,4,2,0,100,1,0
59105,400,4,2,0,100,1,0

[HitObjects]
256,192,15500,1,0
256,192,15650,1,0
256,192,15800,1,0
256,192,15950,1,0
256,192,16100,1,0
256,192,16250,1,0
256,192,16400,1,0
256,192,16550,1,0
256,192,16700,1,0
256,192,16850,1,0
256,192,18650,1,4
256,192,18800,1,4
256,192,18950,1,4
256,192,19100,1,4
256,192,19250,1,4
256,192,19400,1,4
256,192,19550,1,4
256,192,19700,1,4
256,192,19850,1,4
256,192,20750,1,0
256,192,21050,1,0
256,192,21500,1,0
256,192,21800,1,0
256,192,22100,1,4
256,192,22250,1,4
256,192,22400,1,4
256,192,22550,1,4
160,192,22850,1,0
192,192,23000,1,0
192,192,23150,1,0
64,64,23450,6,0,B|224:64,1,140
320,128,24200,1,0
288,96,24350,1,0
320,128,24500,1,0
352,96,24650,1,0
320,96,24950,1,0
384,96,25250,1,0
384,128,25550,1,0
384,160,25850,1,4
384,224,26450,1,0
384,256,26750,1,0
352,288,27050,2,4,B|192:288,1,140
192,224,27950,5,0
224,192,28100,1,0
256,160,28250,1,0
224,192,28400,1,0
192,160,28550,1,0
224,192,28700,1,0
128,160,28850,1,0
192,96,29150,1,0
256,96,29450,2,4,B|384:96,1,70
288,160,30050,5,0
288,192,30350,1,0
288,224,30650,1,0
288,256,30950,1,0
256,320,31100,1,0
288,288,31250,1,0
288,320,31550,1,0
288,352,31850,2,4,B|160:352,1,70
128,320,33050,5,0
128,256,33350,1,0
128,224,33650,1,0
128,192,33950,1,0
128,160,34250,1,0
128,32,34700,1,0
160,64,35000,1,0
160,64,35150,1,0
160,64,35300,1,0
128,32,35450,1,0
224,128,35750,1,4
192,192,39273,5,0
224,192,39573,1,0
224,128,39873,2,0,B|352:128,2,105
224,192,41073,1,0
256,192,41673,1,0
256,160,42123,1,8
256,160,42273,1,8
256,160,42873,1,0
256,128,43173,1,0
256,128,43473,1,12
256,160,44373,1,0
256,160,44673,1,0
256,160,44973,1,0
256,160,45273,1,0
256,160,45423,1,2
256,160,45573,1,0
256,160,45873,1,0
256,160,46173,1,0
256,160,46473,1,0
256,160,46623,1,0
256,160,46773,1,0
256,160,46923,1,8
256,160,47223,2,0,B|256:320,1,140
256,160,49473,1,0
256,224,49773,1,0
256,256,50073,1,0
256,288,50523,1,0
256,288,50673,1,8
256,320,50973,1,0
256,192,51273,1,0
256,192,51573,1,0
256,192,51873,1,0
256,192,52173,1,0
256,192,52473,1,0
256,224,52623,1,0
256,224,52773,1,0
256,224,53073,1,0
256,224,53223,1,8
256,192,54273,1,0
256,192,54573,1,0
256,192,54873,1,0
256,192,55173,1,0
256,192,55473,1,0
256,192,55773,1,0
256,192,56073,1,0
256,192,56223,1,0
256,192,56373,1,0
256,192,56673,2,0,B|96:96,1,175
160,96,57648,1,0
160,96,57723,1,0
160,96,57798,1,0
160,96,57873,1,0
160,96,57948,1,4
256,192,63105,6,0,B|160:192,1,70
128,192,63505,1,0
128,192,63705,1,0
128,192,63905,1,0
128,192,64105,1,0
128,192,64305,1,0
128,192,64505,1,0
128,192,64705,1,0
128,192,65105,1,0
128,192,65305,1,0
128,192,65505,1,0
128,192,65705,1,0
128,192,65805,1,0
128,192,65905,1,0
128,192,66105,1,0
128,192,66305,1,0
128,192,66505,1,0
128,192,66705,1,0
192,192,66805,1,0
192,192,66905,1,0
192,192,67005,1,8
192,192,67105,1,0
192,192,67205,1,0
192,192,67305,1,0
192,192,67405,1,8
192,192,67505,1,0
192,192,67605,1,0
192,192,67705,1,0
192,192,67805,1,8
192,192,67905,1,0
192,192,68005,1,0
192,192,68105,1,0
192,192,68205,1,12
192,224,68505,1,0
192,224,68805,1,0
192,224,69505,1,0
192,224,69705,1,0
192,224,69905,1,0
224,224,70105,1,0
224,224,70305,1,0
224,224,70505,1,0
224,224,70705,1,0
224,224,70905,1,0
224,224,71105,1,0
224,224,71305,1,0
224,224,71505,1,0
224,224,71705,1,0
224,224,71905,1,0
224,224,72105,1,0
224,224,72305,1,0
224,224,72505,1,0
224,224,72705,1,0
224,224,72905,1,0
224,224,73105,1,0
224,224,73305,1,0
224,224,73505,1,0
224,224,73605,1,0
224,224,73705,1,0
224,224,73905,1,0
224,224,74005,1,0
224,224,74105,1,0
224,224,74205,1,0
224,224,74305,1,0
224,224,74505,1,0
224,224,74705,1,0
224,224,74905,1,4
224,224,75105,1,4
224,224,75705,1,4
224,224,75905,1,4
256,224,76505,1,4
256,224,76705,1,4
256,224,77305,1,4
256,224,77505,1,4
256,224,77805,1,8
256,224,77905,1,8
256,224,78005,1,8
256,224,78205,1,4
256,224,78405,1,4
256,224,79005,1,4
256,224,79205,1,4
256,224,79905,1,4
256,224,80105,1,4
256,224,80205,1,4
256,224,80305,1,4
256,224,80405,1,4
256,224,80505,1,4
256,224,80605,1,4
256,224,80705,1,4
256,224,80805,1,4
256,224,80905,1,4
256,224,81005,1,4
256,224,81105,1,4
256,224,81205,1,4
256,224,81305,1,4
256,224,81405,1,4
256,224,81505,1,4
256,224,81605,1,4
256,224,81705,1,4
256,224,81805,1,4
256,224,81905,1,4
256,224,82005,1,4
256,192,85305,5,8
256,192,85405,1,8
256,192,85505,1,8
256,192,85605,1,8
256,192,85705,1,8
256,192,85805,1,8
256,192,85905,1,8
256,192,86005,1,8
256,192,86105,1,8
256,192,86205,1,0
256,192,86305,1,0
256,192,86405,1,0
256,192,86505,1,0
256,192,86605,1,0
256,192,86705,1,0
256,192,86805,1,0
256,192,86905,1,0
256,192,87005,1,0
256,192,87105,1,0
256,192,87205,1,12
256,192,87305,1,12
256,192,87405,1,12
256,192,87505,1,12
256,192,87605,1,12
256,192,87705,1,12
256,192,87805,1,12
256,192,87905,1,12
256,192,88005,1,12
256,192,88105,1,12
256,192,88205,1,12
256,192,88305,1,4
256,192,88405,1,4
256,192,88505,1,4
256,192,88605,1,4
256,192,88705,1,4
256,192,88805,1,4
256,192,88905,1,4
256,192,89005,1,4
256,192,89105,1,4
256,192,89205,1,4
256,192,89305,1,4
256,192,89405,1,4
256,192,89505,1,4
256,192,89605,1,4
256,192,89705,1,4
256,192,89805,1,4
256,192,89905,1,4
256,192,90005,1,4
256,192,90105,1,4
256,192,90205,1,4
256,192,90305,1,4
256,192,90405,1,4
256,192,90505,1,4
256,192,90605,1,4
256,192,90705,1,4
256,192,90805,1,4
256,192,90905,1,4
256,192,91005,1,4
256,192,91105,1,4
256,192,91205,1,4
256,192,91305,1,4
256,192,91405,1,4
256,192,91505,1,4
224,256,91605,1,4
224,256,91705,1,4
224,256,91805,1,4
224,256,91905,1,4
224,256,92005,1,4
224,256,92105,1,4
224,256,92205,1,4
224,256,92305,1,4
224,256,92405,1,4
224,256,92505,1,4
224,256,92605,1,4
224,256,92705,1,4
224,256,92805,1,4
224,256,92905,1,4
224,256,93005,1,4
224,256,93105,1,4
224,256,93205,1,4
224,256,93305,1,4
224,256,93405,1,4
224,256,93505,1,4
224,256,93605,1,4
224,256,93705,1,4
224,256,93805,1,4
224,256,93905,1,4
224,256,94005,1,4
224,256,94105,1,4
224,256,94205,1,4
224,256,94305,1,4
224,256,94405,1,4
224,256,94505,1,4
224,256,94605,1,4
224,256,94705,1,4
224,256,94805,1,4
224,256,94905,1,4
224,256,95005,1,4
224,256,95105,1,4
