osu file format v7

[General]
AudioFilename: Beautiful - Theme Song - Sigla TV.mp3
AudioLeadIn: 0
PreviewTime: 5402
Countdown: 1
SampleSet: Normal
StackLeniency: 0.2
Mode: 0
LetterboxInBreaks: 1

[Editor]
DistanceSpacing: 1
BeatDivisor: 6
GridSize: 8

[Metadata]
Title:Tutti Beautiful
Artist:Roberto Colombo
Creator:xxheroxx
Version:Hard
Source:The Bold and the Beautiful
Tags:B&B

[Difficulty]
HPDrainRate:6
CircleSize:5
OverallDifficulty:5
SliderMultiplier:1.4
SliderTickRate:2

[Events]
//Background and Video events
0,0,"1483252606_beautiful-cs.jpg"
Video,0,"video(3).avi"
//Break Periods
//Storyboard Layer 0 (Background)
//Storyboard Layer 1 (Fail)
//Storyboard Layer 2 (Pass)
//Storyboard Layer 3 (Foreground)
//Storyboard Sound Samples
Sample,28546,0,"normal-hitfinish.wav",50
Sample,28546,0,"normal-hitnormal.wav",50
//Background Colour Transformations
3,100,0,0,0

[TimingPoints]
810,367.376928728876,4,1,0,60,1,0
18168,-200,4,1,0,60,0,0
18719,-100,4,1,0,60,0,0

[Colours]
Combo1 : 255,0,0
Combo2 : 60,60,60

[HitObjects]
256,88,5402,1,0
208,136,5585,1,0
256,192,5769,1,0
304,248,5953,1,0
256,296,6136,1,0
208,248,6320,1,0
168,192,6504,2,0,B|256:88|352:200,2,210,4|0|0
256,80,7973,1,0
384,136,8341,5,0
416,200,8524,1,8
376,256,8708,1,0
304,248,8892,1,0
256,296,9075,1,0
208,248,9259,1,8
136,256,9443,1,0
96,200,9627,1,0
128,136,9810,1,0
116,66,9994,2,0,B|420:66,1,280,8|8
396,66,10912,1,0
328,192,11280,5,0
296,256,11463,1,0
256,192,11647,1,0
216,256,11831,1,0
184,192,12014,1,0
216,128,12198,1,0
296,128,12382,1,4
256,336,12933,1,0
256,120,13484,2,0,L|256:280,1,140
328,144,14219,5,0
312,80,14402,2,0,B|392:80,2,70,8|0|0
256,40,14954,1,0
200,80,15137,2,0,L|120:80,2,70,8|0|0
184,144,15688,1,0
192,216,15872,2,0,B|192:280|255:323|320:280|320:200,1,210,8|0
256,184,16607,1,8
318,216,16790,6,0,B|376:288|320:352,1,140,4|0
256,352,17341,1,0
185,344,17525,2,0,B|136:288|193:216,1,140,4|0
256,184,18076,1,0
256,112,18260,2,0,B|256:32,1,70,4|0
256,42,18811,1,0
184,240,19362,5,0
328,240,19729,2,0,B|416:240,2,70
328,312,20280,1,0
256,296,20464,2,0,B|256:368,2,70
184,312,21015,1,0
184,240,21199,1,0
256,224,21383,6,0,B|256:56,1,140
296,24,21934,1,0
360,48,22117,1,0
392,112,22301,1,0
368,176,22485,1,0
320,224,22668,2,0,B|256:280|174:212,1,140,4|0
128,248,23219,1,0
176,296,23403,2,0,B|248:336|352:320|376:272|400:232|400:184,1,280,4|0
336,168,24322,6,0,B|374:70,1,70
292,90,24689,2,0,B|292:18,1,70
220,20,25056,2,0,B|220:90,1,70
150,102,25424,2,0,B|176:168,1,70,0|4
221,221,25791,1,0
291,221,25975,1,0
336,272,26159,1,0
296,328,26342,1,4
216,328,26526,1,0
176,272,26709,1,0
221,221,26893,1,0
88,256,27261,6,0,B|208:136,1,140,0|0
256,136,27812,1,0
325,157,27995,2,0,B|424:256,2,140,0|0|0
312,88,28914,1,0
256,40,29098,1,0
200,88,29281,1,4
256,136,29465,1,0
256,208,29649,2,0,B|256:288,2,70
256,192,30108,12,4,33047
