osu file format v14

[General]
AudioFilename: Beautiful - Theme Song - Sigla TV.mp3
AudioLeadIn: 1000
PreviewTime: 5402
Countdown: 0
SampleSet: Soft
StackLeniency: 0.7
Mode: 0
LetterboxInBreaks: 0
WidescreenStoryboard: 0

[Editor]
DistanceSpacing: 1
BeatDivisor: 4
GridSize: 4
TimelineZoom: 1

[Metadata]
Title:Tutti Beautiful
TitleUnicode:Tutti Beautiful
Artist:Roberto Colombo
ArtistUnicode:Roberto Colombo
Creator:Leader
Version:Insane
Source:The Bold and the Beautiful
Tags:lally lanturn lust soap opera opening
BeatmapID:338912
BeatmapSetID:135227

[Difficulty]
HPDrainRate:7
CircleSize:4
OverallDifficulty:8
ApproachRate:9
SliderMultiplier:1.8
SliderTickRate:1

[Events]
//Background and Video events
0,0,"B&B_Logo.png",0,0
//Break Periods
//Storyboard Layer 0 (Background)
//Storyboard Layer 1 (Fail)
//Storyboard Layer 2 (Pass)
//Storyboard Layer 3 (Foreground)
//Storyboard Sound Samples

[TimingPoints]
810,367.376928728876,4,2,0,60,1,0

[Colours]
Combo1 : 0,128,192
Combo2 : 128,128,255
Combo3 : 0,0,255
Combo4 : 128,255,255

[HitObjects]
80,196,810,6,0,P|132:204|160:228,1,90,4|0,1:0|0:0,0:0:0:0:
196,308,1177,1,0,1:0:0:0:
268,256,1361,2,0,L|460:240,1,180
480,156,1912,2,0,P|465:113|476:52,1,90,0|0,1:0|0:0,0:0:0:0:
392,12,2279,6,0,P|328:56|220:36,1,180,0|0,0:0|1:0,0:0:0:0:
96,16,2830,1,0,0:0:0:0:
40,144,3014,2,0,P|32:192|44:240,1,90
196,336,3381,2,0,P|204:288|192:240,1,90,0|0,1:0|0:0,0:0:0:0:
116,288,3749,6,0,L|300:288,1,180,0|0,0:0|1:0,0:0:0:0:
416,212,4300,1,0,0:0:0:0:
320,168,4483,2,0,P|308:120|312:72,1,90
456,40,4851,2,0,P|468:88|464:136,1,90,0|0,1:0|0:0,0:0:0:0:
384,368,5218,1,0,0:0:0:0:
348,272,5402,5,2,0:0:0:0:
424,195,5585,1,2,0:0:0:0:
458,300,5769,1,2,0:0:0:0:
358,283,5953,5,2,0:0:0:0:
432,208,6136,1,2,0:0:0:0:
468,312,6320,1,2,0:0:0:0:
368,296,6504,6,0,L|160:308,1,180,4|0,0:0|0:0,0:0:0:0:
60,216,7055,2,0,B|106:230|106:230|238:222,1,180,0|0,1:0|0:0,0:0:0:0:
456,84,7606,6,0,P|396:92|356:112,1,90,2|0,0:0|1:0,0:0:0:0:
256,144,7973,2,0,P|211:140|169:124,1,90,2|0,0:0|0:0,0:0:0:0:
80,76,8340,5,2,0:0:0:0:
4,196,8524,1,2,0:0:0:0:
192,308,8708,1,2,0:0:0:0:
112,368,8891,2,2,P|100:320|100:268,1,90
196,64,9259,2,0,P|194:108|182:152,1,90,2|0,0:0|0:0,0:0:0:0:
98,279,9626,6,0,L|2:267,1,90,4|0,0:0|0:0,0:0:0:0:
272,344,9994,2,0,B|360:316|360:376|452:344,1,180,0|0,1:0|0:0,0:0:0:0:
488,260,10545,2,0,P|496:212|484:164,1,90,2|0,0:0|0:0,0:0:0:0:
312,172,10912,2,0,P|349:202|397:216,1,90,2|0,0:0|0:0,0:0:0:0:
456,64,11279,5,2,0:0:0:0:
200,152,11463,1,2,0:0:0:0:
352,280,11647,1,2,0:0:0:0:
272,76,11830,5,2,0:0:0:0:
124,240,12014,1,2,0:0:0:0:
252,356,12198,1,2,0:0:0:0:
424,364,12382,6,0,P|460:296|432:200,1,180,4|0,0:0|0:0,0:0:0:0:
344,96,12933,2,0,L|316:276,1,180,0|0,1:0|0:0,0:0:0:0:
232,340,13484,2,0,B|144:312|144:372|52:340,1,180,2|2,0:0|0:0,0:0:0:0:
0,272,14035,1,0,0:0:0:0:
76,88,14219,5,2,0:0:0:0:
76,88,14403,1,2,0:0:0:0:
76,88,14587,1,2,0:0:0:0:
140,152,14770,5,2,0:0:0:0:
52,176,14954,1,2,0:0:0:0:
212,204,15138,1,2,0:0:0:0:
104,360,15321,1,2,0:0:0:0:
76,268,15505,6,0,P|128:272|172:292,1,90,4|0,0:0|0:0,0:0:0:0:
248,348,15872,2,0,B|336:320|336:372|428:344,1,180,0|0,1:0|0:0,0:0:0:0:
484,260,16423,1,0,0:0:0:0:
484,260,16606,1,0,1:0:0:0:
444,96,16790,6,0,P|392:80|288:164,1,180
352,248,17341,1,0,1:0:0:0:
240,288,17525,2,0,L|56:276,1,180
60,276,18076,1,0,1:0:0:0:
304,360,18260,6,0,P|332:300|252:196,1,180,4|0,0:0|0:0,0:0:0:0:
204,152,18811,2,0,L|20:140,1,180,0|0,1:0|0:0,0:0:0:0:
72,244,19362,6,0,L|180:252,1,90,2|0,0:0|1:0,0:0:0:0:
264,228,19729,2,0,P|296:156|244:64,1,180,4|0,0:0|0:0,0:0:0:0:
100,16,20280,2,0,L|116:112,1,90
56,360,20648,6,0,P|24:280|60:196,1,180,4|0,0:0|1:0,0:0:0:0:
212,296,21199,1,0,0:0:0:0:
388,256,21383,5,2,0:0:0:0:
472,328,21566,1,2,0:0:0:0:
496,100,21750,5,2,0:0:0:0:
404,160,21933,1,2,0:0:0:0:
236,92,22117,2,0,P|268:72|324:64,2,90,2|2|0,0:0|0:0|1:0,0:0:0:0:
312,324,22668,6,0,P|332:268|304:148,1,180,4|0,0:0|0:0,0:0:0:0:
120,136,23219,1,0,1:0:0:0:
52,212,23403,2,0,P|120:232|216:176,1,180,2|0,0:0|0:0,0:0:0:0:
312,324,23954,2,0,L|408:316,1,90,0|0,1:0|0:0,0:0:0:0:
228,372,24322,6,0,P|220:320|232:268,1,90,4|0,0:0|0:0,0:0:0:0:
328,216,24689,1,2,0:0:0:0:
176,100,24873,1,2,0:0:0:0:
352,28,25056,2,0,P|396:20|444:20,2,90,2|2|0,0:0|0:0|0:0,0:0:0:0:
104,184,25607,6,0,P|72:144|92:16,1,180,4|0,0:0|0:0,0:0:0:0:
176,100,26159,1,0,1:0:0:0:
192,212,26342,2,0,L|176:300,1,90,2|0,0:0|0:0,0:0:0:0:
276,264,26710,2,0,L|260:352,1,90,2|0,0:0|1:0,0:0:0:0:
259,352,27077,1,0,0:0:0:0:
372,208,27261,5,2,0:0:0:0:
448,131,27444,1,2,0:0:0:0:
482,236,27628,1,2,0:0:0:0:
382,219,27812,5,2,0:0:0:0:
456,144,27995,1,2,0:0:0:0:
492,248,28179,1,2,0:0:0:0:
384,352,28363,1,0,1:0:0:0:
220,312,28546,6,0,P|188:228|236:148,1,180,4|0,0:0|0:0,0:0:0:0:
284,236,29098,1,0,1:0:0:0:
144,376,29281,2,0,L|48:364,1,90,2|0,0:0|0:0,0:0:0:0:
40,260,29649,6,0,P|48:212|36:160,1,90,2|0,0:0|0:0,0:0:0:0:
12,88,30016,1,4,0:0:0:0:
256,192,30200,12,4,33047,0:0:0:0:
