osu file format v5

[General]
AudioFilename: Rob Thomas - Ever The Same.mp3
AudioLeadIn: 0
PreviewTime: -1
Countdown: 0
SampleSet: Soft
StackLeniency: 0.7
Mode: 0
LetterboxInBreaks: 1
EditorBookmarks: 10397,39303,68210,78447,88082,140475,154928

[Metadata]
Title:Ever the Same
Artist:Rob Thomas
Creator:MisterVercetti
Version:Hard ROCK!
Source:
Tags:

[Difficulty]
HPDrainRate:9
CircleSize:5
OverallDifficulty:9
SliderMultiplier:2.6
SliderTickRate:4

[Events]
//Background and Video events
0,0,"Something_to_Be.jpg"
//Break Periods
2,29567,38647
2,58172,67252
2,120802,140451
//Storyboard Layer 0 (Background)
//Storyboard Layer 1 (Failing)
//Storyboard Layer 2 (Passing)
//Storyboard Layer 3 (Foreground)
//Storyboard Sound Samples
//Background Colour Transformations
3,100,163,162,255

[TimingPoints]
10397.8903189832,602.209638554217,4,2,1,100,1

[HitObjects]
448,320,11000,1,0
448,320,11150,1,0
304,264,11451,1,4
144,320,12204,1,0
104,296,12355,1,0
56,272,12505,1,4
56,48,13408,1,0
104,72,13559,1,0
152,96,13710,1,4
344,48,14312,1,4
432,232,14914,2,8,B|400:280|368:312|336:344|240:344|176:344|176:344,1,260,8|8
64,344,16419,5,0
64,240,16721,1,4
64,136,17022,1,0
64,32,17323,1,4
272,32,17925,1,0
376,32,18226,1,4
376,136,18527,1,0
376,240,18828,1,4
320,328,19129,1,0
216,328,19431,1,4
160,240,19732,1,0
264,240,20033,1,4
64,40,20635,5,4
64,40,20786,1,0
208,104,21087,1,4
352,40,21538,1,4
352,144,21839,1,0
352,248,22140,1,4
48,304,23043,1,0
48,304,23194,1,0
48,152,23495,1,4
208,152,23947,1,4
384,272,24549,2,8,B|427:228|445:205|437:156|451:119|428:78|380:45,1,260
48,56,25904,5,0
48,56,26055,1,0
48,160,26357,1,4
48,264,26657,1,0
128,336,26959,1,4
336,336,27561,1,4
336,128,28012,1,0
336,128,28163,1,0
232,128,28464,1,4
152,192,28765,1,0
72,256,29066,1,0
152,320,29367,1,2
400,288,40207,6,8,B|472:248|504:176|464:88|336:72,2,260
272,192,42013,1,0
192,136,42315,1,0
112,88,42616,2,8,B|40:128|8:200|48:288|176:304,1,260
352,312,43820,5,8
352,104,44422,1,0
248,104,44723,1,8
144,104,45024,1,0
144,208,45326,1,8
256,312,45777,1,8
336,248,46078,1,0
408,176,46379,1,8
336,40,46831,1,0
232,40,47132,1,8
40,112,47584,5,0
40,112,47734,1,8
40,216,48035,1,0
40,320,48337,1,0
144,320,48638,1,8
352,320,49240,1,0
456,320,49541,1,8
456,112,49993,5,0
456,112,50143,1,8
376,48,50444,1,0
296,112,50745,1,0
216,48,51047,1,8
56,184,51649,1,0
56,288,51950,1,8
256,288,52552,5,8
312,192,52853,1,0
256,96,53154,1,0
200,192,53455,1,8
448,296,54961,5,8
352,328,55262,1,0
256,344,55563,1,8
160,320,55864,1,0
56,296,56165,1,8
56,192,56466,1,0
56,88,56768,1,0
160,88,57069,2,8,B|200:40|232:16|320:8|384:96,1,260,8|0
472,96,57972,1,2
440,328,68812,5,0
440,328,68962,1,0
232,328,69414,1,4
56,224,70016,1,0
56,224,70167,1,0
56,72,70468,1,4
320,72,71221,1,0
376,72,71371,1,0
432,72,71522,1,4
376,272,72124,2,8,B|272:352|216:352|136:264|112:248|112:248,2,260
64,336,73931,5,0
64,232,74232,1,0
64,184,74382,1,0
64,136,74533,1,4
256,56,75135,1,4
464,56,75737,1,0
464,160,76038,1,4
464,264,76339,1,0
360,264,76640,1,4
256,264,76942,1,0
152,264,77243,1,4
152,160,77544,1,0
152,56,77845,1,4
456,192,79049,5,0
384,264,79350,1,4
296,320,79651,1,0
192,320,79953,1,4
152,128,80555,1,0
224,56,80856,1,4
328,56,81157,1,0
432,56,81458,1,4
432,160,81759,1,0
432,264,82060,1,0
328,264,82361,1,4
48,48,83867,5,0
152,48,84168,1,4
256,48,84469,1,0
360,48,84770,1,4
464,224,85372,1,0
360,224,85674,1,4
256,224,85975,1,0
192,312,86276,2,8,B|120:296|80:192|128:128|240:96,2,260,8|8|2
400,96,88384,6,8,B|472:136|504:208|464:296|336:312,2,260
272,192,90190,1,0
192,248,90492,1,0
112,296,90793,2,8,B|40:256|8:184|48:96|176:80,1,260
352,72,91997,5,8
352,280,92599,1,0
248,280,92900,1,8
144,280,93201,1,0
144,176,93503,1,8
256,72,93954,1,8
336,136,94255,1,0
408,208,94556,1,8
336,344,95008,1,0
232,344,95309,1,8
40,272,95761,5,0
40,272,95911,1,8
40,168,96212,1,0
40,64,96514,1,0
144,64,96815,1,8
352,64,97417,1,0
456,64,97718,1,8
456,272,98170,5,0
456,272,98320,1,8
376,336,98621,1,0
296,272,98922,1,0
216,336,99224,1,8
56,200,99826,1,0
56,96,100127,1,8
256,96,100729,5,8
312,192,101030,1,0
256,288,101331,1,0
200,192,101632,1,8
144,271,102837,6,8,B|207:327|251:345|330:321|368:264,2,260
328,40,105547,1,8
184,40,105998,1,8
136,192,106450,5,8
288,336,107052,1,0
392,336,107353,1,8
392,232,107654,1,0
392,128,107955,1,8
256,56,108407,1,8
120,128,108859,1,8
120,288,109310,1,0
224,288,109611,1,8
256,128,110063,5,0
344,72,110364,1,8
432,128,110665,1,0
432,232,110966,1,0
432,336,111268,1,8
240,272,111870,1,0
160,336,112171,1,8
48,216,112622,5,0
48,216,112773,2,8,B|48:104|112:64|144:64|168:64,1,195
248,64,113526,1,0
408,64,113977,1,8
408,272,114580,5,8
328,336,114881,1,0
248,272,115182,1,8
168,336,115483,1,0
88,272,115784,1,0
168,200,116085,1,8
256,192,116687,12,2,120602
456,328,141830,5,0
352,328,142131,1,8
200,328,142582,1,0
152,328,142733,1,8
72,264,143034,1,0
72,112,143486,1,8
376,56,144389,1,0
448,136,144690,1,8
448,240,144991,5,0
408,272,145142,1,0
368,304,145292,1,8
216,304,145744,1,8
64,304,146196,1,8
64,152,146647,1,0
64,104,146798,1,8
376,48,147701,5,8
472,48,148002,1,0
472,144,148303,1,8
424,144,148454,1,0
376,144,148605,1,0
376,240,148906,1,8
472,240,149207,1,0
472,336,149508,1,8
424,336,149658,1,0
376,336,149809,1,0
272,336,150110,2,8,B|184:328|128:312|88:280|56:248|40:216|32:208,1,260
304,56,151616,5,0
360,56,151766,1,8
464,176,152218,1,0
464,232,152368,1,8
320,296,152820,1,8
104,296,153422,1,0
48,208,153723,1,0
104,120,154024,1,8
256,120,154476,1,0
256,224,154777,1,2
112,96,155831,6,8,B|40:136|8:208|48:296|176:312,2,260
240,192,157637,1,0
320,248,157939,1,0
400,296,158240,2,8,B|472:256|504:184|464:96|336:80,1,260
160,72,159444,5,8
160,280,160046,1,0
264,280,160347,1,8
368,280,160648,1,0
368,176,160950,1,8
256,72,161401,1,8
176,136,161702,1,0
104,208,162003,1,8
176,344,162455,1,0
280,344,162756,1,8
472,272,163208,5,0
472,272,163358,1,8
472,168,163659,1,0
472,64,163961,1,0
368,64,164262,1,8
160,64,164864,1,0
56,64,165165,1,8
56,272,165617,5,0
56,272,165767,1,8
136,336,166068,1,0
216,272,166369,1,0
296,336,166671,1,8
456,200,167273,1,0
456,96,167574,1,8
256,96,168176,5,8
200,192,168477,1,0
256,288,168778,1,0
312,192,169079,1,8
368,271,170284,6,8,B|305:327|261:345|182:321|144:264,2,260
184,40,172994,1,8
328,40,173445,1,8
376,192,173897,5,8
224,336,174499,1,0
120,336,174800,1,8
120,232,175101,1,0
120,128,175402,1,8
256,56,175854,1,8
392,128,176306,1,8
392,288,176757,1,0
288,288,177058,1,8
256,128,177510,5,0
168,72,177811,1,8
48,168,178263,1,0
112,256,178564,1,0
184,328,178866,1,8
328,256,179317,1,0
392,328,179618,1,8
464,216,180069,5,0
464,216,180220,2,8,B|400:120|336:120|312:112,1,130
264,128,180823,1,0
160,128,181124,1,8
104,272,182027,5,8
184,336,182328,1,0
264,272,182629,1,8
344,336,182930,1,0
424,272,183231,1,0
344,200,183532,1,8
200,48,185038,5,8
304,48,185339,1,0
304,152,185640,1,8
200,152,185941,1,0
200,256,186243,1,8
248,256,186393,1,0
304,256,186544,1,0
256,344,186845,1,8
400,192,187296,5,0
400,192,187447,1,8
472,120,187748,1,0
400,48,188049,1,0
328,120,188350,1,8
136,48,188953,1,0
48,112,189254,1,8
48,320,189705,1,0
48,320,189856,1,8
208,320,190308,1,8
312,320,190609,1,0
472,192,191211,1,8
256,40,192265,5,8
408,96,192716,2,8,B|368:128|328:160|256:184|200:160|136:128|104:72,1,325
120,200,193770,1,0
120,304,194071,1,0
224,304,194372,1,8
328,304,194674,1,0
432,304,194975,1,8
216,48,195878,5,8
256,48,196029,1,0
304,48,196179,1,0
304,152,196480,1,8
256,152,196631,1,0
216,152,196781,1,0
216,248,197082,1,8
304,248,197383,1,0
304,344,197685,1,8
256,344,197835,1,0
216,344,197986,1,0
256,192,198287,12,2,203104
