osu file format v10

[General]
AudioFilename: Rob Mayth - Heart to Heart (Nightcore Mix).mp3
AudioLeadIn: 0
PreviewTime: 63238
Countdown: 0
SampleSet: Soft
StackLeniency: 0.7
Mode: 0
LetterboxInBreaks: 0
EpilepsyWarning: 1

[Editor]
Bookmarks: 89646
DistanceSpacing: 1
BeatDivisor: 4
GridSize: 4

[Metadata]
Title:Heart to Heart (Nightcore Mix)
TitleUnicode:Heart to Heart (Nightcore Mix)
Artist:Rob Mayth
ArtistUnicode:Rob Mayth
Creator:[Te][Amo]
Version:Hard
Source:
Tags:tur00 BounceBabe
BeatmapID:163284
BeatmapSetID:53233

[Difficulty]
HPDrainRate:6
CircleSize:4
OverallDifficulty:6
ApproachRate:7
SliderMultiplier:1.5
SliderTickRate:1

[Events]
//Background and Video events
0,0,"BG.jpg"
//Break Periods
//Storyboard Layer 0 (Background)
//Storyboard Layer 1 (Fail)
//Storyboard Layer 2 (Pass)
//Storyboard Layer 3 (Foreground)
//Storyboard Sound Samples
//Background Colour Transformations
3,100,163,162,255

[TimingPoints]
6900,352.112676056338,4,2,1,60,1,0
28026,-100,4,2,2,60,0,0
51970,-100,4,2,0,60,0,0
53378,-100,4,2,0,30,0,0
54787,-100,4,2,0,60,0,0
63238,-100,4,1,1,60,0,1
73449,-100,4,1,2,60,0,1
73537,-100,4,1,1,60,0,1
74153,-100,4,1,2,60,0,1
74241,-100,4,1,1,60,0,1
74329,-100,4,1,1,60,0,0
74505,-100,4,1,1,60,0,1
85773,-100,4,1,1,60,0,0
105843,-100,4,1,2,60,0,0
105931,-100,4,1,1,60,0,0
108308,-100,4,1,1,60,0,1
118519,-100,4,1,2,60,0,1
119311,-100,4,1,1,60,0,1
119576,-100,4,2,0,60,0,0
130491,-100,4,2,0,40,0,0
130843,-100,4,2,0,20,0,0
132252,391.134289439374,4,2,0,20,1,0
134012,-100,4,2,0,15,0,0

[Colours]
Combo1 : 255,81,81
Combo2 : 255,120,255
Combo3 : 255,167,79
Combo4 : 74,165,255
SliderBorder : 200,200,200

[HitObjects]
392,192,6899,2,0,B|340:136|256:136,1,150,2|0,0:0|0:0,0:0:0
120,192,7604,2,0,B|172:248|256:248,1,150,8|0,0:0|0:0,0:0:0
392,192,8308,1,0,0:0:0
120,68,9012,1,8,0:0:0
32,192,9364,1,0,0:0:0
120,316,9716,1,2,0:0:0
256,248,10069,5,0,0:0:0
256,172,10245,1,0,0:0:0
256,98,10421,1,8,0:0:0
321,136,10597,1,0,0:0:0
196,56,10949,2,0,B|112:48|52:136|72:232|153:260,1,300
212,308,11829,5,8,0:0:0
256,248,12005,1,0,0:0:0
300,308,12181,2,0,B|328:280|328:280|396:260|396:260|424:232,1,150,0|2,0:0|0:0,0:0:0
288,172,12885,1,0,0:0:0
137,172,13238,5,8,0:0:0
88,232,13414,2,0,B|116:260|116:260|184:280|184:280|212:308,2,150
44,172,14294,1,0,0:0:0
88,112,14470,2,0,B|136:84|196:100|212:152,2,150
220,40,15526,1,0,0:0:0
276,88,15702,2,0,B|296:160,1,75,0|0,0:0|0:0,0:0:0
300,236,16054,5,8,0:0:0
236,280,16230,2,0,B|200:304|168:276|136:248|92:272,1,150,0|0,0:0|0:0,0:0:0
93,112,16935,2,0,B|136:136|168:108|200:80|236:104,1,150,0|0,0:0|0:0,0:0:0
308,84,17463,1,8,0:0:0
392,208,17815,1,0,0:0:0
468,336,18167,6,0,B|424:368|360:356|344:300,1,150,2|0,0:0|0:0,0:0:0
292,248,18695,2,0,B|332:212|400:228|416:284,1,150
395,165,19399,2,0,B|432:100,2,75
294,54,20104,2,0,B|218:54,1,75,0|8,0:0|0:0,0:0:0
80,100,20632,2,0,B|116:164,1,75
188,192,20984,6,0,B|184:276|280:304|296:184|408:208|404:296,1,300,2|8,0:0|0:0,0:0:0
332,316,21864,1,0,0:0:0
256,328,22040,2,0,B|176:340|132:264,1,150
368,80,23097,1,8,0:0:0
144,80,23625,1,0,0:0:0
200,128,23801,6,0,B|216:184|296:184|312:128,1,150,2|0,0:0|0:0,0:0:0
256,76,24329,1,0,0:0:0
200,128,24505,2,0,B|140:172|140:172|116:244,1,150,8|0,0:0|0:0,0:0:0
256,300,25209,1,0,0:0:0
396,244,25561,2,0,B|372:172|372:172|312:128,2,150,0|8|0,0:0|0:0|0:0,0:0:0
256,192,26618,12,2,28026,0:0:0
128,192,28730,5,2,0:0:0
384,192,29435,1,4,0:0:0
92,260,30139,6,0,B|128:280|172:272|204:232|204:196,1,150,8|0,0:0|0:0,0:0:0
340,136,30843,2,0,B|304:164|296:216|316:272|380:296|443:274|460:220|452:180,1,300,2|8,0:0|0:0,0:0:0
360,64,31899,1,0,0:0:0
208,64,32252,5,2,0:0:0
128,192,32604,1,0,0:0:0
112,44,32956,1,8,0:0:0
212,152,33308,1,0,0:0:0
64,124,33660,1,2,0:0:0
344,232,34364,6,0,B|392:296|476:284,1,150,8|0,0:0|0:0,0:0:0
384,164,35069,2,0,B|328:132|264:160|240:236|284:284,1,225,2|0,0:0|0:0,0:0:0
220,324,35773,1,8,0:0:0
148,192,36125,1,0,0:0:0
220,60,36477,1,2,0:0:0
80,324,37181,5,8,0:0:0
148,192,37533,1,0,0:0:0
256,192,37885,12,2,39294,0:0:0
256,192,39998,5,8,0:0:0
256,192,40702,2,0,B|216:112|116:116|48:176|64:268,1,300,4|8,0:0|0:0,0:0:0
200,332,41759,1,0,0:0:0
256,192,42111,2,0,B|296:112|396:116|464:176|448:268,1,300,2|8,0:0|0:0,0:0:0
312,332,43167,1,0,0:0:0
184,252,43519,6,0,B|256:272|256:272|328:252,1,150,2|0,0:0|0:0,0:0:0
376,108,44223,1,8,0:0:0
256,20,44576,1,0,0:0:0
136,108,44928,1,2,0:0:0
328,340,45632,6,0,B|292:324|256:344|256:344|220:324|184:340,1,150,8|0,0:0|0:0,0:0:0
132,196,46336,2,0,B|216:200|256:268|256:268|296:200|380:196,1,300,2|8,0:0|0:0,0:0:0
256,112,47392,1,0,0:0:0
104,120,47745,2,0,B|140:132|184:112|196:72|180:28,1,150,2|0,0:0|0:0,0:0:0
331,29,48449,2,0,B|316:72|328:112|372:132|408:120,1,150,8|0,0:0|0:0,0:0:0
256,192,49153,12,0,50561,0:0:0
352,192,51618,5,0,0:0:0
256,80,51970,1,6,0:0:0
156,192,52322,1,0,0:0:0
156,192,52674,2,0,B|220:156|220:156|256:226|256:226|292:156|292:156|352:192,1,300,2|2,0:0|0:0,0:0:0
336,264,53554,5,0,0:0:0
296,328,53730,1,0,0:0:0
216,328,53907,1,0,0:0:0
176,264,54083,1,2,0:0:0
424,100,54787,6,0,B|408:36|408:36|380:72|332:64,1,150,6|0,0:0|0:0,0:0:0
178,64,55491,2,0,B|132:72|104:36|104:36|88:100,1,150,2|0,0:0|0:0,0:0:0
108,248,56195,1,2,0:0:0
404,248,56899,1,2,0:0:0
320,124,57252,1,0,0:0:0
300,196,57428,1,0,0:0:0
256,256,57604,6,0,B|208:312|124:320,1,150,6|0,0:0|0:0,0:0:0
256,256,58308,2,0,B|304:312|388:320,1,150,2|0,0:0|0:0,0:0:0
432,260,58836,1,0,0:0:0
496,220,59012,2,0,B|476:188|436:180,1,75,2|0,0:0|0:0,0:0:0
312,104,59364,2,0,B|332:136|372:144,1,75,0|0,0:0|0:0,0:0:0
380,68,59716,1,2,0:0:0
256,152,60069,1,0,0:0:0
256,192,60421,12,2,62885,0:0:0
188,300,63238,6,0,B|224:316|256:284|256:284|288:316|324:300,1,150,4|0,0:0|0:0,0:0:0
256,168,63942,1,0,0:0:0
348,48,64294,2,0,B|324:76|324:116,1,75
256,168,64646,1,0,0:0:0
188,117,64822,2,0,B|188:76|164:48,2,75
112,104,65350,1,0,0:0:0
112,280,65702,1,0,0:0:0
256,320,66054,6,0,B|308:320|308:320|352:292|352:292|396:292,2,150
320,184,67111,1,0,0:0:0
320,109,67287,1,0,0:0:0
256,148,67463,2,0,B|204:148|204:148|160:176|160:176|116:176,1,150
256,220,68167,2,0,B|224:220|224:220|188:244,1,75
156,312,68519,2,0,B|120:292|112:256,1,75
114,176,68871,6,0,B|128:104|128:104|160:80|156:36,1,150,4|8,0:0|0:0,0:0:0
256,148,69576,1,0,0:0:0
355,36,69928,2,0,B|352:80|384:104,1,75,8|0,0:0|0:0,0:0:0
436,155,70280,2,0,B|444:192|436:231,1,75
382,281,70632,2,0,B|352:304|356:348,2,75,8|0|0,0:0|0:0|0:0,0:0:0
256,200,71336,1,8,0:0:0
112,192,71688,6,0,B|124:128|208:160|216:96,1,150,0|8,0:0|0:0,0:0:0
256,32,72216,1,0,0:0:0
296,97,72392,2,0,B|304:160|388:128|400:192,1,150,0|8,0:0|0:0,0:0:0
328,216,72921,1,0,0:0:0
256,232,73097,2,0,B|256:324|156:368|72:296|112:192,2,300,0|0|4,0:0|0:0|0:0,0:0:0
380,320,74857,5,8,0:0:0
456,192,75209,1,0,0:0:0
384,60,75561,2,0,B|348:60|348:60|328:92,1,75,8|0,0:0|0:0,0:0:0
292,160,75914,2,0,B|256:152|256:152|219:160,1,75
184,93,76266,2,0,B|164:60|164:60|128:60,2,75,8|0|0,0:0|0:0|0:0,0:0:0
56,192,76970,1,8,0:0:0
92,256,77146,1,0,0:0:0
132,320,77322,6,0,B|216:344|256:264,1,150,0|8,0:0|0:0,0:0:0
380,320,78026,2,0,B|296:344|256:264,1,150,0|8,0:0|0:0,0:0:0
180,136,78730,1,0,0:0:0
332,136,79083,1,8,0:0:0
424,252,79435,1,0,0:0:0
495,230,79611,1,0,0:0:0
495,154,79787,1,8,0:0:0
424,132,79963,1,0,0:0:0
380,192,80139,5,4,0:0:0
256,104,80491,1,8,0:0:0
132,192,80843,1,0,0:0:0
164,340,81195,2,0,B|172:300|212:288,1,75,8|0,0:0|0:0,0:0:0
218,213,81547,2,0,B|294:213,1,75
299,287,81899,2,0,B|340:300|348:340,2,75,8|0|0,0:0|0:0|0:0,0:0:0
256,144,82604,1,8,0:0:0
256,192,82956,12,4,85773,0:0:0
180,252,86125,5,0,0:0:0
332,252,86477,1,0,0:0:0
256,124,86829,1,0,0:0:0
108,128,87181,2,0,B|120:208|120:208|102:233|109:274,1,150
256,244,87885,1,0,0:0:0
402,274,88238,2,0,B|410:234|392:208|392:208|404:128,1,150,0|4,0:0|0:0,0:0:0
476,260,88942,5,0,0:0:0
332,296,89294,1,0,0:0:0
180,296,89646,1,0,0:0:0
36,260,89998,2,0,B|8:236|4:192|16:152|56:132,1,150
180,92,90702,1,0,0:0:0
332,92,91054,1,0,0:0:0
256,220,91407,5,4,0:0:0
123,143,91759,2,0,B|155:171|195:175|231:155|255:127,1,150,8|0,0:0|0:0,0:0:0
388,203,92463,2,0,B|356:175|316:171|280:191|256:219,1,150,8|0,0:0|0:0,0:0:0
116,276,93167,1,8,0:0:0
256,328,93519,1,0,0:0:0
396,276,93871,1,8,0:0:0
392,128,94223,6,0,B|340:68|256:88,1,150,4|8,0:0|0:0,0:0:0
120,128,94928,2,0,B|172:68|256:88,1,150,0|8,0:0|0:0,0:0:0
256,236,95632,1,0,0:0:0
124,304,95984,1,8,0:0:0
256,236,96336,1,0,0:0:0
388,304,96688,1,8,0:0:0
372,156,97040,6,0,B|352:84|352:84|296:36,1,150,4|8,0:0|0:0,0:0:0
217,35,97569,2,0,B|160:84|160:84|140:156,1,150,0|0,0:0|0:0,0:0:0
68,176,98097,1,8,0:0:0
121,229,98273,2,0,B|133:265|169:285,2,75
196,212,98801,1,8,0:0:0
256,256,98977,1,0,0:0:0
328,232,99153,6,0,B|332:272|360:300|400:308|440:288,1,150,0|8,0:0|0:0,0:0:0
404,224,99681,1,0,0:0:0
476,216,99857,2,0,B|472:176|444:148|404:140|364:160,1,150,0|8,0:0|0:0,0:0:0
404,224,100385,2,0,B|468:88,1,150
400,56,100914,2,0,B|352:32|328:64|308:96|260:72,1,150,8|0,0:0|0:0,0:0:0
200,116,101442,6,0,B|136:152,1,75,0|8,0:0|0:0,0:0:0
59,155,101794,1,0,0:0:0
59,229,101970,1,0,0:0:0
134,231,102146,2,0,B|200:268,1,75,0|8,0:0|0:0,0:0:0
256,220,102498,1,0,0:0:0
312,268,102674,2,0,B|376:232|376:232|416:164,2,150,0|8|0,0:0|0:0|0:0,0:0:0
256,128,103730,5,8,0:0:0
400,84,104083,1,0,0:0:0
256,48,104435,1,8,0:0:0
112,84,104787,1,0,0:0:0
112,232,105139,6,0,B|144:300|216:336|216:336|220:296|256:274|256:274|292:296|296:336|296:336|368:300|400:232,1,450,8|0,0:0|0:0,0:0:0
400,84,106547,1,8,0:0:0
256,192,106899,12,4,107956,0:0:0
256,288,108308,5,4,0:0:0
256,288,108660,1,0,0:0:0
108,320,109012,2,0,B|128:288|128:288|128:252,1,75
55,230,109364,2,0,B|55:156,1,75
128,133,109716,2,0,B|88:96|116:24|180:36,1,150
256,44,110245,1,0,0:0:0
332,35,110421,2,0,B|396:24|424:96|384:132,1,150
256,212,111125,5,0,0:0:0
332,340,111477,1,0,0:0:0
180,340,111829,1,0,0:0:0
180,190,112181,1,0,0:0:0
332,190,112533,1,0,0:0:0
332,340,112885,1,0,0:0:0
405,208,113238,2,0,B|416:168|396:132|364:108|320:112,1,150
180,60,113942,6,0,B|176:104|196:144|232:160|268:160,1,150,4|8,0:0|0:0,0:0:0
244,232,114470,1,0,0:0:0
172,244,114646,2,0,B|169:199|144:163|106:152|70:157,1,150,0|8,0:0|0:0,0:0:0
112,320,115350,1,0,0:0:0
256,276,115702,1,8,0:0:0
400,320,116054,1,0,0:0:0
312,199,116407,2,0,B|326:168|320:124|296:88|256:80,1,150,8|4,0:0|0:0,0:0:0
108,56,117111,6,0,B|72:76|48:140|116:180|133:192|116:204|48:244|72:308|108:328,1,300,8|8,0:0|0:0,0:0:0
256,292,118167,2,0,B|184:260|184:260|220:192|184:124|184:124|256:88,2,300,4|4|4,0:0|0:0|0:0,0:0:0
436,52,120280,5,2,0:0:0
380,192,120632,1,0,0:0:0
436,332,120984,2,0,B|384:280|384:280|308:280|308:280|256:224,1,225,2|0,0:0|0:0,0:0:0
256,148,121688,1,2,0:0:0
132,192,122040,1,0,0:0:0
76,52,122392,5,2,0:0:0
28,196,122745,1,0,0:0:0
148,104,123097,1,2,0:0:0
8,108,123449,1,0,0:0:0
132,192,123801,1,2,0:0:0
396,52,124505,6,0,B|376:128|376:128|400:196,1,150,2|0,0:0|0:0,0:0:0
304,308,125209,2,0,B|324:232|324:232|300:164,1,150,2|0,0:0|0:0,0:0:0
256,104,125738,1,0,0:0:0
211,164,125914,2,0,B|188:232|188:232|208:308,1,150,2|0,0:0|0:0,0:0:0
112,195,126618,2,0,B|136:128|136:128|116:52,1,150,2|0,0:0|0:0,0:0:0
256,104,127322,1,2,0:0:0
468,316,128026,2,0,B|328:260|328:260|256:280|256:280|184:260|184:260|44:316,1,450,2|0,0:0|0:0,0:0:0
120,184,129435,5,2,0:0:0
256,120,129787,1,0,0:0:0
392,184,130139,1,2,0:0:0
332,48,130491,1,2,0:0:0
180,48,130843,1,2,0:0:0
368,280,131547,5,2,0:0:0
256,180,131900,1,0,0:0:0
155,270,132252,2,0,B|80:248|56:144|98:55|180:48,1,300,2|2,0:0|0:0,0:0:0
256,192,133816,12,2,135577,0:0:0
