osu file format v5

[General]
AudioFilename: 109-rob_mayth_-_heart_to_heart_(original_mix).mp3
AudioLeadIn: 0
PreviewTime: -1
Countdown: 1
SampleSet: Normal
StackLeniency: 0.7
Mode: 0
LetterboxInBreaks: 1
SkinPreference:XiStyle

[Metadata]
Title:Heart To Heart (original mix)
Artist:Rob Mayth
Creator:Tri-Edge
Version:Easy
Source:
Tags:Trance

[Difficulty]
HPDrainRate:4
CircleSize:4
OverallDifficulty:5
SliderMultiplier:1.4
SliderTickRate:2

[Events]
//Background and Video events
//Break Periods
2,67121,68256
2,95005,96986
//Storyboard Layer 0 (Background)
//Storyboard Layer 1 (Failing)
//Storyboard Layer 2 (Passing)
//Storyboard Layer 3 (Foreground)
//Storyboard Sound Samples
//Background Colour Transformations
3,100,163,162,255

[TimingPoints]
167,422.499314775,4,1,0,100,1

[HitObjects]
256,192,44106,1,0
72,64,44951,1,0
72,64,45163,1,0
240,64,45796,5,0
248,288,46641,1,0
88,288,47486,5,0
88,176,47909,1,0
88,64,48331,1,0
88,64,48543,1,0
256,64,49176,5,0
360,64,50021,1,0
360,288,50866,5,0
248,288,51289,1,0
248,176,51711,1,0
248,176,51923,1,0
256,80,52556,5,0
104,80,53401,1,0
104,80,53613,1,0
104,248,54246,5,0
216,248,54669,1,0
328,248,55091,1,0
328,248,55303,1,0
320,80,55936,5,0
96,80,56781,5,0
96,304,57626,5,0
320,304,58471,1,0
320,304,58683,1,0
328,136,59316,5,0
200,232,60161,5,0
72,144,61006,1,0
184,144,61429,1,0
296,144,61851,1,0
296,144,62063,1,0
296,312,62696,5,0
72,312,63541,5,0
88,88,64386,5,0
216,88,65231,1,0
216,88,65443,1,0
384,88,66076,5,0
216,232,66921,1,0
256,336,69456,6,0,C|256:48,2,280
32,336,71991,5,0
32,224,72414,1,0
32,336,72836,1,0
256,336,73681,5,0
368,336,74104,1,0
256,336,74526,1,0
256,224,74949,1,0
256,336,75371,1,0
144,336,75794,1,0
256,336,76216,1,0
256,112,77061,5,0
144,112,77484,1,0
256,112,77906,1,0
480,112,78751,5,0
480,224,79174,1,0
480,112,79596,1,0
480,336,80441,5,0
368,336,80864,1,0
256,336,81286,2,0,C|520:0,1,420,0|0
400,8,82976,2,0,C|120:8,2,280
400,232,85511,5,0
400,120,85934,1,0
288,128,86356,1,0
288,240,87201,5,0
176,240,87624,1,0
176,128,88046,1,0
288,128,88469,1,0
288,240,88891,1,0
232,184,89314,1,0
232,184,89736,1,0
456,192,90581,5,0
456,80,91004,1,0
344,80,91426,1,0
120,88,92271,5,0
120,200,92694,1,0
232,200,93116,2,0,C|528:200,2,280
80,152,98186,5,0
192,152,98609,1,0
304,152,99031,1,0
120,272,99876,5,0
232,272,100299,1,0
344,272,100721,1,0
344,48,101566,5,0
344,160,101989,1,0
344,272,102411,1,0
232,272,102834,1,0
120,272,103256,1,0
240,80,104101,5,0
240,304,104946,5,0
352,304,105369,1,0
464,304,105791,1,0
456,80,106636,5,0
344,80,107059,1,0
232,80,107481,1,0
8,80,108326,5,0
8,192,108749,1,0
8,304,109171,1,0
120,304,109594,1,0
120,192,110016,1,0
440,320,111706,5,0
352,248,112129,1,0
264,176,112551,1,0
112,344,113396,5,0
192,264,113819,1,0
264,176,114241,1,0
56,80,115086,5,0
56,192,115509,1,0
168,192,115931,1,0
168,80,116354,1,0
280,80,116776,1,0
280,192,117199,1,0
32,128,118466,5,0
144,128,118889,1,0
256,128,119311,1,0
256,352,120156,5,0
256,240,120579,1,0
256,128,121001,1,0
480,128,121846,5,0
368,128,122269,1,0
256,128,122691,1,0
144,128,123114,1,0
144,240,123536,2,0,C|312:240,1,140
416,64,125226,5,0
304,64,125649,1,0
192,64,126071,1,0
192,288,126916,5,0
192,176,127339,1,0
192,64,127761,1,0
416,64,128606,5,0
304,64,129029,1,0
192,64,129451,1,0
192,288,130296,5,0
192,176,130719,1,0
192,64,131141,1,0
80,64,131564,1,0
80,176,131986,1,0
80,288,132409,1,0
192,288,132831,1,0
416,288,133676,5,0
416,176,134099,1,0
416,64,134521,1,0
192,64,135366,5,0
192,176,135789,1,0
192,288,136211,1,0
304,288,136634,1,0
424,288,137056,2,0,C|0:288,1,420,0|0
