osu file format v13

[General]
AudioFilename: "Shia LaBeouf" Live - Rob Cantor.mp3
AudioLeadIn: 0
PreviewTime: -1
Countdown: 1
SampleSet: Normal
StackLeniency: 0.7
Mode: 0
LetterboxInBreaks: 1
WidescreenStoryboard: 0

[Editor]
Bookmarks: 59835
DistanceSpacing: 0.9
BeatDivisor: 8
GridSize: 32
TimelineZoom: 1

[Metadata]
Title:Shia LaBeouf
TitleUnicode:Shia LaBeouf
Artist:Rob Cantor
ArtistUnicode:Rob Cantor
Creator:AlienGo
Version:Normal
Source:
Tags:actual cannibal
BeatmapID:572609
BeatmapSetID:249006

[Difficulty]
HPDrainRate:6
CircleSize:5.5
OverallDifficulty:3
ApproachRate:7
SliderMultiplier:1.4
SliderTickRate:1

[Events]
//Background and Video events
0,0,"Shia pic.jpeg",0,0
//Break Periods
//Storyboard Layer 0 (Background)
//Storyboard Layer 1 (Fail)
//Storyboard Layer 2 (Pass)
//Storyboard Layer 3 (Foreground)
//Storyboard Sound Samples

[TimingPoints]
8808.55995546342,625.019725343321,4,1,0,100,1,0

[HitObjects]
64,320,8810,5,0,0:0:0:0:
192,320,11308,1,0,0:0:0:0:
320,320,13808,1,0,0:0:0:0:
448,320,15058,1,0,0:0:0:0:
448,288,15215,1,0,0:0:0:0:
448,256,15371,1,0,0:0:0:0:
448,224,15527,1,0,0:0:0:0:
448,32,16933,5,0,0:0:0:0:
320,32,18183,1,0,0:0:0:0:
160,32,19433,1,0,0:0:0:0:
32,32,20683,1,0,0:0:0:0:
32,192,21933,1,0,0:0:0:0:
128,192,23184,1,0,0:0:0:0:
224,192,23809,1,0,0:0:0:0:
320,192,24434,1,0,0:0:0:0:
416,192,25059,1,0,0:0:0:0:
448,192,25293,1,0,0:0:0:0:
480,192,25449,1,0,0:0:0:0:
512,192,25605,1,0,0:0:0:0:
480,32,27559,5,0,0:0:0:0:
384,96,28809,1,0,0:0:0:0:
288,160,30059,1,0,0:0:0:0:
192,96,31309,1,0,0:0:0:0:
96,160,32559,1,0,0:0:0:0:
160,128,33809,1,0,0:0:0:0:
224,160,34434,1,0,0:0:0:0:
288,128,35059,1,0,0:0:0:0:
384,160,36309,1,0,0:0:0:0:
320,96,37559,5,0,0:0:0:0:
320,160,38184,1,0,0:0:0:0:
352,224,38496,1,0,0:0:0:0:
352,256,38809,1,0,0:0:0:0:
320,256,38965,1,0,0:0:0:0:
288,256,39122,1,0,0:0:0:0:
256,256,39278,1,0,0:0:0:0:
224,224,40684,5,0,0:0:0:0:
192,224,40997,1,0,0:0:0:0:
160,224,41309,2,0,L|96:224,3,35,0|0|0|0,0:0|0:0|0:0|0:0,0:0:0:0:
128,256,42559,6,0,L|64:256,3,35,0|0|0|0,0:0|0:0|0:0|0:0,0:0:0:0:
96,256,43184,2,0,P|224:64|256:64,1,280,0|0,0:0|0:0,0:0:0:0:
224,64,45059,5,0,0:0:0:0:
224,96,45215,1,0,0:0:0:0:
224,128,45372,1,0,0:0:0:0:
256,64,45684,1,0,0:0:0:0:
256,96,45840,1,0,0:0:0:0:
256,128,45997,1,0,0:0:0:0:
320,64,46309,1,0,0:0:0:0:
352,64,46465,1,0,0:0:0:0:
384,64,46622,1,0,0:0:0:0:
416,64,46778,1,0,0:0:0:0:
448,320,47559,5,0,0:0:0:0:
416,320,47716,1,0,0:0:0:0:
384,320,47872,2,0,L|320:320,1,35
320,320,48184,1,0,0:0:0:0:
192,320,48809,1,0,0:0:0:0:
192,256,48966,1,0,0:0:0:0:
192,192,49122,1,0,0:0:0:0:
192,128,49278,1,0,0:0:0:0:
192,64,50059,6,0,L|256:64,1,35
288,64,50528,2,0,L|288:128,1,35
288,128,50997,1,0,0:0:0:0:
288,160,51309,2,0,L|320:192,3,35,0|0|0|0,0:0|0:0|0:0|0:0,0:0:0:0:
256,192,52559,5,0,0:0:0:0:
224,192,52716,1,0,0:0:0:0:
192,192,52872,1,0,0:0:0:0:
160,192,53028,1,0,0:0:0:0:
128,160,53184,2,0,P|192:64|352:96,1,280
224,96,55060,5,0,0:0:0:0:
256,96,55216,1,0,0:0:0:0:
288,96,55372,1,0,0:0:0:0:
288,128,55685,1,0,0:0:0:0:
256,128,55841,1,0,0:0:0:0:
224,128,55997,1,0,0:0:0:0:
224,224,56310,1,0,0:0:0:0:
288,224,56466,1,0,0:0:0:0:
224,224,56622,1,0,0:0:0:0:
288,224,56778,1,0,0:0:0:0:
480,192,58185,5,0,0:0:0:0:
384,160,59435,1,0,0:0:0:0:
288,192,60685,1,0,0:0:0:0:
192,160,61310,1,0,0:0:0:0:
96,192,61935,1,0,0:0:0:0:
0,160,62482,1,0,0:0:0:0:
64,96,63810,1,0,0:0:0:0:
128,96,65060,1,0,0:0:0:0:
192,96,65685,1,0,0:0:0:0:
256,96,66310,1,0,0:0:0:0:
256,96,67794,5,0,0:0:0:0:
256,128,67951,2,0,L|256:320,1,192.5,0|0,0:0|0:0,0:0:0:0:
256,288,70060,2,0,B|256:256|192:256|256:192|192:128|128:128|64:192|96:224|128:256|160:224|128:192,1,280
160,224,71935,1,0,0:0:0:0:
160,160,72560,1,0,0:0:0:0:
256,128,73810,2,0,P|320:192|192:192,1,280,0|0,0:0|0:0,0:0:0:0:
256,192,75685,1,0,0:0:0:0:
160,192,76935,1,0,0:0:0:0:
256,96,77560,5,0,0:0:0:0:
288,128,77716,2,0,L|320:160,1,35
288,192,78029,2,0,L|320:224,1,35
448,320,78810,1,0,0:0:0:0:
448,320,78967,1,0,0:0:0:0:
256,320,79435,1,0,0:0:0:0:
256,320,79592,1,0,0:0:0:0:
256,256,80060,6,0,L|224:224,1,35
256,192,80373,2,0,L|224:160,1,35
256,128,80685,2,0,L|192:96,1,70
256,64,81310,1,0,0:0:0:0:
256,64,81467,1,0,0:0:0:0:
64,64,81935,1,0,0:0:0:0:
64,64,82092,1,0,0:0:0:0:
64,192,83810,5,0,0:0:0:0:
160,192,84435,1,0,0:0:0:0:
256,192,85685,1,0,0:0:0:0:
256,224,86311,1,0,0:0:0:0:
288,192,86467,1,0,0:0:0:0:
288,160,86623,1,0,0:0:0:0:
256,128,86779,1,0,0:0:0:0:
128,128,88186,5,0,0:0:0:0:
192,128,88811,1,0,0:0:0:0:
224,128,88967,1,0,0:0:0:0:
256,128,89123,1,0,0:0:0:0:
288,128,89279,1,0,0:0:0:0:
352,128,90061,5,0,0:0:0:0:
416,160,90686,1,0,0:0:0:0:
384,224,90998,1,0,0:0:0:0:
320,192,91311,1,0,0:0:0:0:
288,192,91467,1,0,0:0:0:0:
256,192,91623,2,0,L|192:192,1,35
224,192,92561,6,0,L|192:160,3,35,0|0|0|0,0:0|0:0|0:0|0:0,0:0:0:0:
221,192,93186,1,0,0:0:0:0:
192,160,93498,2,0,L|416:160,1,210,0|0,0:0|0:0,0:0:0:0:
384,128,95061,5,0,0:0:0:0:
320,128,95217,1,0,0:0:0:0:
256,128,95373,1,0,0:0:0:0:
352,64,95686,1,0,0:0:0:0:
288,64,95842,1,0,0:0:0:0:
224,64,95998,1,0,0:0:0:0:
160,64,96311,2,0,L|128:96,1,35
96,64,96623,1,0,0:0:0:0:
64,96,96780,2,0,B|0:128|0:160|32:224|64:224|96:224|96:192,1,175
160,224,97717,5,0,0:0:0:0:
256,160,97873,1,0,0:0:0:0:
352,96,98030,1,0,0:0:0:0:
448,32,98186,2,0,L|448:128|448:128,1,70
448,256,98811,2,0,L|448:320,1,35
448,320,99123,2,0,L|448:384,1,35
320,352,100061,5,0,0:0:0:0:
256,352,100217,1,0,0:0:0:0:
192,352,100373,1,0,0:0:0:0:
128,352,100530,1,0,0:0:0:0:
64,320,100686,1,0,0:0:0:0:
64,224,101155,1,0,0:0:0:0:
64,192,101311,2,0,L|96:160,1,35
64,160,101623,2,0,L|96:128,1,35
192,64,102561,6,0,L|224:96,1,35
288,64,102874,2,0,L|320:96,1,35
416,64,103186,1,0,0:0:0:0:
416,192,103499,2,0,B|352:224|320:224|256:224|256:192|256:160|256:160|288:160|288:160,1,210
256,96,105061,5,0,0:0:0:0:
192,96,105374,1,0,0:0:0:0:
160,96,105530,1,0,0:0:0:0:
96,96,105999,1,0,0:0:0:0:
96,128,106311,2,0,L|128:160,1,35
96,160,106624,2,0,L|128:192,1,35
352,288,108186,5,0,0:0:0:0:
160,288,109436,1,0,0:0:0:0:
160,128,110686,1,0,0:0:0:0:
352,128,111936,1,0,0:0:0:0:
352,224,113186,1,0,0:0:0:0:
224,224,113811,1,0,0:0:0:0:
256,192,115140,5,0,0:0:0:0:
288,192,115296,1,0,0:0:0:0:
320,192,115452,1,0,0:0:0:0:
352,192,115608,2,0,B|320:192|288:192|256:160|256:128|224:64|224:64|192:128|192:160|160:192|128:192|96:192,1,385,0|0,0:0|0:0,0:0:0:0:
32,192,117718,5,0,0:0:0:0:
32,160,117874,1,0,0:0:0:0:
32,128,118030,1,0,0:0:0:0:
32,96,118187,1,0,0:0:0:0:
32,32,118812,5,0,0:0:0:0:
160,32,118968,1,0,0:0:0:0:
288,32,119124,1,0,0:0:0:0:
448,32,119280,1,0,0:0:0:0:
448,64,119749,5,0,0:0:0:0:
416,96,119905,1,0,0:0:0:0:
384,96,120062,1,0,0:0:0:0:
352,128,120218,1,0,0:0:0:0:
320,160,120374,1,0,0:0:0:0:
256,192,120530,1,0,0:0:0:0:
128,192,121155,5,0,0:0:0:0:
64,192,121312,1,0,0:0:0:0:
192,192,121468,1,0,0:0:0:0:
320,192,121624,1,0,0:0:0:0:
448,192,121780,1,0,0:0:0:0:
256,192,123187,5,0,0:0:0:0:
256,192,123812,1,0,0:0:0:0:
256,192,124437,1,0,0:0:0:0:
256,64,125062,5,0,0:0:0:0:
288,96,125218,1,0,0:0:0:0:
320,128,125374,1,0,0:0:0:0:
256,96,125687,5,0,0:0:0:0:
288,128,125843,1,0,0:0:0:0:
320,160,125999,1,0,0:0:0:0:
256,128,126312,5,0,0:0:0:0:
224,160,126468,1,0,0:0:0:0:
192,192,126624,1,0,0:0:0:0:
160,224,126781,1,0,0:0:0:0:
256,160,127562,5,0,0:0:0:0:
224,128,127718,1,0,0:0:0:0:
192,96,127874,1,0,0:0:0:0:
160,64,128031,1,0,0:0:0:0:
128,32,128187,1,0,0:0:0:0:
256,160,128499,5,0,0:0:0:0:
256,192,128812,5,0,0:0:0:0:
288,160,128968,1,0,0:0:0:0:
320,128,129124,2,0,L|352:96,1,35
64,64,130062,6,0,L|64:128,1,35
64,128,130374,2,0,L|64:192,1,35
64,192,130687,1,0,0:0:0:0:
64,128,131156,5,0,0:0:0:0:
64,64,131312,1,0,0:0:0:0:
96,96,131468,1,0,0:0:0:0:
128,64,131624,1,0,0:0:0:0:
160,96,131781,1,0,0:0:0:0:
160,128,132562,6,0,B|160:160|128:192|96:224,1,105
96,224,133187,2,0,B|128:256|160:256|160:256,1,70
256,192,133812,1,0,0:0:0:0:
256,160,133968,1,0,0:0:0:0:
256,128,134125,1,0,0:0:0:0:
256,96,134281,1,0,0:0:0:0:
256,192,135062,5,0,0:0:0:0:
256,192,136312,1,0,0:0:0:0:
256,256,136625,1,0,0:0:0:0:
416,192,137562,5,0,0:0:0:0:
224,192,138109,1,0,0:0:0:0:
32,192,138812,1,0,0:0:0:0:
32,192,139437,1,0,0:0:0:0:
256,192,140062,5,0,0:0:0:0:
480,192,140687,1,0,0:0:0:0:
384,160,141312,2,0,B|352:128|320:96|256:96,1,140
192,96,143187,1,0,0:0:0:0:
128,96,143812,1,0,0:0:0:0:
64,96,144437,1,0,0:0:0:0:
64,32,145062,5,0,0:0:0:0:
96,32,145219,1,0,0:0:0:0:
128,32,145375,1,0,0:0:0:0:
160,32,145531,1,0,0:0:0:0:
192,32,145687,1,0,0:0:0:0:
224,32,145844,1,0,0:0:0:0:
256,32,146000,1,0,0:0:0:0:
288,32,146156,1,0,0:0:0:0:
320,32,146312,1,0,0:0:0:0:
352,32,146469,1,0,0:0:0:0:
384,32,146625,1,0,0:0:0:0:
416,32,146781,1,0,0:0:0:0:
448,32,148187,6,0,L|448:320,1,280
32,352,150688,2,0,L|32:64,1,280
256,32,153188,2,0,B|224:32|192:64|192:96|288:64|352:64|384:64|128:96|128:128|224:160|288:128|288:192|256:192,1,280
256,192,158188,12,8,161309,0:0:0:0:
