osu file format v5

[General]
AudioFilename: Road of Major - Zassou.mp3
AudioLeadIn: 0
PreviewTime: -1
Countdown: 1
SampleSet: Soft
EditorBookmarks: 20077,58177,91353,104377,140219,161476,165784,168877,203977,218707,220553,222707,258577

[Metadata]
Title:Zassou
Artist:Road of Major
Creator:Neogetz
Version:Normal

[Difficulty]
HPDrainRate:4
CircleSize:6
OverallDifficulty:3
SliderMultiplier:1.5
SliderTickRate:2

[Events]
//Background and Video events
0,0,"vortexlights_v2.jpg"
//Break Periods
2,95276,103837
2,193061,202498
//Storyboard Layer 0 (Background)
//Storyboard Layer 1 (Failing)
//Storyboard Layer 2 (Passing)
//Storyboard Layer 3 (Foreground)
//Storyboard Sound Samples
//Background Colour Transformations
3,100,163,162,255

[TimingPoints]
25477,615.384615384615,4,2,0,100

[HitObjects]
64,32,25477,2,2,B|192:32|224:32,1,150
256,64,27938,2,2,L|256:128,6,75
256,256,32553,2,2,L|256:320,6,75
64,288,35015,6,0,B|128:288,1,75
192,288,35630,2,0,B|256:288|288:288,1,75
320,288,36246,2,0,B|384:288,1,75
384,224,36861,2,0,L|320:224,1,75
256,224,37477,2,0,L|192:224,1,75
64,64,39938,6,0,B|224:64,1,150
288,64,40861,2,0,B|448:64,1,150
448,192,42400,2,0,B|288:192,1,150
64,352,44861,6,0,B|128:288,4,75
160,256,46707,2,0,B|160:192,3,75
192,288,49784,6,0,B|256:352,5,75
288,256,51938,2,0,B|288:192,3,75
288,192,55323,6,0,B|320:160|352:192,3,75
256,224,56861,2,0,B|288:256|256:288,4,75
224,192,60246,2,0,B|192:224|160:192,4,75
256,160,62092,2,0,B|224:128|256:96,5,75
128,32,65169,6,0,B|128:21|128:53,1,75
192,96,65784,2,0,B|192:192,1,75
256,352,66707,2,0,B|256:288,1,75
320,288,67323,2,0,B|320:224,1,75
384,224,67938,2,0,B|384:160,1,75
224,64,70092,6,0,L|224:96|224:128|128:128,4,150
288,64,72861,2,0,L|288:96|288:128|384:128,3,150
128,64,76553,6,0,L|192:64,2,75
288,64,77476,2,0,L|352:64,2,75
352,160,78400,2,0,L|288:160,2,75
224,160,79323,2,0,L|160:160,2,75
215,249,80246,2,0,L|248:309|279:247|311:315,1,150
448,352,81476,6,0,B|448:192,1,150
448,160,82400,2,0,B|448:0,1,150
384,32,83323,2,0,B|384:192,1,150
384,224,84246,2,0,B|384:384,1,150
448,352,85169,2,0,B|448:192,1,150
320,320,86400,6,0,L|256:320,13,75
64,288,91323,6,0,B|64:256|128:256|128:224|128:192|96:192|64:192|32:192|32:160|32:128|96:128|128:128|128:96|128:64,4,225
416,64,105169,6,0,B|416:128,9,75
320,96,108553,2,0,B|256:64|160:96,2,150
96,64,110092,2,0,B|96:128,11,75
448,352,115015,6,0,C|384:352|448:288|352:288|352:224|256:320|256:224|160:320,1,675
320,192,118400,2,0,B|256:160|160:192,2,150
64,352,120246,2,0,C|128:352|64:288|160:288|160:224|256:320|256:224|352:320,1,675
64,32,125477,2,0,C|128:32|64:96|160:96|160:160|256:64|256:160|352:64,1,675
448,32,130400,2,0,C|384:32|448:96|352:96|352:160|256:64|256:160|160:64,1,675
128,64,133477,2,0,C|64:64,1,75
96,320,135323,6,0,B|356:228|416:352,1,300
416,256,136861,2,0,B|288:160|32:288,1,375
96,64,140246,2,0,B|356:156|416:32,1,300
416,128,141784,2,0,B|288:224|32:96,1,375
96,96,146707,6,0,L|32:32,4,75
160,160,148246,2,0,L|224:224,3,75
256,256,149477,2,0,L|320:320,3,75
192,96,151630,6,0,B|256:64|352:96,1,150
384,128,152553,2,0,B|416:192|384:288,1,150
320,288,153477,2,0,B|256:320|160:288,1,150
128,256,154400,2,0,B|96:192|128:96,1,150
192,96,155323,2,0,B|256:64|352:96,1,150
224,64,156553,6,0,L|128:160,1,75
128,224,157477,2,0,L|224:320,1,75
288,320,158400,2,0,L|384:224,1,75
384,160,159323,2,0,L|288:64,1,75
256,128,160246,2,0,L|256:288,1,150
96,160,161476,6,0,B|128:96|224:96,1,150
288,96,162400,2,0,B|352:96|416:192,1,150
448,224,163323,2,0,B|448:288|352:352,1,150
320,352,164246,2,0,L|160:352,1,150
128,320,165169,2,0,B|64:320|32:192,1,150
64,96,169784,6,4,B|128:32|192:96|192:128,1,150
256,96,171015,6,4,B|320:32|384:96|384:128,1,150
352,192,172246,6,4,B|288:256|224:192|224:160,1,150
192,192,173169,6,4,B|128:256|64:192|64:160,1,150
64,96,174707,6,4,B|128:32|192:96|192:128,1,150
256,96,175938,6,4,B|320:32|384:96|384:128,1,150
352,192,177169,6,4,B|288:256|224:192|224:160,1,150
192,192,178092,6,4,B|128:256|64:192|64:160,1,150
64,96,179630,6,4,B|128:32|192:96|192:128,1,150
256,96,180861,6,4,B|320:32|384:96|384:128,1,150
352,192,182092,6,4,B|288:256|224:192|224:160,1,150
192,192,183015,6,4,B|128:256|64:192|64:160,1,150
224,64,184553,6,2,L|320:64,2,75
288,128,185784,2,2,L|192:128,2,75
224,192,187015,2,2,L|320:192,2,75
288,256,187938,2,2,L|192:256,3,75
128,320,189476,6,0,L|128:160,1,150
192,128,190400,2,0,L|352:128,1,150
416,160,191323,2,0,L|416:320,1,150
352,320,192246,2,0,L|192:320,1,150
160,128,203938,6,0,L|288:64,6,75
288,96,206400,2,0,L|416:160,6,75
352,192,208861,2,0,L|224:256,6,75
224,224,211630,2,0,L|96:160,5,75
32,192,213784,6,0,C|64:224|96:192,1,75
128,256,214400,6,0,C|160:288|192:256,1,75
224,320,215015,6,0,C|256:352|288:320,1,75
320,256,215630,6,0,C|352:288|384:256,1,75
416,192,216246,6,0,C|448:224|480:192,1,75
384,128,216861,6,0,C|352:160|320:128,1,75
288,64,217476,6,0,C|256:96|224:64,1,75
256,288,218707,6,0,L|201:85|362:219|162:217|338:84|256:288,1,1050
64,32,228553,6,0,L|160:32,1,75
192,32,229169,2,0,L|288:32,1,75
320,32,229784,2,0,L|416:32,1,75
448,96,230707,6,0,L|352:96,1,75
320,96,231323,2,0,L|224:96,1,75
192,96,231938,2,0,L|96:96,1,75
224,160,232553,2,0,L|320:160,1,75
32,352,233476,6,0,L|96:288,1,75
128,256,234092,2,0,L|192:192,1,75
480,352,235015,2,0,L|416:288,1,75
384,256,235630,2,0,L|320:192,1,75
32,32,238400,6,0,B|132:61|168:66|208:93|42:126|56:158|139:95|133:135|98:219|139:229|221:115|261:131|227:149|158:302|416:224,2,525
32,64,243323,6,0,L|32:224,2,150
96,64,244861,2,0,L|256:64,2,150
96,128,246400,2,0,L|96:288,2,150
160,128,248246,2,0,L|320:128,2,150
160,192,249784,2,0,L|160:352,2,150
224,192,251323,2,0,L|384:192,2,150
64,96,258400,6,4,B|128:32|192:96|192:128,1,150
256,96,259630,6,4,B|320:32|384:96|384:128,1,150
352,192,260861,6,4,B|288:256|224:192|224:160,1,150
192,192,261784,6,4,B|128:256|64:192|64:160,1,150
