osu file format v5

[General]
AudioFilename: Road of Major - Zassou.mp3
AudioLeadIn: 0
PreviewTime: -1
Countdown: 1
SampleSet: Soft
EditorBookmarks: 20077,74677,95677,104377,168877,203977,213277,243277,247477,258577

[Metadata]
Title:Zassou
Artist:Road of Major
Creator:Neogetz
Version:Easy

[Difficulty]
HPDrainRate:3
CircleSize:5
OverallDifficulty:3
SliderMultiplier:1.4
SliderTickRate:2

[Events]
//Background and Video events
0,0,"vortexlights_v2.jpg"
//Break Periods
2,95276,103837
2,223376,227137
2,247676,256837
//Storyboard Layer 0 (Background)
//Storyboard Layer 1 (Failing)
//Storyboard Layer 2 (Passing)
//Storyboard Layer 3 (Foreground)
//Storyboard Sound Samples
//Background Colour Transformations
3,100,163,162,255

[TimingPoints]
25477,615.384615384615,4,2,0,100

[HitObjects]
64,32,25477,2,2,B|192:32|224:32,1,140
320,32,27938,2,2,B|320:192,4,140
320,352,32553,2,2,B|320:192,3,140
64,288,35015,6,0,B|128:288,1,70
192,288,35630,2,0,B|256:288|288:288,1,70
320,288,36246,2,0,B|384:288,1,70
96,64,40246,6,0,B|256:64,1,140
288,64,41169,2,0,B|448:64,1,140
448,192,42707,2,0,B|288:192,1,140
64,352,44861,6,0,B|128:288,4,70
160,256,46707,2,0,B|160:192,3,70
192,288,50092,6,0,B|256:352,5,70
288,256,52246,2,0,B|288:192,3,70
480,32,55323,6,0,B|384:32|384:128,2,140
384,256,56861,2,0,B|384:320|480:352,2,140
128,256,59938,2,0,B|128:320|32:352,2,140
128,128,61784,2,0,B|128:96|128:64|32:32,3,140
128,32,65169,6,0,B|128:21|128:53,1,70
192,96,65784,2,0,B|192:192,1,70
256,352,66707,2,0,B|256:288,1,70
320,288,67323,2,0,B|320:224,1,70
384,224,67938,2,0,B|384:160,1,70
32,64,70092,6,0,B|192:64|0:160|224:160,1,210
384,64,71630,2,0,C|288:64|256:128|288:160|352:160|416:224|384:288|320:288|256:256|160:352,1,700
64,64,76553,6,0,B|224:64,1,140
288,64,77476,2,0,B|448:64,1,140
448,160,78400,2,0,B|288:160,1,140
224,160,79323,2,0,B|64:160,1,140
64,256,80246,2,0,B|320:256,1,210
448,384,81476,6,0,B|448:224,1,140
448,160,82400,2,0,B|448:0,1,140
352,0,83323,2,0,B|352:160,1,140
352,224,84246,2,0,B|352:384,1,140
448,384,85169,2,0,B|448:224,1,140
352,352,86400,6,0,B|192:352,7,140
96,352,91323,6,0,B|96:64,3,280
416,64,105169,6,0,B|416:128,9,70
96,64,110092,2,0,B|96:128,11,70
416,352,115015,6,0,B|416:64|256:96|63:63|64:384,1,630
96,352,119938,2,0,B|96:64|257:97|448:64|448:384,1,630
96,32,125477,2,0,B|96:320|257:287|448:320|448:0,1,630
416,32,130400,2,0,B|416:320|255:287|64:320|64:0,1,630
448,192,135323,6,0,B|64:192,2,350
96,192,140246,2,0,B|480:192,2,350
96,96,146707,6,0,L|32:32,4,70
160,160,148246,2,0,L|224:224,3,70
256,256,149477,2,0,L|320:320,3,70
192,96,151630,6,0,B|256:64|352:96,1,140
384,128,152553,2,0,B|416:192|384:288,1,140
320,288,153477,2,0,B|256:320|160:288,1,140
128,256,154400,2,0,B|96:192|128:96,1,140
192,96,155323,2,0,B|256:64|352:96,1,140
224,64,156553,6,0,L|128:160,1,70
128,224,157477,2,0,L|224:320,1,70
288,320,158400,2,0,L|384:224,1,70
384,160,159323,2,0,L|288:64,1,70
256,128,160246,2,0,L|256:288,1,140
32,192,161477,6,0,L|256:64|480:193|256:352|32:192,1,1050
64,96,169784,6,4,B|128:32|192:96|192:128,1,140
256,96,171015,6,4,B|320:32|384:96|384:128,1,140
352,192,172246,6,4,B|288:256|224:192|224:160,1,140
192,192,173169,6,4,B|128:256|64:192|64:160,1,140
64,96,174707,6,4,B|128:32|192:96|192:128,1,140
256,96,175938,6,4,B|320:32|384:96|384:128,1,140
352,192,177169,6,4,B|288:256|224:192|224:160,1,140
192,192,178092,6,4,B|128:256|64:192|64:160,1,140
64,96,179630,6,4,B|128:32|192:96|192:128,1,140
256,96,180861,6,4,B|320:32|384:96|384:128,1,140
352,192,182092,6,4,B|288:256|224:192|224:160,1,140
192,192,183015,6,4,B|128:256|64:192|64:160,1,140
160,64,184553,6,2,L|384:64,1,210
352,128,185784,2,2,L|128:128,1,210
160,192,187015,2,2,L|384:192,1,210
320,256,188246,2,2,L|128:256,1,140
96,160,189169,6,0,L|352:32|352:320|64:160,1,840
96,128,203938,6,0,L|224:64,3,140
288,64,206400,2,0,L|416:128,3,140
416,256,208861,2,0,L|288:320,3,140
224,320,211323,2,0,L|96:256,3,140
64,192,213784,6,0,B|128:288|255:286|416:288|480:160,2,420
64,32,218707,2,0,L|128:32|128:128|192:128|192:192|256:192|256:288|320:288|320:352|384:352|448:352|448:256|384:256|384:192|320:192|320:128,1,1050
64,32,228553,6,0,L|416:32,1,350
352,128,230707,2,0,L|128:128,1,210
64,320,233477,6,0,B|256:320|64:192|32:192|32:128|224:128|256:128|224:288|224:352|288:352|352:224|288:96|320:64|384:64|448:192|352:320|352:352|384:384|416:352|480:320|480:64,1,910
32,32,238400,2,0,B|128:32|160:32|160:64|1:98|1:130|161:130|92:161|3:162|2:192|256:194|257:227|98:225|0:387|256:352,2,490
32,96,243323,6,0,L|32:256|160:256|160:96|288:96|288:256|448:256|448:384,1,980
64,96,258400,6,4,B|128:32|192:96|192:128,1,140
256,96,259630,6,4,B|320:32|384:96|384:128,1,140
352,192,260861,6,4,B|288:256|224:192|224:160,1,140
192,192,261784,6,4,B|128:256|64:192|64:160,1,140
