osu file format v5

[General]
AudioFilename: OUENDAN Taisetsu na Mono.mp3
AudioLeadIn: 0
PreviewTime: 84262
Countdown: 3
SampleSet: Normal
EditorBookmarks: 9335,46799,84262,109433

[Metadata]
Title:Taisetsu na Mono
Artist:Road of Major
Creator:Kai
Version:Hard

[Difficulty]
HPDrainRate:7
CircleSize:5
OverallDifficulty:7
SliderMultiplier:2
SliderTickRate:4

[Events]
//Background and Video events
0,0,"ME0000598888_2 copy.jpg"
//Break Periods
2,27213,45842
2,64496,82856
2,101496,107923
//Storyboard Layer 0 (Background)
//Storyboard Layer 1 (Failing)
//Storyboard Layer 2 (Passing)
//Storyboard Layer 3 (Foreground)
//Storyboard Sound Samples
//Background Colour Transformations
3,100,164,159,250

[TimingPoints]
-30,585.366477111171,4,1,0,100

[HitObjects]
96,32,9335,2,2,B|40:71|32:120,4,100
192,32,11091,1,0
296,32,11384,1,0
400,32,11677,2,2,B|449:54|464:112,4,100
320,80,13433,5,0
192,80,13726,1,0
256,208,14018,5,2
256,312,14311,1,2
144,280,14604,1,2
144,176,14896,1,2
256,120,15189,1,2
368,184,15482,1,2
352,288,15774,1,2
256,48,16360,5,4
256,144,16799,1,4
184,288,17238,1,4
328,288,17530,1,4
376,136,18409,5,2
392,40,18701,2,2,B|456:71|472:120,4,100
320,32,20457,1,0
216,32,20750,1,0
112,40,21043,2,2,B|54:63|32:112,4,100
208,80,22799,5,0
312,80,23091,1,0
256,208,23384,5,2
256,312,23677,1,2
368,280,23970,1,2
368,184,24262,1,2
256,120,24555,1,2
144,184,24848,1,2
152,280,25140,1,2
256,232,25433,1,2
432,144,25726,6,2,B|322:10|196:10|72:152,1,400
184,136,46799,5,2
184,240,47092,1,2
320,240,47384,1,2
320,136,47677,1,2
256,192,47970,1,2
40,232,48262,2,2,B|40:104|120:32,1,200
232,40,49140,5,2
329,43,49433,1,2
424,48,49726,1,2
456,168,50018,1,2
400,328,50311,2,2,B|248:268|72:336,1,300
128,64,51482,5,0
128,216,51774,1,0
56,144,52067,1,0
208,144,52360,1,0
400,64,52652,5,0
400,224,52945,1,0
472,144,53238,1,0
328,144,53531,1,0
160,80,53823,5,2
142,174,54262,1,2
200,248,54701,1,2
72,256,54994,2,2,B|11:198|12:124|104:56,1,200
344,128,56165,5,2
344,248,56457,1,2
200,248,56750,1,2
200,136,57043,1,2
264,192,57335,1,2
472,216,57628,2,2,B|472:88|376:40,1,200
280,40,58506,5,2
168,40,58799,1,2
56,40,59092,1,2
40,200,59384,1,2
104,328,59677,2,2,B|254:374|416:320,1,300
128,104,60848,5,2
128,264,61140,1,2
56,192,61433,1,2
208,192,61726,1,2
376,112,62018,5,2
376,264,62311,1,2
448,192,62604,1,2
304,192,62896,1,2
208,328,63189,6,2,B|312:328,3,100
256,232,64360,1,2
64,64,84262,6,2,B|168:64,2,100
64,184,85433,1,2
64,272,85726,1,2
152,320,86018,1,2
240,320,86311,1,2
244,44,86604,2,2,B|348:44,2,100
208,192,87774,5,2
223,277,88067,1,2
288,328,88360,1,2
374,327,88653,1,2
376,112,88945,6,2,B|425:129|448:192,4,100
256,48,90701,5,2
256,184,90994,1,2
256,336,91287,1,2
144,256,91579,5,2
255,256,91872,1,2
352,256,92165,1,2
360,136,92457,2,2,B|248:100|136:144,1,200
64,64,93628,6,2,B|168:64,2,100
64,184,94799,1,2
64,272,95092,1,2
152,320,95384,1,2
240,320,95677,1,2
240,64,95970,2,2,B|344:64,2,100
208,168,97140,5,2
216,256,97433,1,2
272,328,97726,1,2
360,328,98018,1,2
448,192,98311,5,2
408,112,98604,1,2
336,64,98896,1,2
256,24,99189,1,2
160,64,99482,1,2
88,120,99774,1,2
40,192,100067,1,2
256,192,100653,5,2
256,192,101238,1,4
72,48,109433,5,0
16,168,109726,1,0
136,168,110018,1,0
40,320,110604,2,2,B|167:305|208:160,1,200
464,56,111774,5,2
352,56,112067,1,2
352,184,112360,1,2
464,184,112653,1,2
464,312,112945,1,2
320,312,113384,1,2
72,48,114116,5,0
16,168,114409,1,0
136,168,114701,1,0
80,264,114994,1,0
48,352,115287,2,2,B|151:337|208:224,1,200
256,56,116165,5,2
256,120,116457,1,2
256,224,116750,1,2
256,288,117043,1,2
376,72,117628,1,2
376,72,117775,1,2
416,152,118067,1,2
72,64,118799,5,0
48,216,119238,1,0
40,336,119970,2,2,B|160:312|216:208,1,200
464,48,121140,5,2
352,48,121433,1,2
352,184,121726,1,2
464,184,122018,1,2
464,320,122311,1,2
312,320,122750,1,2
256,176,123482,5,0
256,40,123775,1,2
48,48,124067,5,2
48,168,124360,1,2
168,48,124653,1,2
168,168,124945,1,2
480,176,125238,5,2
480,288,125531,1,2
344,176,125823,1,2
344,288,126116,1,2
256,336,126409,6,2,B|256:112,1,200
256,64,127287,1,2
256,64,127579,1,2
136,96,128750,5,0
376,96,129189,1,0
256,304,129628,1,0
256,200,129921,1,0
64,64,131092,6,2,B|168:64,2,100
64,184,132263,1,2
64,272,132556,1,2
152,320,132848,1,2
240,320,133141,1,2
244,44,133434,2,2,B|348:44,2,100
208,168,134604,5,2
224,248,134896,1,2
280,320,135189,1,2
360,328,135482,1,2
376,112,135775,6,6,B|433:135|440:192,4,100
256,48,137531,5,2
256,184,137823,1,2
256,336,138116,1,2
159,258,138409,5,2
259,256,138701,1,2
350,256,138994,1,2
360,144,139287,2,2,B|252:95|136:152,1,200
64,64,140457,6,2,B|168:64,2,100
64,184,141628,1,2
64,272,141921,1,2
152,320,142213,1,2
240,320,142506,1,2
244,44,142799,2,2,B|348:44,2,100
232,168,143970,5,2
240,248,144262,1,2
296,312,144555,1,2
376,312,144848,1,2
256,192,145140,12,0,149823
