osu file format v10

[General]
AudioFilename: Road of Major - Kokoroe.mp3
AudioLeadIn: 2000
PreviewTime: 64696
Countdown: 0
SampleSet: Soft
StackLeniency: 0.7
Mode: 0
LetterboxInBreaks: 0

[Editor]
DistanceSpacing: 1
BeatDivisor: 2
GridSize: 4

[Metadata]
Title:Kokoroe (TV Size)
TitleUnicode:Kokoroe (TV Size)
Artist:Road of Major
ArtistUnicode:Road of Major
Creator:P o M u T a
Version:Normal
Source:MAJOR
Tags:Opening kajiyatta rom
BeatmapID:177430
BeatmapSetID:59135

[Difficulty]
HPDrainRate:4
CircleSize:3
OverallDifficulty:4
ApproachRate:5
SliderMultiplier:0.79999990463257
SliderTickRate:1

[Events]
//Background and Video events
0,0,"img_546886_13181945_3.jpg"
//Break Periods
//Storyboard Layer 0 (Background)
//Storyboard Layer 1 (Fail)
//Storyboard Layer 2 (Pass)
//Storyboard Layer 3 (Foreground)
//Storyboard Sound Samples
//Background Colour Transformations
3,100,163,162,255

[TimingPoints]
-876,315.789473684211,4,2,1,50,1,0
1018,-100,4,2,1,50,0,0
19334,-100,4,2,1,70,0,0
44597,-100,4,2,1,50,0,0
63545,-100,4,2,1,70,0,0
64808,-100,4,1,1,80,0,1
76334,-100,4,1,2,70,0,1
76650,-100,4,1,1,80,0,1
78860,-100,4,1,2,70,0,1
79176,-100,4,1,1,80,0,1
79966,-100,4,1,2,80,0,1
93229,-100,4,1,1,70,0,1
93545,-100,4,1,1,60,0,1
93860,-100,4,1,1,50,0,1
94176,-100,4,1,1,40,0,1
94492,-100,4,1,1,30,0,1
94808,-100,4,1,1,20,0,1
95124,-100,4,1,1,80,0,0

[Colours]
Combo1 : 255,128,128
Combo2 : 0,200,0
Combo3 : 0,0,160

[HitObjects]
136,244,1018,1,2,0:0:0
208,100,1650,2,0,B|136:56|56:100,1,159.999980926514,2|2,0:0|0:0,0:0:0
56,260,2913,2,0,B|128:304|208:260,1,159.999980926514,2|2,0:0|0:0,0:0:0
348,184,4176,2,0,B|392:112|348:32,1,159.999980926514,2|2,0:0|0:0,0:0:0
188,32,5439,2,0,B|144:104|188:184,1,159.999980926514,2|2,0:0|0:0,0:0:0
320,276,6702,6,0,B|480:276,2,159.999980926514,2|2|2,0:0|0:0|0:0,0:0:0
160,276,8597,1,2,0:0:0
80,136,9229,2,0,B|0:136,2,79.999990463257,2|2|2,0:0|0:0|0:0,0:3:0
160,136,10176,1,2,0:0:0
240,136,10492,2,0,B|400:136,1,159.999980926514,2|2,0:0|0:0,0:0:0
364,292,11755,6,0,B|204:292,1,159.999980926514,2|2,0:0|0:0,0:0:0
216,132,13018,2,0,B|56:132,1,159.999980926514,2|2,0:0|0:0,0:0:0
56,292,14281,2,0,B|216:292,1,159.999980926514,2|2,0:0|0:0,0:0:0
216,132,15545,2,0,B|376:132,1,159.999980926514,2|2,0:0|0:0,0:0:0
336,288,16808,6,0,B|416:288,2,79.999990463257,2|2|2,0:0|0:0|0:0,0:0:0
176,288,18071,2,0,B|96:288,2,79.999990463257,2|2|2,0:0|0:0|0:0,0:0:0
256,192,19334,12,8,21860,0:0:0
336,112,23124,6,0,B|416:112,1,79.999990463257,2|8,0:0|0:0,0:0:0
416,192,23755,2,0,B|460:192,2,39.9999952316285,0|8|8,0:0|0:0|0:0,0:0:0
412,272,24387,6,0,B|336:312|258:273,1,159.999980926514,6|2,0:0|0:0,0:0:0
256,192,25334,1,8,0:0:0
256,112,25650,2,0,B|180:72|102:110,1,159.999980926514,2|2,0:0|0:0,0:0:0
64,180,26597,1,8,0:0:0
121,236,26913,6,0,B|201:236,1,79.999990463257,2|8,0:0|0:0,0:0:0
280,236,27545,2,0,B|360:236,2,79.999990463257,2|8|2,0:0|0:0|0:0,0:0:0
298,77,28808,2,0,B|378:77,1,79.999990463257,2|8,0:0|0:0,0:0:0
456,96,29439,6,0,B|468:136|456:174,1,79.999990463257,2|8,0:0|0:0,0:0:0
416,244,30071,1,2,0:0:0
352,292,30387,1,8,0:0:0
276,316,30702,2,0,B|236:328|197:316,1,79.999990463257,2|8,0:0|0:0,0:0:0
196,236,31334,2,0,B|236:224|274:235,1,79.999990463257,2|8,0:0|0:0,0:0:0
353,219,31966,6,0,B|380:187|386:147,1,79.999990463257,2|8,0:0|0:0,0:0:0
396,68,32597,1,2,0:0:0
320,44,32913,1,8,0:0:0
240,44,33229,2,0,B|161:21|83:44,1,159.999980926514,2|0,0:0|0:0,0:0:0
56,120,34176,1,8,0:0:0
91,191,34492,6,0,B|60:228|90:263,1,79.999990463257,6|8,0:0|0:0,0:0:0
144,324,35124,1,2,0:0:0
144,324,35439,1,2,0:0:0
192,260,35755,2,0,B|228:229|264:260,1,79.999990463257,6|8,0:0|0:0,0:0:0
312,324,36387,2,0,B|348:356,2,39.9999952316285,2|2|8,0:0|0:0|0:0,0:0:0
360,260,37018,6,0,B|368:172|468:160,1,159.999980926514,2|2,0:0|0:0,0:0:0
500,88,37966,1,8,0:0:0
424,64,38281,2,0,B|348:110|279:37,1,159.999980926514,2|2,0:0|0:0,0:0:0
200,40,39229,1,8,0:0:0
120,40,39545,6,0,B|100:76|120:117,1,79.999990463257,2|8,0:0|0:0,0:0:0
144,148,40018,1,0,0:0:0
168,180,40176,2,0,B|188:216|168:257,1,79.999990463257,2|8,0:0|0:0,0:0:0
132,328,40808,2,0,B|168:348|209:328,1,79.999990463257,2|8,0:0|0:0,0:0:0
240,304,41281,1,0,0:0:0
272,280,41439,2,0,B|308:260|349:280,1,79.999990463257,2|8,0:0|0:0,0:0:0
420,244,42071,6,0,B|420:164,1,79.999990463257,2|8,0:0|0:0,0:0:0
340,164,42702,2,0,B|260:164,1,79.999990463257,2|8,0:0|0:0,0:0:0
212,100,43334,2,0,B|212:44,2,39.9999952316285,2|2|8,0:0|0:0|0:0,0:0:0
148,148,43966,1,2,0:0:0
124,224,44281,1,8,0:0:0
128,304,44597,6,0,B|212:304,1,79.999990463257,6|8,0:0|0:0,0:0:0
284,332,45229,2,0,B|284:372,2,39.9999952316285,0|0|8,0:0|0:0|0:0,0:0:0
312,304,45702,2,0,B|316:240|385:220,1,119.999985694885,0|8,0:0|0:0,0:0:0
460,192,46492,2,0,B|388:152,1,79.999990463257,2|8,0:0|0:0,0:0:0
348,84,47124,6,0,B|380:52,2,39.9999952316285,2|2|8,0:0|0:0|0:0,0:0:0
268,84,47755,2,0,B|236:52,2,39.9999952316285,2|2|8,0:0|0:0|0:0,0:0:0
268,164,48387,2,0,B|236:196,2,39.9999952316285,2|2|8,0:0|0:0|0:0,0:0:0
348,164,49018,2,0,B|380:196,2,39.9999952316285,2|2|8,0:0|0:0|0:0,0:0:0
336,84,49650,6,0,B|272:32|184:40,1,159.999980926514,4|2,0:0|0:0,0:0:0
148,48,50439,1,2,0:0:0
84,96,50755,2,0,B|48:148|84:212,1,119.999985694885,2|8,0:0|0:0,0:0:0
148,256,51545,2,0,B|185:274|225:270,1,79.999990463257,2|8,0:0|0:0,0:0:0
284,216,52176,5,2,0:0:0
284,136,52492,1,8,0:0:0
343,82,52808,2,0,B|384:79|420:99,1,79.999990463257,2|8,0:0|0:0,0:0:0
468,164,53439,2,0,B|471:204|451:241,1,79.999990463257,2|8,0:0|0:0,0:0:0
391,294,54071,1,2,0:0:0
314,316,54387,1,8,0:0:0
236,316,54702,6,0,B|148:300|116:220,1,159.999980926514,4|10,0:0|0:0,0:0:0
148,64,55966,2,0,B|236:80|268:160,1,159.999980926514,2|10,0:0|0:0,0:0:0
328,308,57229,6,0,B|416:292|448:212,1,159.999980926514,4|10,0:0|0:0,0:0:0
416,56,58492,2,8,B|328:72|296:152,1,159.999980926514,2|10,0:0|0:0,0:0:0
256,192,59755,12,4,62281,0:0:0
260,336,63545,6,0,B|220:336,2,39.9999952316285
300,336,64018,2,0,B|356:279,1,79.999990463257,0|8,0:0|0:0,0:0:0
368,160,64808,6,0,B|325:166|304:122,1,79.999990463257,4|8,0:0|0:0,0:0:0
236,80,65439,2,0,B|236:32,2,39.9999952316285,0|0|8,0:0|0:0|0:0,0:0:0
236,160,66071,2,0,B|220:200|172:196,1,79.999990463257,0|8,0:0|0:0,0:0:0
104,240,66702,2,0,B|120:280|168:276,1,79.999990463257,0|8,0:0|0:0,0:0:0
244,300,67334,6,0,B|316:252,1,79.999990463257,0|8,0:0|0:0,0:0:0
392,256,67966,2,0,B|424:280,2,39.9999952316285,0|0|8,0:0|0:0|0:0,0:0:0
368,180,68597,2,0,B|368:100,1,79.999990463257,0|8,0:0|0:0,0:0:0
292,72,69229,2,0,B|212:71,1,79.999990463257,0|8,0:0|0:0,0:0:0
132,84,69860,6,0,B|104:120|132:160,1,79.999990463257,4|8,0:0|0:0,0:0:0
196,204,70492,2,0,B|196:248,2,39.9999952316285,0|0|8,0:0|0:0|0:0,0:0:0
220,128,71124,2,0,B|258:116|298:128,1,79.999990463257,0|8,0:0|0:0,0:0:0
352,188,71755,2,0,B|396:188,2,39.9999952316285,0|0|8,0:0|0:0|0:0,0:0:0
300,248,72387,6,0,B|220:248,1,79.999990463257,0|8,0:0|0:0,0:0:0
220,168,73018,2,0,B|220:120,2,39.9999952316285,0|0|8,0:0|0:0|0:0,0:0:0
300,168,73650,2,0,B|384:168,1,79.999990463257,0|8,0:0|0:0,0:0:0
444,216,74281,1,0,0:0:0
444,216,74597,1,8,0:0:0
396,280,74913,6,0,B|360:296|324:312,1,79.999990463257,4|8,0:0|0:0,0:0:0
288,240,75545,2,0,B|252:224|216:208,1,79.999990463257,0|8,0:0|0:0,0:0:0
144,168,76176,2,0,B|140:80|228:44,1,159.999980926514,0|0,0:0|0:0,0:0:0
308,48,77124,1,8,0:0:0
384,76,77439,6,0,B|400:112|416:148,1,79.999990463257,0|8,0:0|0:0,0:0:0
344,184,78071,2,0,B|328:220|312:256,1,79.999990463257,0|8,0:0|0:0,0:0:0
232,256,78702,2,0,B|174:225|116:256,2,119.999985694885,0|0|8,0:0|0:0|0:0,0:0:0
304,292,79966,6,0,B|384:292,1,79.999990463257,4|8,0:0|0:0,0:0:0
460,268,80597,1,0,0:0:0
460,188,80913,1,8,0:0:0
460,108,81229,1,0,0:0:0
384,84,81545,2,0,B|344:68|306:84,2,79.999990463257,8|0|8,0:0|0:0|0:0,0:0:0
384,164,82492,6,0,B|346:180|306:164,1,79.999990463257,0|8,0:0|0:0,0:0:0
224,164,83124,1,0,0:0:0
144,164,83439,1,8,0:0:0
64,164,83755,1,0,0:0:0
52,244,84071,2,0,B|89:254|111:294,1,79.999990463257,8|0,0:0|0:0,0:0:0
180,332,84702,6,0,B|228:268,1,79.999990463257,8|4,0:0|0:0,0:0:0
256,192,85334,1,8,0:0:0
228,116,85650,2,0,B|189:46,1,79.999990463257,0|8,0:0|0:0,0:0:0
108,48,86281,2,0,B|28:48,1,79.999990463257,0|8,0:0|0:0,0:0:0
28,128,86913,2,0,B|108:128,1,79.999990463257,0|8,0:0|0:0,0:0:0
187,127,87545,6,0,B|292:112|292:212,1,159.999980926514,4|0,0:0|0:0,0:0:0
184,328,88808,2,0,B|79:343|79:243,1,159.999980926514
3,103,90071,2,0,B|80:76|160:104,1,159.999980926514,0|8,0:0|0:0,0:0:0
292,196,91334,5,4,0:0:0
292,356,91966,1,4,0:0:0
256,192,92597,12,4,95124,0:0:0
