osu file format v10

[General]
AudioFilename: Road of Major - Kokoroe.mp3
AudioLeadIn: 2000
PreviewTime: 64696
Countdown: 0
SampleSet: Normal
StackLeniency: 0.7
Mode: 0
LetterboxInBreaks: 0

[Editor]
DistanceSpacing: 1.2
BeatDivisor: 4
GridSize: 4

[Metadata]
Title:Kokoroe (TV Size)
TitleUnicode:Kokoroe (TV Size)
Artist:Road of Major
ArtistUnicode:Road of Major
Creator:P o M u T a
Version:Hard
Source:MAJOR
Tags:Opening kajiyatta rom
BeatmapID:177428
BeatmapSetID:59135

[Difficulty]
HPDrainRate:5
CircleSize:4
OverallDifficulty:6
ApproachRate:7
SliderMultiplier:1.19999990463257
SliderTickRate:1

[Events]
//Background and Video events
0,0,"img_546886_13181945_3.jpg"
//Break Periods
//Storyboard Layer 0 (Background)
//Storyboard Layer 1 (Fail)
//Storyboard Layer 2 (Pass)
//Storyboard Layer 3 (Foreground)
//Storyboard Sound Samples
//Background Colour Transformations
3,100,163,162,255

[TimingPoints]
-876,315.789473684211,4,2,1,50,1,0
1018,-200,4,2,1,50,0,0
19334,-100,4,2,1,70,0,0
54702,-100,4,2,1,60,0,0
64808,-100,4,1,1,80,0,1
93229,-100,4,1,1,70,0,1
93545,-100,4,1,1,60,0,1
93860,-100,4,1,1,50,0,1
94176,-100,4,1,1,40,0,1
94492,-100,4,1,1,30,0,1
94808,-100,4,1,1,20,0,1
95124,-100,4,1,1,80,0,0

[Colours]
Combo1 : 255,128,128
Combo2 : 0,200,0
Combo3 : 0,0,160

[HitObjects]
124,152,1018,1,0,0:0:0
216,152,1334,1,0,0:0:0
308,152,1650,1,2,0:0:0
384,96,1966,1,0,0:0:0
384,96,2281,2,0,B|412:128|412:176|384:208,1,119.999990463257,0|2,0:0|0:0,0:0:0
316,260,3229,1,0,0:0:0
372,332,3545,2,0,B|340:360|292:360|260:332,1,119.999990463257,0|2,0:0|0:0,0:0:0
196,272,4492,1,0,0:0:0
124,216,4808,2,0,B|92:152|126:102,1,119.999990463257,0|2,0:0|0:0,0:0:0
200,52,5755,1,0,0:0:0
287,32,6071,6,0,B|345:54|405:44,1,119.999990463257,0|2,0:0|0:0,0:0:0
448,124,7018,1,0,0:0:0
448,124,7334,2,0,B|416:180|448:240,1,119.999990463257,0|2,0:0|0:0,0:0:0
368,284,8281,1,0,0:0:0
368,284,8597,2,0,B|313:253|252:254,1,119.999990463257,0|2,0:0|0:0,0:0:0
164,268,9545,5,0,0:0:0
100,208,9860,1,0,0:0:0
120,120,10176,1,0,0:0:0
152,36,10492,1,2,0:0:0
224,92,10808,1,0,0:0:0
296,36,11124,1,2,0:0:0
364,92,11439,1,0,0:0:0
452,92,11755,6,0,B|444:160|376:172,1,119.999990463257,6|0,0:0|0:0,0:0:0
296,212,12702,1,0,0:0:0
268,298,13018,2,0,B|335:317|372:260,1,119.999990463257,2|0,0:0|0:0,0:0:0
296,212,13966,1,0,0:0:0
208,199,14281,2,0,B|216:130|283:119,1,119.999990463257,2|0,0:0|0:0,0:0:0
372,108,15229,1,0,0:0:0
464,108,15545,2,0,B|462:38|397:19,1,119.999990463257,2|0,0:0|0:0,0:0:0
308,28,16492,1,0,0:0:0
256,192,16808,12,0,18702,0:0:0
168,192,19334,5,8,0:0:0
168,220,19492,1,0,0:0:0
376,188,20597,5,8,0:0:0
376,156,20755,1,0,0:0:0
256,372,21860,5,8,0:0:0
256,340,22018,1,0,0:0:0
256,104,23124,6,0,B|316:104,1,59.9999952316285,8|0,0:0|0:0,0:0:0
316,104,23439,2,0,B|380:104,1,59.9999952316285,8|8,0:0|0:0,0:0:0
376,104,23755,2,0,B|408:104,4,29.9999976158143,8|0|8|0|8,0:0|0:0|0:0|0:0|0:0,0:0:0
420,240,24387,6,0,B|408:308|339:315,1,119.999990463257,6|8,0:0|0:0,0:0:0
339,314,24860,1,0,0:0:0
344,240,25018,2,0,B|252:164,1,119.999990463257,2|8,0:0|0:0,0:0:0
192,120,25492,1,0,0:0:0
192,120,25650,2,0,B|144:80|80:88,1,119.999990463257,2|8,0:0|0:0,0:0:0
40,148,26124,1,0,0:0:0
40,148,26281,2,0,B|4:196,2,59.9999952316285,2|0|8,0:0|0:0|0:0,0:0:0
120,268,26913,5,2,0:0:0
120,268,27071,2,0,B|180:268,1,59.9999952316285,0|8,0:0|0:0,0:0:0
308,200,27545,1,2,0:0:0
308,200,27702,2,0,B|248:200,1,59.9999952316285,0|8,0:0|0:0,0:0:0
120,132,28176,1,2,0:0:0
120,132,28334,2,0,B|180:132,1,59.9999952316285,0|8,0:0|0:0,0:0:0
320,96,28808,2,0,B|320:36,2,59.9999952316285,2|0|8,0:0|0:0|0:0,0:0:0
452,152,29439,6,0,B|484:212|456:268,1,119.999990463257,2|8,0:0|0:0,0:0:0
424,332,29913,1,0,0:0:0
364,292,30071,2,0,B|304:264|248:292,1,119.999990463257,2|8,0:0|0:0,0:0:0
185,327,30545,1,0,0:0:0
128,284,30702,6,0,B|128:164,1,119.999990463257,2|8,0:0|0:0,0:0:0
72,112,31176,1,0,0:0:0
72,112,31334,2,0,B|127:70|182:112,1,119.999990463257,2|8,0:0|0:0,0:0:0
232,164,31808,1,0,0:0:0
296,128,31966,6,0,B|296:60,2,59.9999952316285,2|0|8,0:0|0:0|0:0,0:0:0
360,164,32439,2,0,B|428:164,2,59.9999952316285,0|2|0,0:0|0:0|0:0,0:0:0
296,196,32913,1,8,0:0:0
296,196,33071,1,0,0:0:0
356,236,33229,6,0,B|340:296|264:300,1,119.999990463257,2|8,0:0|0:0,0:0:0
136,148,33860,2,0,B|152:88|228:84,1,119.999990463257,2|8,0:0|0:0,0:0:0
368,112,34492,6,0,B|352:172|276:176,1,119.999990463257,4|8,0:0|0:0,0:0:0
208,192,34966,1,0,0:0:0
136,208,35124,2,0,B|76:224,2,59.9999952316285,2|0|8,0:0|0:0|0:0,0:0:0
188,260,35597,1,0,0:0:0
248,300,35755,2,0,B|368:300,1,119.999990463257,2|8,0:0|0:0,0:0:0
440,300,36229,1,0,0:0:0
440,227,36387,2,0,B|440:103,1,119.999990463257,2|8,0:0|0:0,0:0:0
390,54,36860,1,0,0:0:0
328,92,37018,6,0,B|272:64|212:92,1,119.999990463257,2|8,0:0|0:0,0:0:0
148,124,37492,1,0,0:0:0
96,172,37650,2,0,B|68:228|96:288,1,119.999990463257,2|8,0:0|0:0,0:0:0
232,292,38281,2,0,B|336:232,1,119.999990463257,2|8,0:0|0:0,0:0:0
272,88,38913,2,0,B|168:148,1,119.999990463257,2|8,0:0|0:0,0:0:0
116,284,39545,6,0,B|176:284,1,59.9999952316285,2|0,0:0|0:0,0:0:0
248,284,39860,2,0,B|248:336,2,29.9999976158143,8|0|0,0:0|0:0|0:0,0:0:0
248,211,40176,2,0,B|312:211,1,59.9999952316285,2|0,0:0|0:0,0:0:0
380,211,40492,2,0,B|380:247,2,29.9999976158143,8|0|0,0:0|0:0|0:0,0:0:0
364,140,40808,5,2,0:0:0
324,80,40966,1,0,0:0:0
256,56,41124,2,0,B|196:56,1,59.9999952316285,8|0,0:0|0:0,0:0:0
196,128,41439,2,0,B|76:128,1,119.999990463257,2|8,0:0|0:0,0:0:0
256,192,42071,12,4,44597,0:0:0
280,280,44913,6,0,B|400:280,1,119.999990463257,8|0,0:0|0:0,0:0:0
444,224,45387,1,0,0:0:0
444,224,45545,1,8,0:0:0
444,224,45702,2,0,B|408:136|300:128,1,179.999985694886,0|8,0:0|0:0,0:0:0
236,104,46334,1,0,0:0:0
164,92,46492,6,0,B|164:28,1,59.9999952316285,2|0,0:0|0:0,0:0:0
112,136,46808,2,0,B|112:204,1,59.9999952316285,8|0,0:0|0:0,0:0:0
112,268,47124,5,2,0:0:0
168,312,47281,1,0,0:0:0
236,333,47439,1,8,0:0:0
306,318,47597,1,0,0:0:0
368,282,47755,2,0,B|428:282,1,59.9999952316285,2|0,0:0|0:0,0:0:0
481,233,48071,2,0,B|481:175,1,59.9999952316285,8|0,0:0|0:0,0:0:0
412,149,48387,6,0,B|352:149,1,59.9999952316285,2|0,0:0|0:0,0:0:0
301,97,48702,2,0,B|301:37,2,59.9999952316285,8|0|2,0:0|0:0|0:0,0:0:0
250,149,49176,2,0,B|190:149,1,59.9999952316285,0|8,0:0|0:0,0:0:0
48,116,49650,6,0,B|48:236,1,119.999990463257,6|8,0:0|0:0,0:0:0
156,332,50281,2,0,B|182:350|212:332,1,59.9999952316285,2|0,0:0|0:0,0:0:0
272,292,50597,1,8,0:0:0
332,252,50755,2,0,B|384:204|344:152|404:92,1,179.999985694886,0|8,0:0|0:0,0:0:0
272,28,51545,2,0,B|212:48|154:28,1,119.999990463257,2|8,0:0|0:0,0:0:0
44,120,52176,5,2,0:0:0
44,120,52334,2,0,B|44:180,1,59.9999952316285,0|8,0:0|0:0,0:0:0
112,308,52808,1,2,0:0:0
112,308,52966,2,0,B|112:248,1,59.9999952316285,0|8,0:0|0:0,0:0:0
180,120,53439,1,2,0:0:0
180,120,53597,2,0,B|180:180,1,59.9999952316285,0|8,0:0|0:0,0:0:0
256,304,54071,5,0,0:0:0
348,192,54387,1,8,0:0:0
256,80,54702,1,4,0:0:0
164,192,55018,2,0,B|104:192,2,59.9999952316285
196,304,55650,2,0,B|256:304,1,59.9999952316285,8|0,0:0|0:0,0:0:0
340,288,55966,6,0,B|340:348,2,59.9999952316285,2|0|0,0:0|0:0|0:0,0:0:0
456,232,56597,1,8,0:0:0
388,104,56913,2,0,B|324:104,1,59.9999952316285,0|0,0:0|0:0,0:0:0
280,48,57229,6,0,B|196:48,1,59.9999952316285,6|0,0:0|0:0,0:0:0
180,108,57545,2,0,B|120:108,2,59.9999952316285,0|0|10,0:0|0:0|0:0,0:0:0
180,252,58176,2,0,B|120:252,1,59.9999952316285,2|2,0:0|0:0,0:0:0
252,312,58650,2,0,B|312:312,1,59.9999952316285,2|2,0:0|0:0,0:0:0
454,338,59124,2,0,B|470:274|454:219,1,119.999990463257,8|0,0:0|0:0,0:0:0
396,88,59755,6,0,B|332:88,1,59.9999952316285,6|0,0:0|0:0,0:0:0
288,144,60071,2,0,B|224:144,1,59.9999952316285,8|0,0:0|0:0,0:0:0
156,144,60387,2,0,B|96:144,2,59.9999952316285,2|0|8,0:0|0:0|0:0,0:0:0
96,276,61018,6,0,B|156:276,1,59.9999952316285,2|0,0:0|0:0,0:0:0
204,332,61334,2,0,B|268:332,1,59.9999952316285,8|2,0:0|0:0,0:0:0
336,332,61650,2,0,B|404:332,2,59.9999952316285,2|0|8,0:0|0:0|0:0,0:0:0
256,192,62281,12,0,64334,0:0:0
104,240,64808,6,0,B|168:240,1,59.9999952316285,4|0,0:0|0:0,0:0:0
244,212,65124,2,0,B|288:172,1,59.9999952316285,8|0,0:0|0:0,0:0:0
348,112,65439,2,0,B|348:52,2,59.9999952316285,0|0|8,0:0|0:0|0:0,0:0:0
408,172,65913,1,0,0:0:0
444,248,66071,2,0,B|394:291|338:302,1,119.999990463257,0|8,0:0|0:0,0:0:0
256,320,66545,1,0,0:0:0
176,296,66702,1,0,0:0:0
106,249,66860,1,0,0:0:0
63,176,67018,2,0,B|57:110|80:58,1,119.999990463257,8|0,0:0|0:0,0:0:0
248,68,67650,6,0,B|308:68,1,59.9999952316285,8|0,0:0|0:0,0:0:0
368,128,67966,1,0,0:0:0
414,198,68124,1,0,0:0:0
399,280,68281,2,0,B|339:280,1,59.9999952316285,8|0,0:0|0:0,0:0:0
256,264,68597,2,0,B|188:264,2,59.9999952316285,0|0|8,0:0|0:0|0:0,0:0:0
116,172,69229,2,0,B|184:172,2,59.9999952316285,0|0|8,0:0|0:0|0:0,0:0:0
225,44,69860,6,0,B|285:60|343:44,1,119.999990463257,4|8,0:0|0:0,0:0:0
424,192,70492,1,0,0:0:0
452,272,70650,2,0,B|452:332,1,59.9999952316285,0|8,0:0|0:0,0:0:0
368,324,70966,2,0,B|308:304|250:323,1,119.999990463257,0|0,0:0|0:0,0:0:0
250,322,71439,1,8,0:0:0
250,322,71597,1,0,0:0:0
108,332,71913,2,0,B|64:372,2,59.9999952316285,0|8|0,0:0|0:0|0:0,0:0:0
100,236,72387,6,0,B|100:168,1,59.9999952316285,0|0,0:0|0:0,0:0:0
184,160,72702,2,0,B|184:92,1,59.9999952316285,8|0,0:0|0:0,0:0:0
244,40,73018,2,0,B|308:40,1,59.9999952316285,0|0,0:0|0:0,0:0:0
340,116,73334,2,0,B|280:116,1,59.9999952316285,8|0,0:0|0:0,0:0:0
284,200,73650,5,0,0:0:0
284,200,73808,1,0,0:0:0
200,200,73966,2,0,B|200:260,2,59.9999952316285,8|0|0,0:0|0:0|0:0,0:0:0
135,146,74439,1,0,0:0:0
135,146,74597,1,8,0:0:0
264,36,74913,6,0,B|320:4|380:36,1,119.999990463257,6|8,0:0|0:0,0:0:0
464,180,75545,2,0,B|496:236|464:296,1,119.999990463257,2|8,0:0|0:0,0:0:0
304,248,76176,2,0,B|248:280|188:248,1,119.999990463257,2|8,0:0|0:0,0:0:0
20,240,76808,2,0,B|-12:184|20:124,1,119.999990463257,2|8,0:0|0:0,0:0:0
184,84,77439,6,0,B|308:84,1,119.999990463257,2|8,0:0|0:0,0:0:0
388,96,77913,1,0,0:0:0
472,108,78071,2,0,B|472:36,2,59.9999952316285,2|0|8,0:0|0:0|0:0,0:0:0
472,192,78545,1,0,0:0:0
472,276,78702,2,0,B|354:302,1,119.999990463257,2|8,0:0|0:0,0:0:0
376,220,79176,2,0,B|258:193,1,119.999990463257,0|0,0:0|0:0,0:0:0
258,193,79650,1,8,0:0:0
188,48,79966,6,0,B|116:44|88:100,1,119.999990463257,4|8,0:0|0:0,0:0:0
258,193,80597,1,0,0:0:0
258,193,80755,1,0,0:0:0
258,193,80913,1,8,0:0:0
448,272,81229,2,0,B|420:328|348:324,1,119.999990463257,0|8,0:0|0:0,0:0:0
258,193,81860,1,0,0:0:0
258,193,82018,1,0,0:0:0
258,193,82176,1,8,0:0:0
348,60,82492,6,0,B|420:56|448:112,1,119.999990463257,0|8,0:0|0:0,0:0:0
258,193,83124,1,0,0:0:0
258,193,83281,1,0,0:0:0
258,193,83439,1,8,0:0:0
164,324,83755,2,0,B|92:328|64:272,1,119.999990463257,0|8,0:0|0:0,0:0:0
258,193,84387,1,0,0:0:0
258,193,84545,1,0,0:0:0
258,193,84702,1,8,0:0:0
384,84,85018,6,0,B|264:84,1,119.999990463257,4|8,0:0|0:0,0:0:0
188,48,85492,2,0,B|68:48,1,119.999990463257
68,48,85966,1,8,0:0:0
40,212,86281,2,0,B|40:272|120:288,1,119.999990463257,0|8,0:0|0:0,0:0:0
200,312,86755,1,0,0:0:0
280,337,86913,2,0,B|338:377|392:336,2,119.999990463257,0|8|4,0:0|0:0|0:0,0:0:0
256,192,88176,5,0,0:0:0
184,236,88492,1,8,0:0:0
112,192,88808,1,0,0:0:0
256,192,89439,5,0,0:0:0
328,148,89755,1,8,0:0:0
400,192,90071,1,0,0:0:0
256,192,90702,5,0,0:0:0
184,148,91018,1,8,0:0:0
148,72,91334,2,0,B|208:12|304:12|364:72,2,239.999980926514,12|8|4,0:0|0:0|0:0,0:0:0
256,192,92676,12,4,95124,0:0:0
