osu file format v10

[General]
AudioFilename: Road of Major - Kokoroe.mp3
AudioLeadIn: 2000
PreviewTime: 64696
Countdown: 0
SampleSet: Soft
StackLeniency: 0.7
Mode: 0
LetterboxInBreaks: 0

[Editor]
DistanceSpacing: 1
BeatDivisor: 4
GridSize: 4

[Metadata]
Title:Kokoroe (TV Size)
TitleUnicode:Kokoroe (TV Size)
Artist:Road of Major
ArtistUnicode:Road of Major
Creator:P o M u T a
Version:Easy
Source:MAJOR
Tags:Opening kajiyatta rom
BeatmapID:178144
BeatmapSetID:59135

[Difficulty]
HPDrainRate:2
CircleSize:3
OverallDifficulty:2
ApproachRate:3
SliderMultiplier:0.600000005960464
SliderTickRate:1

[Events]
//Background and Video events
0,0,"img_546886_13181945_3.jpg"
//Break Periods
//Storyboard Layer 0 (Background)
//Storyboard Layer 1 (Fail)
//Storyboard Layer 2 (Pass)
//Storyboard Layer 3 (Foreground)
//Storyboard Sound Samples
//Background Colour Transformations
3,100,163,162,255

[TimingPoints]
-876,315.789473684211,4,2,1,50,1,0
19334,-100,4,2,1,55,0,0
24071,-100,4,2,1,70,0,0
32439,-100,4,2,2,60,0,0
32755,-100,4,2,1,70,0,0
47439,-100,4,2,1,50,0,0
49334,-100,4,2,1,70,0,0
52492,-100,4,2,1,50,0,0
54387,-100,4,2,1,70,0,0
55176,-100,4,2,2,60,0,0
55492,-100,4,2,1,70,0,0
56281,-100,4,2,1,60,0,0
56913,-100,4,2,1,70,0,0
57702,-100,4,2,2,70,0,0
58018,-100,4,2,1,70,0,0
58808,-100,4,2,1,60,0,0
59439,-100,4,2,1,70,0,0
64808,-100,4,2,1,80,0,1
67966,-100,4,2,1,70,0,1
69229,-100,4,2,1,80,0,1
73966,-100,4,2,1,70,0,1
74597,-100,4,2,1,90,0,1
79650,-100,4,2,1,80,0,1
87229,-100,4,2,1,60,0,1
88808,-100,4,2,1,70,0,1
90702,-100,4,2,1,80,0,1
92281,-100,4,2,1,80,0,1
93229,-100,4,2,1,70,0,1
93545,-100,4,2,1,60,0,1
93860,-100,4,2,1,50,0,1
94176,-100,4,2,1,40,0,1
94492,-100,4,2,1,30,0,1
94808,-100,4,2,1,20,0,1
95124,-100,4,2,1,80,0,0

[Colours]
Combo1 : 255,128,128
Combo2 : 0,200,0
Combo3 : 0,0,160

[HitObjects]
32,264,1018,1,0,0:0:0
151,279,1650,2,0,B|211:299|268:278,1,120.000001192093,2|0,0:0|0:0,0:0:0
388,264,2913,1,2,0:0:0
388,144,3545,1,0,0:0:0
288,80,4176,6,0,B|228:60|170:79,1,120.000001192093,2|0,0:0|0:0,0:0:0
116,184,5439,1,2,0:0:0
224,236,6071,1,0,0:0:0
328,180,6702,6,0,B|347:237|327:297,2,120.000001192093,2|0|2,0:0|0:0|0:0,0:0:0
284,68,8597,1,0,0:0:0
168,100,9229,2,0,B|111:128|84:182,2,120.000001192093,2|0|2,0:0|0:0|0:0,0:0:0
284,68,11124,1,0,0:0:0
396,108,11755,6,0,B|468:124|492:192|468:260|396:276,1,240.000002384186,2|2,0:0|0:0,0:0:0
308,192,13650,1,0,0:0:0
220,276,14281,2,0,B|147:259|123:191|147:123|219:107,1,240.000002384186,2|2,0:0|0:0,0:0:0
332,72,16176,1,0,0:0:0
256,192,16808,12,8,19334,0:0:0
256,304,20597,6,0,B|308:304|316:296|316:296|324:304|373:303,1,120.000001192093,8|0,0:0|0:0,0:0:0
448,208,21860,2,0,B|396:208|388:216|388:216|380:208|330:208,1,120.000001192093,8|0,0:0|0:0,0:0:0
256,112,23124,1,8,0:0:0
56,244,24387,6,0,B|112:208|168:244,1,120.000001192093,4|8,0:0|0:0,0:0:0
268,312,25650,2,0,B|324:348|380:311,1,120.000001192093,0|8,0:0|0:0,0:0:0
360,192,26913,2,0,B|276:192|276:192|244:208,2,120.000001192093,0|8|0,0:0|0:0|0:0,0:0:0
480,192,28808,1,8,0:0:0
395,276,29439,6,0,B|348:316|285:319,1,120.000001192093,0|8,0:0|0:0,0:0:0
164,320,30702,2,0,B|101:317|53:277,1,120.000001192093,0|8,0:0|0:0,0:0:0
28,160,31966,2,0,B|143:108|260:158,1,240.000002384186,8|8,0:0|0:0,0:0:0
364,220,33860,1,8,0:0:0
424,116,34492,6,0,B|364:128|364:100|305:116,1,120.000001192093,4|8,0:0|0:0,0:0:0
245,219,35755,2,0,B|305:231|305:203|364:220,1,120.000001192093,0|8,0:0|0:0,0:0:0
424,324,37018,2,0,B|364:336|364:308|305:324,2,120.000001192093,4|8|0,0:0|0:0|0:0,0:0:0
496,228,38913,1,8,0:0:0
424,132,39545,6,0,B|304:132,1,120.000001192093,4|8,0:0|0:0,0:0:0
196,76,40808,2,0,B|160:132|196:188,1,120.000001192093,0|8,0:0|0:0,0:0:0
276,280,42071,1,0,0:0:0
396,280,42702,1,8,0:0:0
396,160,43334,2,0,B|276:160,1,120.000001192093,0|8,0:0|0:0,0:0:0
160,128,44597,6,0,B|160:68,2,60.0000005960464,4|8|0,0:0|0:0|0:0,0:0:0
60,192,45860,2,0,B|76:254|142:269,1,120.000001192093,0|8,0:0|0:0,0:0:0
256,312,47124,2,0,B|316:312,2,60.0000005960464,4|8|8,0:0|0:0|0:0,0:0:0
256,192,48387,2,0,B|196:192,2,60.0000005960464,8|8|8,0:0|0:0|0:0,0:0:0
376,192,49650,6,0,B|359:129|293:114,1,120.000001192093,4|8,0:0|0:0,0:0:0
172,116,50913,2,0,B|105:131|89:193,1,120.000001192093,0|8,0:0|0:0,0:0:0
60,308,52176,2,0,B|0:308,2,60.0000005960464,4|8|8,0:0|0:0|0:0,0:0:0
180,308,53439,2,0,B|240:308,2,60.0000005960464,8|8|8,0:0|0:0|0:0,0:0:0
118,202,54702,6,0,B|168:156|228:140|288:156|332:204,1,240.000002384186,4|0,0:0|0:0,0:0:0
436,264,56597,1,8,0:0:0
332,324,57229,2,0,B|282:370|222:386|162:370|118:322,1,240.000002384186,4|0,0:0|0:0,0:0:0
222,263,59124,1,8,0:0:0
323,200,59755,6,0,B|368:148|323:91,1,120.000001192093,4|8,0:0|0:0,0:0:0
216,148,61018,2,0,B|96:148,1,120.000001192093,0|8,0:0|0:0,0:0:0
24,244,62281,2,0,B|40:304|108:320,1,120.000001192093,4|8,0:0|0:0,0:0:0
228,328,63545,2,0,B|380:328,1,150.000001490116,4|0,0:0|0:0,0:0:0
452,276,64808,6,0,B|432:217|470:217|449:158,1,120.000001192093,4|8,0:0|0:0,0:0:0
428,40,66071,2,0,B|369:60|369:22|310:42,1,120.000001192093,8|8,0:0|0:0,0:0:0
198,85,67334,2,0,B|132:85,2,60.0000005960464,8|8|8,0:0|0:0|0:0,0:0:0
276,176,68597,2,0,B|336:176,2,60.0000005960464,8|8|8,0:0|0:0|0:0,0:0:0
182,251,69860,5,4,0:0:0
258,343,70492,1,8,0:0:0
334,251,71124,2,0,B|386:211|381:146,1,120.000001192093,8|8,0:0|0:0,0:0:0
312,48,72387,2,0,B|252:48,2,60.0000005960464,8|8|8,0:0|0:0|0:0,0:0:0
240,144,73650,2,0,B|180:144,2,60.0000005960464,8|8|8,0:0|0:0|0:0,0:0:0
344,204,74913,5,4,0:0:0
404,308,75545,1,8,0:0:0
284,308,76176,2,0,B|226:328|166:308,1,120.000001192093,8|8,0:0|0:0,0:0:0
224,204,77439,1,8,0:0:0
284,100,78071,2,0,B|224:80|167:101,2,120.000001192093,8|8|8,0:0|0:0|0:0,0:0:0
400,132,79966,6,0,B|457:173|436:237,2,120.000001192093,4|8|8,0:0|0:0|0:0,0:0:0
304,60,81860,1,8,0:0:0
208,132,82492,2,0,B|151:172|172:237,2,120.000001192093,8|8|8,0:0|0:0|0:0,0:0:0
296,212,84387,1,8,0:0:0
351,315,85018,6,0,B|295:339|235:315,1,120.000001192093,4|8,0:0|0:0,0:0:0
179,211,86281,2,0,B|235:187|296:212,1,120.000001192093,4|8,0:0|0:0,0:0:0
384,292,87545,2,8,B|428:180,2,120.000001192093,8|8|8,0:0|0:0|0:0,0:0:0
296,208,89439,1,8,0:0:0
284,328,90071,6,0,B|172:284,1,120.000001192093,8|8,0:0|0:0,0:0:0
96,192,91334,1,8,0:0:0
216,192,91966,1,8,0:0:0
156,88,92597,1,4,0:0:0
256,192,92755,12,4,95124,0:0:0
