osu file format v5

[General]
AudioFilename: Major - 01.mp3
AudioLeadIn: 0
PreviewTime: -1
Countdown: 1
SampleSet: Normal
StackLeniency: 0.7
Mode: 0
LetterboxInBreaks: 1

[Metadata]
Title:Kokoroe
Artist:Road of Major
Creator:Piku184
Version:Normal
Source:
Tags:

[Difficulty]
HPDrainRate:7
CircleSize:5
OverallDifficulty:7
SliderMultiplier:0.5
SliderTickRate:0.5

[Events]
//Background and Video events
1,0,"Major - 01.avi"
0,0,"Major - 11.avi_000529236.jpg"
//Break Periods
2,50311,61361
//Storyboard Layer 0 (Background)
//Storyboard Layer 1 (Failing)
//Storyboard Layer 2 (Passing)
//Storyboard Layer 3 (Foreground)
//Storyboard Sound Samples
//Background Colour Transformations
3,100,163,162,255

[TimingPoints]
2300,157.794736842105,4,1,0,100,1

[Colours]
Combo1 : 249,249,249
Combo2 : 232,83,79
Combo3 : 52,70,235

[HitObjects]
64,32,2299,1,0
128,32,2615,1,0
192,32,2931,1,0
256,32,3246,1,0
320,32,3562,1,0
384,32,3877,1,0
448,32,4193,1,4
448,160,4824,5,0
384,160,5140,1,0
320,160,5455,1,0
256,160,5771,1,0
192,160,6087,1,0
128,160,6402,1,0
64,160,6718,1,4
64,288,7349,5,0
128,288,7665,1,0
192,288,7980,1,0
352,288,8611,1,0
288,192,9242,1,0
224,192,9558,1,0
160,192,9874,1,0
96,192,10189,2,0,B|64:64|64:32|192:32|384:32,1,400
384,64,11767,1,4
384,192,12398,5,0
320,192,12714,1,0
256,192,13030,1,0
192,192,13345,1,0
128,192,13661,1,0
128,256,13976,1,0
128,192,14292,1,4
256,192,14923,5,0
320,192,15239,1,0
384,192,15554,1,0
384,128,15870,1,0
320,128,16185,1,0
256,128,16501,1,0
192,128,16817,1,4
96,224,17448,5,0
160,224,17763,1,0
224,224,18079,1,0
320,288,18710,1,0
384,224,19341,1,0
320,224,19657,1,0
256,224,19973,1,0
192,224,20288,1,0
128,224,20604,1,4
128,96,21235,5,0
192,96,21550,1,0
256,96,21866,2,0,B|320:192,4,100
128,96,23760,5,0
128,160,24075,1,0
128,224,24391,1,0
128,288,24706,1,0
192,288,25022,1,0
224,224,25338,1,0
288,224,25653,1,4
256,96,26284,6,0,B|320:256|224:288,1,200
128,128,27547,1,0
96,256,28178,1,0
160,256,28493,1,0
224,256,28809,1,0
288,256,29125,1,0
352,256,29440,1,0
352,192,29756,1,0
288,192,30071,1,0
288,128,30387,1,0
352,128,30703,1,4
128,224,31334,5,0
192,224,31649,1,0
256,224,31965,1,0
320,224,32280,1,0
384,224,32596,1,0
384,160,32912,1,0
384,224,33227,1,4
256,224,33858,5,0
192,224,34174,1,0
128,224,34490,1,0
64,224,34805,1,0
64,160,35121,1,0
128,160,35436,1,0
192,224,35752,1,4
224,320,36383,5,0
288,320,36699,1,0
352,320,37014,2,0,B|352:192,1,100
288,224,37646,1,0
160,224,38277,1,0
96,224,38592,1,0
96,160,38908,1,0
160,160,39223,1,0
160,96,39539,1,0
288,96,40170,1,0
352,96,40486,1,0
352,96,40644,1,4
352,224,42379,5,0
288,224,42695,1,0
288,224,42853,1,0
224,224,43168,1,0
128,224,43642,1,0
128,160,43957,1,0
128,96,44273,1,0
192,96,44588,1,0
288,96,45062,1,4
384,224,47429,5,0
320,224,47744,1,0
320,224,47902,1,0
256,224,48218,1,0
192,224,48691,1,0
128,224,49007,1,0
64,224,49322,1,0
64,160,49638,1,0
160,160,50111,1,4
160,128,62261,6,0,B|96:128|64:192|128:256|192:224,3,200
192,288,64471,1,0
256,288,64786,1,0
320,288,65102,1,0
384,288,65417,1,0
384,224,65733,1,4
256,160,67627,5,0
192,160,67942,1,0
192,160,68100,1,0
128,192,68415,1,0
128,256,68731,1,0
192,288,69047,1,0
256,256,69362,1,0
320,256,69678,5,0
320,256,69836,1,0
384,256,70151,1,0
416,192,70467,1,0
352,160,70782,1,0
288,160,71098,1,4
352,256,72360,6,0,B|416:256|448:192|384:128|320:160,3,200
288,96,74569,1,0
224,96,74885,1,0
160,96,75201,1,0
96,96,75516,1,0
96,160,75832,1,4
288,192,77410,6,2,B|416:128,4,100
128,96,79619,5,0
192,96,79935,1,0
256,128,80250,1,0
256,192,80566,1,0
320,224,80881,1,0
384,224,81197,1,0
416,160,81512,1,4
416,288,82144,5,0
352,288,82459,1,0
224,288,83090,1,0
288,160,83722,1,0
224,128,84037,1,0
160,128,84353,1,0
96,160,84668,1,0
96,224,84984,1,4
96,160,85931,6,8,B|448:160,1,300
384,224,87193,6,8,B|64:224,1,300
64,160,88455,5,0
128,160,88771,1,0
256,160,89402,1,12
256,192,90033,12,4,92558
