osu file format v9

[General]
AudioFilename: Ichigeki Hissatsu.mp3
AudioLeadIn: 0
PreviewTime: 60102
Countdown: 0
SampleSet: Soft
StackLeniency: 0.6
Mode: 0
LetterboxInBreaks: 0

[Editor]
DistanceSpacing: 0.8
BeatDivisor: 4
GridSize: 4

[Metadata]
Title:Ichigeki Hissatsu Wo Ai Ni
Artist:Rizuna
Creator:AmamiyaYuko
Version:Lunatic
Source:Touhou
Tags:SuzumiyaSama hong meirin shanghai tea house Forestpireo T*GIRLS.01 Yukitsuki Alice Twice thou bad

[Difficulty]
HPDrainRate:6
CircleSize:4
OverallDifficulty:8
ApproachRate:9
SliderMultiplier:2.1
SliderTickRate:1

[Events]
//Background and Video events
0,0,"BG.jpg"
//Break Periods
2,82101,90846
//Storyboard Layer 0 (Background)
//Storyboard Layer 1 (Fail)
//Storyboard Layer 2 (Pass)
//Storyboard Layer 3 (Foreground)
//Storyboard Sound Samples
//Background Colour Transformations
3,100,163,162,255

[TimingPoints]
4174,340.909090909091,4,2,1,80,1,0
5537,-100,4,2,2,80,0,0
5622,-100,4,2,1,70,0,0
16446,-100,4,2,2,80,0,0
16531,-100,4,2,1,70,0,0
25906,-100,4,2,1,70,0,0
27270,-100,4,2,1,60,0,0
32895,-100,4,2,1,70,0,0
38264,-100,4,2,2,70,0,0
38350,-100,4,2,1,70,0,0
43037,-100,4,2,0,55,0,0
43719,-100,4,2,1,70,0,0
47725,-100,4,2,2,50,0,0
48151,-100,4,2,1,70,0,0
48321,-100,4,2,2,50,0,0
49003,-100,4,2,1,60,0,0
49174,-133.333333333333,4,2,1,60,0,0
51389,-100,4,2,1,65,0,0
51730,-133.333333333333,4,2,1,60,0,0
54117,-100,4,2,2,65,0,0
54458,-133.333333333333,4,2,1,60,0,0
56844,-100,4,2,2,65,0,0
57185,-100,4,2,2,60,0,0
58719,-100,4,2,2,65,0,0
59486,-100,4,2,1,75,0,0
60083,-100,4,2,2,86,0,1
60168,-100,4,2,1,70,0,1
62299,-100,4,2,1,75,0,1
62554,-100,4,2,1,70,0,1
68264,-100,4,2,2,85,0,1
68350,-100,4,2,1,70,0,1
68946,-100,4,2,2,85,0,1
69031,-100,4,2,1,70,0,1
69628,-100,4,2,2,85,0,1
69713,-100,4,2,1,70,0,1
69969,-100,4,2,2,85,0,1
70054,-100,4,2,1,70,0,1
70310,-100,4,2,2,85,0,1
70395,-100,4,2,1,70,0,1
70651,-100,4,2,2,85,0,1
70821,-100,4,2,1,75,0,0
70992,-100,4,2,1,85,0,1
71077,-100,4,2,1,70,0,1
73208,-100,4,2,1,75,0,1
73549,-100,4,2,1,70,0,1
79174,-100,4,2,2,85,0,1
79259,-100,4,2,1,70,0,1
79855,-100,4,2,2,85,0,1
79941,-100,4,2,1,70,0,1
80537,-100,4,2,2,85,0,1
80622,-100,4,2,1,70,0,1
80878,-100,4,2,2,85,0,1
80963,-100,4,2,1,70,0,1
81219,-100,4,2,2,85,0,1
81304,-100,4,2,1,70,0,1
81560,-100,4,2,2,85,0,1
81645,-100,4,2,1,70,0,1
81901,-100,4,2,0,75,0,0
91361,-100,4,2,1,70,0,0
92725,-100,4,2,1,60,0,0
95452,-100,4,2,1,40,0,0
95878,-100,4,2,1,45,0,0
96219,-100,4,2,1,50,0,0
96560,-100,4,2,1,55,0,0
96901,-100,4,2,1,60,0,0
97242,-100,4,2,1,65,0,0
97583,-100,4,2,1,60,0,0
98179,-100,4,2,1,70,0,0
108492,-100,4,2,0,70,0,0
109088,-100,4,2,1,70,0,0
113179,-100,4,2,2,50,0,0
113605,-100,4,2,1,70,0,0
113776,-100,4,2,2,50,0,0
114458,-100,4,2,1,60,0,0
114628,-133.333333333333,4,2,1,60,0,0
116844,-100,4,2,1,65,0,0
117100,-133.333333333333,4,2,1,60,0,0
119571,-100,4,2,2,65,0,0
119912,-133.333333333333,4,2,1,60,0,0
122299,-100,4,2,2,65,0,0
122639,-100,4,2,2,60,0,0
125196,-100,4,2,1,70,0,0
125367,-100,4,2,1,80,0,0
125537,-100,4,2,1,85,0,1
125622,-100,4,2,1,70,0,1
127668,-100,4,2,1,75,0,1
128009,-100,4,2,1,70,0,1
133719,-100,4,2,2,85,0,1
133804,-100,4,2,1,70,0,1
134401,-100,4,2,2,85,0,1
134486,-100,4,2,1,70,0,1
135083,-100,4,2,2,85,0,1
135168,-100,4,2,1,70,0,1
135424,-100,4,2,2,85,0,1
135509,-100,4,2,1,70,0,1
135764,-100,4,2,2,85,0,1
135850,-100,4,2,1,70,0,1
136105,-100,4,2,2,85,0,1
136276,-100,4,2,1,70,0,0
136446,-100,4,2,1,85,0,1
136531,-100,4,2,1,70,0,1
138662,-100,4,2,1,65,0,1
138918,-100,4,2,1,70,0,1
144628,-100,4,2,2,85,0,1
144713,-100,4,2,1,70,0,1
145310,-100,4,2,2,85,0,1
145395,-100,4,2,1,70,0,1
145992,-100,4,2,2,85,0,1
146077,-100,4,2,1,70,0,1
146333,-100,4,2,2,85,0,1
146418,-100,4,2,1,70,0,1
146674,-100,4,2,2,85,0,1
146759,-100,4,2,1,70,0,1
147014,-100,4,2,2,85,0,1
147100,-100,4,2,1,70,0,1
147355,-100,4,2,2,99,0,0

[Colours]
Combo1 : 0,128,64
Combo2 : 255,128,128
Combo3 : 128,128,255

[HitObjects]
360,112,4174,2,0,B|336:164|352:216|352:216|404:232,1,157.5,2|0
495,237,4514,2,0,B|484:188|484:188|436:160,1,105
256,164,4855,2,0,B|256:216|256:216|216:256|160:228,1,157.5,2|0
80,176,5196,2,0,B|120:140|120:140|176:144,1,105
336,200,5537,6,0,B|368:240|376:296,1,105,6|0
256,164,5878,1,8
296,300,6049,1,6
284,284,6134,1,4
268,272,6219,2,0,B|228:240|164:240,1,105,6|4
336,200,6560,1,10
412,116,6730,2,0,B|360:112,1,52.5,4|0
288,76,6901,6,0,B|320:32|380:32,2,105,6|0|8
256,164,7412,1,6
244,180,7497,1,4
232,196,7583,2,0,B|200:240|140:256,1,105,6|4
360,112,7924,2,0,B|408:132|420:196,1,105,10|4
500,156,8264,6,0,B|516:208|492:260|440:292|368:268,1,210,6|8
340,192,8776,1,6
312,208,8861,1,4
280,212,8946,1,6
144,316,9117,2,0,B|104:284|104:224,1,105,4|10
188,136,9458,1,4
280,212,9628,5,6
252,228,9713,1,4
220,236,9799,1,4
322,73,9969,1,8
296,284,10139,2,0,B|244:308,1,52.5,6|4
256,376,10310,2,0,B|308:368|352:328,1,105,6|4
280,212,10651,1,10
208,168,10821,1,4
192,156,10906,1,0
172,156,10992,6,0,B|116:160|80:200|68:264|104:316,1,210,6|8
176,248,11503,1,6
196,252,11588,1,4
216,248,11674,2,0,B|264:240|296:184,2,105,6|4|10
132,76,12185,2,0,B|99:116,1,52.5,4|0
172,156,12355,6,0,B|192:104|240:76,1,105,6|0
88,220,12696,2,0,B|76:168|100:116,1,105,8|4
32,300,13037,2,0,B|80:328|131:304,1,105,6|4
232,348,13378,2,0,B|248:296|220:248,1,105,8|4
172,156,13719,5,2
236,84,13889,1,4
236,84,13975,1,4
236,84,14230,2,0,B|292:84,2,52.5,6|4|6
172,156,14571,1,4
240,220,14742,2,0,B|352:220,1,105,10|0
484,124,15083,6,0,B|432:112,1,52.5,6|4
320,140,15253,2,0,B|372:152,1,52.5,4|4
364,64,15424,1,10
364,64,15509,1,4
240,220,15679,1,6
240,220,15764,2,0,B|188:220,2,52.5,4|0|0
76,252,16105,1,10
60,140,16276,1,4
60,140,16361,1,0
60,140,16446,6,0,B|88:88|132:60|184:52|236:84,1,210,6|8
184,152,16958,1,6
164,156,17043,1,4
148,168,17128,1,4
240,220,17299,1,4
304,160,17469,2,0,B|360:168|388:220,1,105,10|4
392,240,17725,1,0
388,260,17810,6,0,B|360:304|380:360,2,105,6|0|8
312,244,18321,1,6
444,316,18492,2,0,B|468:272|472:208|452:164,1,157.5,6|0
363,111,18833,2,0,B|400:156|451:163,1,105,10|4
304,156,19174,6,0,B|268:108|288:48|344:20|405:43,1,210,6|8
208,64,19685,1,6
194,78,19770,1,4
175,86,19855,1,6
359,211,20026,2,0,B|391:167|363:111,1,105,4|10
244,232,20367,1,4
228,244,20452,1,0
208,248,20537,6,0,B|152:252|112:216,2,105,6|0|8
160,160,21049,1,6
180,168,21134,1,4
200,164,21219,2,0,B|252:148|280:100,2,105,6|4|10
304,196,21730,1,4
192,88,21901,6,0,B|144:64|80:92|60:152|92:208,1,210,6|8
342,246,22412,1,6
300,264,22497,1,4
256,264,22583,2,0,B|259:202|215:158|163:158,1,157.5,6|0
175,239,22924,2,0,B|192:300|152:336,1,105,10|0
306,150,23264,6,0,B|342:190|342:246,1,105,6|0
152,336,23605,2,0,B|116:296|116:240,1,105,8|4
256,264,23946,2,0,B|292:304|292:360,1,105,6|4
188,172,24287,2,0,B|152:132|152:76,1,105,8|0
116,240,24628,5,6
188,172,24799,1,4
188,172,24884,1,4
188,172,25139,2,0,B|248:172,2,52.5,6|4|6
396,172,25480,1,4
292,100,25651,1,10
396,28,25821,1,0
188,28,25992,6,0,B|132:36|92:76,1,105,6|0
188,172,26333,2,0,B|244:164|284:124,1,105,8|4
360,264,26674,2,0,B|316:220|256:232,1,105,6|4
152,304,27014,2,0,B|196:348|256:336,1,105,8|0
92,344,27355,6,0,B|56:288|96:232|144:212|204:248,1,210,6|8
152,304,27867,2,0,B|176:328|197:327,2,52.5,6|4|4
268,248,28208,1,4
236,148,28378,1,14
144,100,28549,2,0,B|108:136|104:200|128:256|188:280,1,210,6|6
236,148,29060,1,10
88,48,29230,2,0,B|132:8|188:36,1,105,0|6
236,148,29571,1,6
272,252,29742,2,0,B|300:296|364:296,1,105,8|4
344,216,30083,6,0,B|392:192|412:136|388:80,1,157.5,6|0
388,80,30424,1,8
304,152,30594,1,6
316,136,30679,1,4
320,116,30764,1,4
464,116,30935,1,4
252,80,31105,1,10
464,116,31276,2,0,B|480:168|464:224|432:272|380:288,1,210,6|6
348,368,31787,2,0,B|300:344|284:288|312:232,1,157.5,10|0
304,152,32128,2,0,B|256:184|204:184,1,105,6|4
252,80,32639,6,0,B|304:56|372:76|396:128|380:184,1,210,6|2
344,260,33151,1,10
304,152,33321,2,0,B|272:196,2,52.5,6|4|4
344,259,33662,1,6
428,80,33833,2,0,B|408:132|364:164|304:152,1,157.5,10|0
212,108,34174,6,0,B|256:76|312:80,1,105,2|0
332,76,34429,1,0
352,68,34514,1,8
344,260,34685,2,0,B|388:232|388:232|444:244|480:300|460:352,1,210,6|6
480,192,35196,1,8
388,324,35367,2,0,B|348:352|348:352|292:348,1,105,0|6
292,348,36049,5,6
292,348,36134,1,4
292,348,36219,1,4
200,300,36389,1,6
172,200,36560,2,0,B|180:148|220:108,1,105,10|4
308,56,36901,5,2
448,96,37071,1,0
396,232,37242,1,8
256,192,37412,1,2
256,192,37753,1,2
256,192,37924,2,0,B|180:268,1,105,8|4
160,272,38179,1,4
140,272,38264,6,0,B|88:256|60:192|64:144|96:88,1,210,6|8
164,192,38776,2,0,B|145:174|152:140,1,52.5,6|4
180,64,38946,2,0,B|228:92|228:160,1,105,4|4
264,32,39287,1,10
316,144,39458,2,0,B|308:208|272:240|204:244|160:208,1,210,6|6
316,144,39969,1,10
159,207,40310,1,6
316,144,40480,2,0,B|344:192|316:248,1,105,6|8
384,92,40821,1,6
156,88,40992,6,0,B|148:140|196:184|252:192,1,157.5,6|0
252,192,41333,1,0
352,208,41503,1,6
352,208,41588,1,4
352,208,41674,1,4
400,132,41844,1,4
376,288,42014,1,10
253,191,42185,1,6
252,192,42526,1,6
252,192,42696,2,0,B|288:240|292:296|272:344|208:364,1,210,10|6
210,363,43208,1,4
176,148,43549,6,0,B|212:108|272:112,1,105,6|4
296,36,43889,2,0,B|344:60|356:120,1,105,0|8
340,232,44230,1,6
372,224,44316,1,4
400,216,44401,1,6
252,252,44571,1,4
212,364,44742,2,0,B|264:364|312:332,1,105,10|4
340,232,45083,2,0,B|312:164|392:88|464:112,1,210,6|8
452,20,45594,2,0,B|480:64|488:124|468:176,1,157.5,6|0
469,171,45935,1,6
264,208,46105,1,14
368,188,46276,1,0
160,216,46446,1,6
160,216,46787,6,0,B|200:320,1,105,8|6
220,320,47043,1,4
240,324,47128,1,4
344,300,47299,1,6
440,260,47469,2,0,B|468:212|452:156,1,105,10|4
348,136,47810,5,8
144,88,47980,1,8
248,112,48151,1,4
40,64,48321,1,8
40,64,48662,1,8
40,64,48833,2,0,B|68:168,1,105,10|6
160,176,49174,6,0,B|184:256,1,78.7499976530672,6|0
108,296,49514,1,2
108,296,49685,1,6
128,328,49770,1,4
152,360,49855,2,0,B|227:337,1,78.7499976530672,6|4
272,236,50196,1,6
272,236,50367,1,6
336,160,50537,6,0,B|376:184|392:228,1,78.7499976530672,2|0
296,76,50878,2,0,B|256:100|240:144,1,78.7499976530672,2|4
156,128,51219,1,2
72,136,51389,6,0,B|72:80|124:52,1,105,4|4
208,56,51730,5,2
296,76,51901,2,0,B|336:52|376:56,1,78.7499976530672,6|0
452,80,52242,1,2
452,80,52412,1,2
440,116,52497,1,4
428,152,52583,2,0,B|388:176|348:172,1,78.7499976530672,6|4
240,184,52924,1,6
240,184,53094,1,6
160,200,53264,6,0,B|128:224|112:272,1,78.7499976530672,2|4
216,280,53605,2,0,B|248:304|264:352,1,78.7499976530672,6|0
340,264,53946,1,6
340,264,54117,6,0,B|388:240|400:176,1,105,8|8
360,44,54458,5,6
328,128,54628,2,0,B|252:116,1,78.7499976530672,6|0
88,84,54969,1,2
88,84,55139,1,6
120,104,55225,1,4
156,124,55310,2,0,B|144:200,1,78.7499976530672,6|4
92,336,55651,1,6
92,336,55821,1,6
176,292,55992,6,0,B|216:304|268:296,1,78.7499976530672,0|2
400,160,56333,1,0
320,208,56503,2,0,B|280:220|228:212,1,78.7499976530672,6|2
184,140,56844,6,0,B|132:152|80:136,1,105,8|8
256,72,57185,5,2
184,140,57355,2,0,B|140:236,1,105,8|0
140,235,57696,1,2
140,235,57867,1,2
328,140,58037,2,0,B|372:236,1,105,8|0
371,235,58378,1,2
371,235,58549,1,2
256,288,58719,5,8
256,204,58889,2,0,B|256:100,3,105,2|8|2|8
256,100,59742,2,0,B|200:128|152:104,1,105,0|4
116,124,59997,1,0
80,148,60083,6,0,B|56:196|80:256|132:288|192:280,1,210,6|8
192,192,60594,1,6
192,192,60679,1,4
192,192,60764,2,0,B|248:200|296:172|328:116,1,157.5,6|0
228,88,61105,2,0,B|260:40|312:24,1,105,10|4
412,60,61446,5,6
192,192,61617,1,2
376,164,61787,1,8
228,88,61958,1,6
228,88,62043,1,4
228,88,62128,1,4
376,164,62299,2,0,B|372:216|316:260,1,105,6|8
412,60,62639,1,6
324,252,62810,6,0,B|288:292|232:300|176:288|136:260,1,157.5,6|0
178,280,63151,1,8
84,128,63321,1,6
120,108,63406,1,4
136,68,63492,2,0,B|188:92|208:144|196:204,1,157.5,6|0
104,240,63833,2,0,B|144:196|196:200,1,105,10|4
256,112,64174,5,6
276,120,64259,1,4
296,128,64344,1,6
316,136,64429,1,0
336,144,64514,2,0,B|388:164|412:224,1,105,8|6
448,120,64855,1,4
408,216,65026,1,6
368,312,65196,2,0,B|324:348|272:344,1,105,10|4
252,336,65452,1,0
232,340,65537,6,0,B|184:364|120:360|76:332|48:276,1,210,6|8
80,180,66049,2,0,B|112:176|132:188,1,52.5,6|4
152,268,66219,2,0,B|200:252|240:220|248:156,1,157.5,6|0
348,172,66560,2,0,B|296:136|248:155,1,105,10|4
132,188,66901,5,6
152,268,67071,1,0
348,172,67242,1,8
316,248,67412,1,4
112,52,67583,2,0,B|140:152,1,105,6|4
400,48,67924,2,0,B|340:152,1,105,8|4
188,164,68264,6,0,B|136:156|88:184,1,105,6|6
260,96,68605,1,0
87,184,68776,1,6
324,220,68946,2,0,B|376:228|424:200,1,105,6|4
252,288,69287,1,0
424,199,69458,1,6
260,96,69628,6,0,B|300:64|356:48,1,105,6|4
156,168,69969,2,0,B|152:112|188:56,1,105,6|4
128,264,70310,2,0,B|76:244|48:192,1,105
188,360,70651,2,0,B|132:376|80:352,1,105,6|4
256,312,70992,6,0,B|304:288|360:272|360:272|416:288|456:256,1,210,6|8
320,204,71503,1,6
360,192,71588,1,4
400,204,71674,2,0,B|364:160|364:108|404:48,1,157.5,6|0
448,84,72014,2,0,B|416:44|354:44,1,105,10|4
160,132,72355,6,0,B|214:121|250:81,1,105,6|2
32,192,72696,2,0,B|68:232|132:244,1,105,8|6
144,248,72952,1,4
164,252,73037,1,4
256,192,73208,1,6
348,252,73378,1,8
256,312,73549,1,6
236,316,73634,1,0
216,320,73719,6,0,B|168:340|112:340|68:304,1,157.5,6|0
144,248,74060,2,0,B|156:192|132:144,1,105,8|6
128,124,74316,1,4
136,104,74401,2,0,B|176:64|232:56|288:76,1,157.5,6|0
224,152,74742,2,0,B|252:196|312:204,1,105,8|4
368,128,75083,6,0,B|396:136|408:160,1,52.5,6|4
428,236,75253,2,0,B|420:264|396:276,1,52.5,6|0
348,340,75424,2,0,B|296:348|240:332,1,105,8|6
144,256,75764,2,0,B|116:248|104:224,1,52.5,4|0
84,148,75934,2,0,B|92:120|116:108,1,52.5,6|0
164,44,76105,2,0,B|216:36|272:52,1,105,10|4
368,128,76446,6,0,B|352:180|352:224|352:224|376:288|336:336,1,210,6|8
276,192,76958,1,6
272,232,77043,1,4
284,272,77128,2,0,B|232:268|188:224|208:160,1,157.5,6|0
132,136,77469,2,0,B|160:88|216:80,1,105,10|4
368,128,77810,6,0,B|452:192,1,105,6|0
288,64,78151,1,8
451,191,78321,1,4
372,256,78492,2,0,B|288:320,1,105,6|4
451,191,78833,1,8
288,319,79003,1,6
256,328,79088,1,0
224,328,79174,6,0,B|160:332|120:292,1,105,6|6
372,256,79514,1,0
280,204,79685,1,6
248,200,79770,1,4
220,184,79855,2,0,B|168:168|136:120,1,105,6|4
40,92,80196,2,0,B|64:44|120:20,1,105,0|6
208,52,80537,6,0,B|260:52|304:96,1,105,6|4
116,240,80878,2,0,B|116:188|160:144,1,105,6|4
304,332,81219,2,0,B|252:332|208:288,1,105,6|4
396,144,81560,2,0,B|396:196|352:240,1,105,6|4
256,196,81901,5,4
256,48,91446,6,0,B|300:88|304:148,1,105,2|0
256,336,91787,2,0,B|212:296|208:236,1,105
400,192,92128,2,0,B|360:236|300:240,1,105,2|0
112,192,92469,2,0,B|152:148|212:144,1,105
360,52,92810,6,0,B|307:51|259:99|259:99|287:139|260:192,1,210,6|8
348,132,93321,2,0,B|348:160|336:196,2,52.5,6|4|4
200,144,93662,1,4
376,256,93833,2,0,B|316:267|276:227,1,105,10|6
348,132,94174,1,0
232,176,94344,1,6
216,192,94429,1,0
208,212,94514,1,10
156,280,94685,1,0
192,111,94855,1,6
36,204,95026,2,0,B|84:220|132:204|132:204|148:144|192:112,1,210,6|6
280,156,95537,6,0,B|328:180|384:156,1,105,6|0
412,168,95793,1,0
432,192,95878,2,0,B|484:208,1,52.5,2|0
448,268,96049,1,0
420,280,96134,1,0
388,280,96219,2,0,B|336:268,1,52.5,2|0
272,292,96389,1,0
244,304,96474,1,0
212,304,96560,2,0,B|156:288,1,52.5,2|0
92,244,96730,1,0
120,232,96815,1,0
148,220,96901,2,0,B|176:220|200:208,3,52.5,6|4|4|4
184,132,97242,2,0,B|212:132|236:120,3,52.5,6|4|4|4
324,56,97583,6,0,B|300:108|328:160,1,105,6|6
240,300,98094,2,0,B|280:220|280:220|352:246|392:200,1,210,6|0
320,308,98605,2,0,B|372:312|420:280,1,105,8|6
436,268,98861,1,4
448,252,98946,1,6
328,156,99117,1,4
240,104,99287,2,0,B|264:48|320:28,1,105,10|4
320,204,99628,6,0,B|300:156|300:156|320:104|368:72|436:84,1,210,6|8
488,198,100139,2,0,B|444:160|392:164,1,105,6|2
320,204,100480,1,4
252,260,100651,2,0,B|207:298|155:294,1,105,10|0
76,256,100992,1,6
76,256,101503,5,6
88,240,101588,1,4
108,232,101674,1,4
208,188,101844,1,6
64,136,102014,1,10
256,68,102185,1,4
264,244,102355,2,0,B|296:200|272:140,1,105,2|0
284,316,102696,2,0,B|228:328|192:276,1,105,8|2
356,256,103208,2,0,B|408:248|408:248|452:212|460:152|417:109,1,210,2|4
179,178,103719,6,0,B|272:136|272:136|312:184|368:172,1,210,6|10
343,95,104230,2,0,B|320:48|256:48|256:48|160:96,1,210,6|6
172,204,104742,2,0,B|268:160,1,105,10|4
344,96,105083,1,2
164,232,105253,1,4
416,140,105424,2,0,B|374:185|322:177,1,105,8|2
112,136,105764,2,0,B|153:90|205:98,1,105,6|4
224,108,106020,1,0
240,120,106105,1,10
296,184,106276,1,4
331,259,106446,6,0,B|280:256|240:280|240:280|200:324|136:312,1,210,6|8
112,136,106958,1,6
124,152,107043,1,4
132,172,107128,1,4
168,240,107299,2,0,B|152:184|204:140,1,105,4|10
432,164,107639,2,0,B|344:216|344:216|296:188|240:212,1,210,6|6
224,352,108151,2,0,B|276:336|288:272,1,105,10|0
232,136,108492,6,0,B|285:112|336:132,1,105,6|4
100,252,109003,2,0,B|161:244|189:200|189:200|144:164|164:100,1,210,6|2
313,199,109514,2,0,B|284:152|232:136,1,105,8|6
232,136,109770,1,4
232,136,109855,1,6
360,276,110026,1,4
156,284,110196,2,0,B|185:236|237:220,1,105,10|4
128,180,110537,2,0,B|176:164|232:176|276:212|296:268,1,210,2|8
440,328,111049,2,0,B|368:300|368:300|320:364|248:328,1,210,6|6
376,208,111560,1,8
296,268,111730,1,2
128,180,111901,6,0,B|184:200|232:184,2,105,6|0|8
312,152,112412,1,6
312,152,112497,1,4
312,152,112583,1,4
324,68,112753,1,6
231,184,112924,1,10
376,208,113094,1,4
284,320,113264,5,8
231,184,113435,1,8
140,296,113605,1,0
284,320,113776,1,8
284,320,114117,1,8
284,320,114287,2,0,B|332:224,1,105,10|2
416,212,114628,6,0,B|452:140,1,78.7499976530672,2|0
368,12,114969,1,2
368,12,115139,1,6
360,52,115225,1,4
352,92,115310,2,0,B|284:132,1,78.7499976530672,6|4
120,96,115651,1,6
120,96,115821,1,6
212,128,115992,6,0,B|216:172|252:196,1,78.7499976530672,2|0
160,212,116333,2,0,B|156:256|120:280,1,78.7499976530672,2|4
228,264,116674,1,2
296,312,116844,6,0,B|348:300|396:332,1,105,4|4
368,232,117185,5,2
336,148,117355,2,0,B|388:80,1,78.7499976530672,6|0
304,16,117696,1,2
304,16,117867,1,6
268,28,117952,1,4
232,44,118037,2,0,B|184:106,1,78.7499976530672,6|4
100,72,118378,1,6
100,72,118549,1,6
240,160,118719,6,0,B|287:222,1,78.7499976530672,2|4
360,208,119060,2,0,B|364:256|344:292|300:304|260:292,1,157.499995306134,6|6
160,292,119571,6,0,B|208:264|260:292,1,105,8|8
212,352,119912,5,6
100,332,120083,2,0,B|76:296|100:256,1,78.7499976530672,2|0
76,112,120424,1,2
76,112,120594,1,6
112,128,120679,1,4
148,144,120764,2,0,B|184:120|224:144,1,78.7499976530672,6|4
188,216,121105,1,6
188,216,121276,1,6
300,108,121446,6,0,B|324:144|300:184,1,78.7499976530672,2|0
340,260,121787,2,0,B|304:284|264:260,1,78.7499976530672,2|4
188,216,122128,1,2
140,152,122299,6,0,B|188:116|236:152,1,105,8|8
300,108,122639,5,0
340,260,122810,1,8
188,216,122980,1,0
276,88,123151,1,2
316,240,123322,1,0
164,196,123492,1,8
252,68,123662,1,0
292,220,123833,1,2
140,176,124003,1,0
66,347,124174,5,8
219,314,124344,1,2
116,197,124514,1,8
43,328,124685,1,2
196,295,124855,1,8
196,295,125196,2,0,B|244:266|297:297,1,105,0|4
320,332,125452,1,0
360,348,125537,6,0,B|416:336|452:296|472:240|436:180,1,210,6|8
376,216,126049,2,0,B|388:248|372:264,1,52.5,6|4
300,208,126219,2,0,B|308:156|356:120|420:152,1,157.5,6|0
452,56,126560,2,0,B|460:120|419:151,1,105,10|4
300,208,126901,5,6
384,88,127071,1,2
288,80,127242,2,0,B|248:124|192:112,1,105,8|6
193,112,127497,1,4
193,112,127583,1,4
384,88,127753,1,6
300,208,127924,2,0,B|276:256|220:272,1,105,8|6
200,272,128179,1,0
184,284,128264,6,0,B|140:320|76:312|48:256,1,157.5,6|0
124,232,128605,2,0,B|96:184|120:128,1,105,8|6
120,108,128861,1,4
120,88,128946,2,0,B|144:40|216:24|256:72,1,157.5,6|0
196,120,129287,2,0,B|216:180|288:184,1,105,10|4
388,112,129628,5,6
368,120,129713,1,4
348,128,129798,1,6
328,136,129883,1,0
308,144,129968,2,0,B|260:164|236:216,1,105,8|6
196,120,130309,1,4
236,216,130480,1,6
276,312,130650,2,0,B|320:348|372:344,1,105,10|4
368,300,130906,1,0
344,264,130992,6,0,B|396:256|440:232|472:184|476:120,1,210,6|8
300,124,131503,2,0,B|336:128|336:96,1,52.5,6|4
312,192,131674,2,0,B|361:199|417:151|401:91,1,157.5,6|0
460,44,132014,2,0,B|416:4|364:28,1,105,10|4
224,124,132355,6,0,B|160:120|136:176,1,105,6|0
36,228,132696,2,0,B|100:224|124:280,1,105,8|4
264,280,133037,2,0,B|216:256|208:196,1,105,6|4
386,179,133378,2,0,B|328:168|288:204,1,105,8|4
464,112,133719,5,6
288,204,133889,1,6
288,204,133975,1,4
288,204,134060,2,0,B|236:225|224:285,1,105,0|6
156,252,134316,1,4
156,252,134401,2,0,B|144:304|180:352,1,105,6|4
80,240,134742,2,0,B|92:184|160:176,1,105,0|6
208,16,135083,6,0,B|264:28|272:96,1,105,6|4
432,144,135424,2,0,B|420:200|352:208,1,105,6|4
304,368,135764,2,0,B|248:356|240:288,1,105,6|4
80,240,136105,2,0,B|92:184|160:176,1,105,6|4
176,176,136361,1,0
196,180,136446,6,0,B|228:224|280:200|280:200|296:136|360:124,1,210,6|8
316,264,136958,1,6
344,236,137043,1,4
360,200,137128,2,0,B|412:192|460:232|472:296,1,157.5,6|0
468,312,137469,2,0,B|416:332|384:372,1,105,10|4
240,280,137810,6,0,B|256:336|324:344,1,105,6|2
252,204,138151,2,0,B|192:204|168:256,1,105,8|6
148,260,138406,1,4
128,268,138492,1,4
44,168,138662,1,6
36,96,138833,2,0,B|96:96|120:148,1,105,8|6
140,152,139088,1,0
160,152,139174,6,0,B|208:120|268:124|320:136|352:188,1,210,6|8
233,331,139685,2,0,B|224:308|236:280,1,52.5,6|4
300,248,139855,2,0,B|296:196|200:184|176:240,1,157.5,6|0
156,244,140196,2,0,B|96:244|72:192,1,105,10|4
72,44,140537,5,6
92,56,140622,1,4
108,72,140708,1,6
144,168,140878,2,0,B|184:120|240:140,1,105,8|6
237,139,141134,1,4
237,139,141219,1,4
268,288,141389,2,0,B|212:272|208:212,1,105,6|10
284,212,141730,1,4
140,248,141901,6,0,B|144:300|184:340|232:368|292:368,1,210,6|8
268,288,142412,2,0,B|332:288,1,52.5,6|4
360,220,142583,2,0,B|404:252|404:324|360:356,1,157.5,6|0
340,360,142924,2,0,B|224:360,1,105,10|4
152,360,143264,5,6
172,192,143435,1,0
68,360,143605,1,8
256,192,143776,1,4
152,360,143946,2,0,B|144:308|76:280,1,105,6|4
172,192,144287,2,0,B|180:244|248:272,1,105,8|4
321,116,144628,6,0,B|264:140|256:192,1,105,6|6
172,192,144969,1,0
321,116,145139,1,6
332,196,145310,2,0,B|355:253|407:261,1,105,6|4
412,184,145651,2,0,B|469:160|477:108,1,105,0|6
324,48,145992,6,0,B|384:52|396:112,1,105,6|4
112,124,146333,2,0,B|116:64|176:52,1,105,6|4
188,336,146674,2,0,B|128:332|116:272,1,105,6|4
400,260,147014,2,0,B|396:320|336:332,1,105,6|4
256,192,147355,5,4
