osu file format v9

[General]
AudioFilename: Riyu Kosaka - Ignore.mp3
AudioLeadIn: 0
PreviewTime: 69064
Countdown: 0
SampleSet: Normal
StackLeniency: 0.7
Mode: 0
LetterboxInBreaks: 1

[Editor]
Bookmarks: 154299
DistanceSpacing: 0.9
BeatDivisor: 8
GridSize: 8

[Metadata]
Title:Ignore
Artist:Riyu Kosaka
Creator:Sathron
Version:Ignorant
Source:
Tags:kosaka riyu ignore danzai no hana claymore guitar

[Difficulty]
HPDrainRate:7
CircleSize:4
OverallDifficulty:7
ApproachRate:9
SliderMultiplier:1.9
SliderTickRate:1

[Events]
//Background and Video events
0,0,"1024-768-126994.jpg"
//Break Periods
2,103852,113641
2,185735,190582
//Storyboard Layer 0 (Background)
//Storyboard Layer 1 (Fail)
//Storyboard Layer 2 (Pass)
//Storyboard Layer 3 (Foreground)
//Storyboard Sound Samples
//Background Colour Transformations
3,100,163,162,255

[TimingPoints]
241,352.941176470588,4,1,0,35,1,0
13300,-100,4,1,0,35,0,1
35888,-100,4,2,0,35,0,0
58299,-100,4,1,0,35,0,0
69770,-66.6666666666667,4,1,0,35,0,1
86711,-100,4,1,0,35,0,1
87417,-66.6666666666667,4,1,0,35,0,1
98005,-100,4,2,0,35,0,1
103741,-100,4,1,0,35,0,0
114947,-100,4,2,0,35,0,0
148829,-66.6666666666667,4,1,0,35,0,1
172829,-100,4,1,0,35,0,0
217299,-66.6666666666667,4,1,0,35,0,0
218005,-66.6666666666667,4,1,0,35,0,1
251535,-100,4,1,0,35,0,0
263182,-100,4,1,0,5,0,0

[Colours]
Combo1 : 1,112,101
Combo2 : 109,109,139
Combo3 : 0,73,98
Combo4 : 64,89,121
Combo5 : 99,101,118

[HitObjects]
112,192,12594,5,8
400,192,12770,5,8
184,192,12947,5,8
328,192,13124,5,8
256,192,13300,6,2,B|295:106|295:106|201:25,1,190
136,32,13829,1,0
64,80,14005,1,8
136,128,14182,1,0
64,168,14358,1,8
136,216,14535,1,0
64,256,14711,6,2,B|80:312|152:304,1,95
208,352,15064,1,8
296,352,15241,1,8
384,344,15417,2,2,B|448:304|400:232,1,95
472,200,15770,1,8
496,120,15947,1,8
472,40,16123,6,2,B|432:80|384:40,1,95
304,40,16476,1,8
216,40,16652,1,0
128,40,16829,2,2,B|72:56|120:96|48:112,1,95
40,184,17182,1,8
72,264,17358,1,0
136,320,17535,5,2
200,264,17711,1,8
232,264,17800,1,8
264,264,17888,1,8
352,264,18064,1,4
440,264,18241,1,8
440,232,18329,1,0
440,200,18417,1,8
440,168,18505,1,0
440,136,18594,1,8
440,104,18682,1,0
440,72,18770,1,8
440,40,18858,1,0
408,40,18947,5,2
352,104,19123,1,0
296,40,19300,1,0
240,104,19476,1,0
184,40,19652,1,2
128,104,19829,1,0
72,40,20005,1,0
16,104,20182,1,0
16,192,20358,5,2
56,264,20535,1,0
112,328,20711,1,0
208,352,20888,1,0
312,352,21064,1,2
416,312,21241,1,0
496,216,21417,1,0
472,64,21594,1,0
256,192,21770,12,8,24241
256,192,24417,5,8
256,192,24594,2,4,B|261:174|261:174|290:192|301:174|307:157|267:146|267:146|312:140|301:129|301:106|273:129|273:129|290:95|273:78|261:118|261:118|256:61|244:83|233:61|233:118|233:118|216:78|199:95|221:129|221:129|193:106|193:129|182:140|227:146|227:146|187:157|193:174|204:192|227:174|227:174|233:192,1,570
256,192,26005,6,4,B|238:186|238:186|256:157|238:146|221:140|210:180|210:180|204:135|193:146|170:146|193:174|193:174|159:157|142:174|182:186|182:186|125:192|147:203|125:214|182:214|182:214|142:231|159:248|193:226|193:226|170:254|193:254|204:265|210:220|210:220|221:260|238:254|256:243|238:220|238:220|256:214,1,570
256,192,27417,6,4,B|250:209|250:209|221:192|210:209|204:226|244:237|244:237|199:243|210:254|210:277|238:254|238:254|221:288|238:305|250:265|250:265|256:322|267:300|278:322|278:265|278:265|295:305|312:288|290:254|290:254|318:277|318:254|329:243|284:237|284:237|324:226|318:209|307:192|284:209|284:209|278:192,1,570
256,192,28829,6,4,B|273:197|273:197|256:226|273:237|290:243|301:203|301:203|307:248|318:237|341:237|318:209|318:209|352:226|369:209|329:197|329:197|386:192|364:180|386:169|329:169|329:169|369:152|352:135|318:157|318:157|341:129|318:129|307:118|301:163|301:163|290:123|273:129|256:140|273:163|273:163|256:169,1,570
256,192,30064,1,8
256,104,30241,5,2
128,168,30417,1,0
256,104,30594,1,2
192,248,30770,1,0
256,104,30947,1,2
320,248,31123,1,0
256,104,31299,1,0
384,160,31476,1,2
136,24,31652,6,0,B|96:64|80:104,1,95
376,24,32005,2,2,B|410:52|432:104,1,95
136,152,32358,2,2,B|96:184|80:232,1,95
376,152,32711,2,6,B|416:184|432:232,1,95
256,192,33064,5,8
224,192,33152,1,0
192,192,33241,1,8
160,192,33329,1,0
128,192,33417,1,8
96,192,33505,1,0
64,192,33594,1,8
32,192,33682,1,0
32,160,33770,2,8,B|32:108,3,47.5
32,80,34123,1,8
32,48,34211,1,0
64,48,34300,1,8
96,48,34388,1,0
128,48,34476,6,2,B|184:48,3,47.5,0|0|0|0
208,48,34829,1,0
240,48,34917,1,0
272,48,35005,1,0
304,48,35094,1,0
304,80,35182,6,4,B|304:128,6,31.6666666666667
480,344,35888,5,0
432,272,36064,1,0
384,344,36241,2,2,B|320:328|336:256,1,95
240,272,36594,1,0
192,344,36770,1,0
144,272,36947,2,2,B|88:288|96:352,1,95
8,344,37299,5,0
8,258,37476,1,0
8,172,37652,2,2,B|22:163|31:173|31:173|39:163|47:171|47:171|56:164|63:173|63:173|73:164|80:171|80:171|88:164|96:172|96:172|104:164|112:171|112:171|120:163|128:172|128:172|135:163|143:171|143:171|151:164|159:173|159:173|168:164|176:171|176:171|183:163|200:172,1,190
248,128,38182,1,8
176,88,38358,2,2,B|161:79|152:89|152:89|144:79|136:87|136:87|127:80|120:89|120:89|110:80|104:87|104:87|95:80|87:88|87:88|80:80|71:87|71:87|63:79|55:88|55:88|48:79|40:87|40:87|32:80|24:89|24:89|16:80|7:87|7:87|0:79|-16:88,1,190,2|6
40,8,38888,5,0
125,8,39064,1,0
157,8,39152,1,0
189,8,39241,1,0
272,8,39417,1,0
360,8,39594,1,0
440,40,39770,2,2,B|440:104|368:112,1,95
408,192,40123,5,0
472,256,40299,1,0
408,312,40476,2,2,B|368:352|312:312,1,95
235,318,40829,1,0
149,318,41005,1,0
64,344,41182,1,12
40,320,41270,1,0
64,304,41358,1,12
40,280,41447,1,0
64,264,41535,6,2,B|11:233|-8:184|26:110|88:114,1,190
104,192,42064,1,4
142,116,42241,2,2,B|195:147|214:196|180:270|118:266,1,190
371,121,42947,6,2,B|318:152|299:200|333:275|395:271,1,190
411,193,43476,1,4
450,269,43653,2,2,B|502:237|521:189|487:115|425:119,1,190
296,32,44358,5,0
208,32,44535,1,0
152,96,44711,1,2
152,96,44799,1,2
152,96,44888,1,2
40,224,45064,5,0
128,224,45241,1,0
184,160,45417,1,2
184,160,45505,1,2
184,160,45594,1,2
40,224,45770,5,0
40,312,45947,1,0
72,328,46035,1,0
104,312,46123,1,4
136,328,46211,1,0
168,312,46299,1,0
200,328,46388,1,0
232,312,46476,1,4
264,328,46564,1,0
296,312,46652,1,0
328,328,46741,1,0
360,312,46829,1,4
392,328,46917,1,4
424,312,47005,1,4
456,328,47094,1,4
488,312,47182,5,12
456,232,47358,1,0
392,168,47535,1,0
456,112,47711,1,0
392,56,47888,2,2,B|440:8,2,47.5
304,56,48241,1,8
216,56,48417,1,8
128,56,48594,6,2,B|82:13|40:64,1,95
16,136,48947,1,8
80,192,49123,1,8
16,248,49299,2,2,B|-24:296|24:336,1,95
104,360,49652,1,8
160,296,49829,1,8
216,360,50005,6,0,B|242:320|242:320|266:359,1,95
267,360,50358,2,0,B|293:320|293:320|317:359,1,95
318,360,50711,2,0,B|344:320|344:320|368:359,1,95
369,360,51064,2,0,B|395:320|395:320|419:359,1,95
480,296,51417,5,4
480,264,51505,1,4
480,232,51594,1,4
408,184,51770,1,0
480,144,51947,1,0
408,96,52123,2,4,B|408:40,2,47.5
320,96,52476,2,4,B|320:32,2,47.5
232,96,52829,6,2,B|235:56|192:26|165:23|134:31|115:63|90:90|132:139,1,190
112,184,53358,2,2,B|108:144|151:114|178:111|209:119|228:151|253:178|211:227,1,190
170,248,53888,2,8,B|112:272|112:272|208:272|208:272|120:304|120:304|200:304|200:304|136:328|136:328|184:336|184:336|144:344|144:344|176:352|176:352|154:360|154:360|162:368|162:368|162:384|162:384|162:392,1,570
160,376,55035,1,0
160,376,55123,1,0
248,368,55299,1,0
248,368,55388,1,0
248,368,55476,1,0
320,320,55652,6,2,B|325:304|338:306|338:306|338:293|350:295|350:295|352:284|363:286|363:286|366:273|376:274|376:274|378:264|389:265|389:265|390:254|401:255|401:255|402:243|414:246|414:246|414:234|425:236|425:236|427:225|439:227|439:227|441:215|451:215|451:215|452:205|471:201,1,190
448,216,56182,1,4
400,144,56358,2,2,B|394:159|381:157|381:157|381:170|369:168|369:168|367:179|356:177|356:177|353:190|343:189|343:189|341:199|330:198|330:198|329:209|318:208|318:208|317:220|305:217|305:217|305:229|294:227|294:227|292:238|280:236|280:236|278:248|268:248|268:248|267:258|248:262,1,190
272,248,56888,1,0
256,192,57064,12,6,58123
256,192,58299,5,2
256,192,58388,1,2
256,192,58476,1,2
256,104,58652,1,0
256,16,58829,1,0
168,16,59005,2,0,B|69:99|168:176,1,190
164,173,59535,1,0
165,173,59711,2,8,B|264:256|165:333,1,190
344,328,60417,6,2,B|456:296|488:176,1,190
440,128,60947,1,4
480,48,61123,1,4
392,48,61299,6,8,B|360:72|344:40|344:40|312:72|312:40|312:40|272:72|272:40|272:40|208:56,1,190
240,136,61829,2,0,B|112:136|128:16,1,190
40,16,62358,1,0
40,104,62535,2,6,B|31:112|31:112|48:121|48:121|22:129|22:129|48:138|48:138|5:155|5:155|83:155|83:155|5:172|5:172|83:172|83:172|5:190|5:190|83:190|83:190|48:207|48:207|22:216|22:216|48:224|48:224|31:233|31:233|40:259,1,665
40,344,63947,1,0
72,344,64035,1,0
104,344,64123,5,12
192,344,64299,1,0
280,344,64475,1,0
368,344,64652,2,0,B|467:261|368:184,1,190
372,187,65182,1,0
371,187,65358,2,8,B|272:104|371:27,1,190
192,32,66064,6,2,B|72:0|16:136,1,190
104,160,66594,1,4
32,208,66770,1,4
32,296,66947,6,2,B|40:360|112:352,1,95
184,352,67299,1,2
272,352,67476,1,0
368,344,67652,1,2
456,288,67829,1,0
488,176,68005,1,2
464,56,68182,1,0
336,16,68358,5,12
192,16,68535,5,12
48,64,68711,5,12
256,376,69064,5,2
256,344,69152,1,0
256,312,69241,1,2
256,280,69329,1,0
256,248,69417,1,2
256,216,69505,1,0
256,184,69593,1,2
256,152,69682,1,0
256,120,69770,6,6,B|264:24|152:16,1,142.499995753169
64,32,70123,1,8
128,120,70299,1,8
64,216,70476,2,2,B|55:241|55:241|73:271|73:271|56:295|56:295|72:327|72:327|64:368,1,142.499995753169
104,344,70741,1,2
136,344,70829,1,2
248,344,71005,1,8
360,344,71182,6,4,B|432:320|480:264,1,142.499995753169
480,232,71447,1,8
480,200,71535,2,4,B|448:136|368:88,1,142.499995753169
344,96,71799,1,8
312,96,71888,2,4,B|248:96|168:96,1,142.499995753169
136,96,72152,1,8
104,96,72241,2,4,B|48:144|24:216,1,142.499995753169
24,328,72594,5,2
24,328,72682,1,2
24,328,72770,1,2
96,240,72947,1,0
168,328,73123,1,0
240,240,73299,1,2
240,240,73388,1,2
240,240,73476,1,2
312,328,73652,1,0
392,240,73829,1,0
496,192,74005,6,2,B|528:96|424:56,1,142.499995753169
360,32,74358,1,8
360,132,74535,1,8
260,132,74711,2,2,B|165:110|180:12,1,142.499995753169
77,32,75064,1,4
77,131,75240,1,0
80,232,75417,2,2,B|152:224|144:160|144:160|184:144,1,142.499995753169,2|0
80,232,75770,2,2,B|84:304|20:307|20:307|11:349,2,142.499995753169
152,296,76299,5,0
240,344,76476,1,0
336,344,76652,2,4,B|338:332|338:332|324:341|324:341|333:326|333:326|320:334|320:334|329:319|329:319|316:328|316:328|325:312|325:312|311:321|311:321|314:310|314:310|337:257|337:257|275:250|284:176,1,284.999991506338
376,160,77182,1,0
456,216,77358,2,4,B|453:204|453:204|467:213|467:213|458:198|458:198|471:206|471:206|462:191|462:191|475:200|475:200|466:184|466:184|480:193|480:193|477:182|477:182|454:129|454:129|516:122|507:48,1,284.999991506338
416,24,77888,1,0
316,24,78064,6,6,B|316:67|316:67|290:80|265:67|265:67|265:24|265:24|240:11|215:24|215:24|215:67|215:67|190:80|165:67|165:67|165:24|165:24|140:11|115:24|115:24|115:67,1,427.499987259508
24,112,78770,1,0
24,212,78947,1,0
24,311,79123,1,0
120,344,79299,1,0
232,344,79476,5,0
264,344,79564,1,0
296,344,79652,1,8
304,232,79829,5,0
336,232,79917,1,0
368,232,80005,1,8
376,120,80182,5,0
408,120,80270,1,0
440,120,80358,1,8
440,8,80535,5,8
408,8,80623,1,8
376,8,80711,1,8
344,8,80799,1,8
312,8,80888,1,8
280,8,80976,1,8
248,8,81064,6,2,B|264:112|136:96,1,142.499995753169
72,32,81417,1,8
32,136,81594,1,8
72,240,81770,2,2,B|40:336|160:360,1,142.499995753169
160,352,82035,1,2
192,352,82123,1,2
304,352,82299,1,8
416,352,82476,6,2,B|442:343|442:343|431:315|431:315|458:303|458:303|448:274|448:274|483:262|471:234,1,142.499995753169
472,224,82741,1,8
472,192,82829,2,2,B|477:165|477:165|448:160|448:160|451:130|451:130|421:124|421:124|429:88|399:84,1,142.499995753169
392,80,83094,1,8
360,56,83182,2,2,B|351:30|351:30|323:41|323:41|311:14|311:14|282:24|282:24|270:-11|242:1,1,142.499995753169
233,4,83447,1,8
197,3,83535,2,2,B|173:-11|173:-11|158:14|158:14|132:1|132:1|116:27|116:27|84:7|70:34,1,142.499995753169
64,40,83799,1,4
40,72,83888,5,2
144,120,84064,1,0
40,176,84241,1,2
144,232,84417,1,0
40,280,84594,1,2
136,344,84770,1,0
240,288,84947,1,2
272,288,85035,1,2
304,288,85123,1,2
416,280,85299,5,0
416,248,85388,1,0
416,216,85476,1,0
416,184,85564,1,0
448,160,85652,2,2,B|480:72|392:24,1,142.499995753169
296,32,86005,1,8
184,32,86182,1,8
72,32,86358,2,2,B|16:96|64:176,1,142.499995753169
56,256,86711,6,14,B|19:278|46:298|46:298|32:300|30:311|35:321|46:323|56:318|54:303|54:303|70:315|70:315|56:318|54:329|59:339|70:340|80:336|78:321|78:321|94:332|94:332|80:336|79:347|84:356|95:358|104:353|103:339|103:339|119:350|119:350|104:353|103:364|108:374|118:376|128:370|127:356|127:356|154:376|164:335,1,380
256,360,87594,5,8
368,264,87770,1,8
480,360,87947,1,8
256,192,88299,5,8
144,96,88475,1,8
32,192,88652,1,8
480,32,89005,5,0
448,32,89094,1,0
416,32,89182,1,0
304,32,89358,1,0
192,32,89535,2,2,B|128:56|128:56|80:144,1,142.499995753169
206,121,89888,1,4
238,121,89977,1,4
270,121,90065,1,4
383,121,90241,6,2,B|447:145|447:145|495:233,1,142.499995753169
368,210,90594,1,4
336,210,90683,1,4
304,210,90771,1,4
190,210,90947,6,2,B|126:234|126:234|78:322,1,142.499995753169
204,299,91299,1,4
236,299,91388,1,4
268,299,91476,1,4
303,299,91564,1,0
338,299,91652,1,8
370,299,91741,1,0
402,299,91829,1,8
434,299,91917,1,0
469,299,92005,2,6,B|505:299,7,35.6249989382923
256,192,92358,12,0,97652
430,378,98005,2,14,B|302:378|302:378|296:317|296:317|408:332|314:255|314:255|565:255|370:214|370:214|486:178|358:177|358:177|408:62|329:137|329:137|329:20|291:100|291:100|291:-129|255:62|255:62|214:-129|214:100|214:100|176:20|176:137|176:137|97:62|147:177|147:177|21:178|135:214|135:214|-56:255|191:255|191:255|97:332|218:317|218:317|209:378|209:378|68:378,1,2280
256,192,102947,5,2
256,192,103476,5,12
256,192,103564,1,12
256,192,103652,1,12
256,32,114241,5,8
256,32,114417,2,6,B|256:80,2,47.5
472,256,114947,5,0
416,320,115123,1,0
384,240,115299,2,2,B|320:224|304:304,1,95
240,240,115652,1,8
232,208,115741,1,0
200,192,115829,1,8
168,208,115917,1,0
160,240,116005,1,8
112,312,116182,1,8
48,256,116358,6,2,B|16:208|56:160,1,95
56,80,116711,1,4
168,8,116888,1,4
280,80,117064,1,4
392,8,117241,1,4
504,80,117417,1,4
504,168,117594,1,4
504,256,117770,6,2,B|528:312|464:352,1,95
392,344,118123,1,0
344,280,118299,1,0
256,280,118476,1,8
248,312,118565,1,0
216,328,118653,1,8
184,312,118741,1,0
176,280,118829,1,8
104,328,119005,1,8
32,280,119182,6,2,B|96:256|72:176,1,95
32,128,119535,1,4
32,128,119623,1,4
32,128,119711,1,4
88,64,119888,2,2,B|112:0|200:40,1,95
232,80,120241,1,4
264,80,120329,1,4
296,80,120417,1,4
328,80,120505,1,4
360,80,120594,6,2,B|416:152|416:152|360:240,1,190
296,296,121123,1,8
235,235,121299,6,2,B|163:291|163:291|75:235,1,190
0,232,121829,1,8
0,151,122005,6,2,B|6:124|6:124|29:120|30:89|30:89|56:86|57:54|57:54|83:51|84:19|84:19|113:14,1,190
192,16,122535,1,8
280,24,122711,6,4,B|264:72|280:120,1,95
368,120,123064,2,4,B|384:72|368:8,1,95
456,40,123417,6,0,B|456:96,1,47.5
456,120,123594,2,0,B|456:176,1,47.5
456,200,123770,2,0,B|456:264,1,47.5
456,280,123947,2,0,B|456:328,1,47.5
424,328,124123,6,8,B|384:288,1,47.5
360,296,124299,2,8,B|320:336,1,47.5
296,328,124476,2,8,B|240:272,1,47.5
232,296,124652,2,8,B|184:344,1,47.5
168,328,124829,5,2
136,328,124917,1,0
104,328,125005,1,2
72,328,125094,1,0
40,328,125182,2,4,B|40:272,3,47.5
40,248,125535,5,8
40,216,125623,1,0
40,184,125711,1,8
40,152,125799,1,0
40,120,125888,2,4,B|40:72,3,47.5
40,40,126241,6,2,B|87:-6|136:52,1,95
176,104,126594,1,8
208,104,126682,1,8
240,104,126770,1,8
304,40,126947,6,2,B|312:96|384:96,1,95
455,95,127299,1,8
480,120,127388,1,8
456,144,127476,1,8
456,232,127652,6,2,B|497:282|436:341,1,95
368,320,128005,1,8
344,296,128094,1,0
320,320,128182,1,8
296,296,128270,1,0
272,320,128358,1,8
184,320,128535,1,8
104,360,128711,1,8
24,320,128888,1,8
24,232,129064,6,2,B|-20:178|48:128,1,95
26,61,129417,1,0
104,16,129594,1,0
176,64,129770,6,2,B|186:-4|279:21,1,95
320,48,130123,1,0
384,104,130299,1,0
416,104,130388,1,0
448,104,130476,1,4
488,184,130652,1,0
456,184,130741,1,0
424,184,130829,1,4
384,264,131005,1,0
416,264,131094,1,0
449,264,131182,1,4
488,344,131358,5,8
456,344,131447,1,0
424,344,131535,1,8
392,344,131623,1,0
360,344,131711,1,8
328,344,131799,1,0
296,344,131888,6,6,B|177:379|112:256,1,190
130,286,132417,1,8
130,286,132594,6,2,B|64:180|170:86,1,190
144,111,133123,1,8
144,111,133299,6,6,B|247:32|350:112,1,190
408,92,133829,1,8
408,177,134005,2,2,B|471:177|471:247,1,95
400,288,134358,2,2,B|400:351|330:351,1,95
256,384,134711,5,8
32,192,135064,5,8
256,0,135417,5,8
480,192,135770,5,8
312,192,136123,5,4
256,256,136299,1,4
200,192,136476,1,4
256,128,136652,1,4
328,80,136829,2,2,B|360:80,3,31.6666666666667
432,32,137182,2,2,B|463:32,3,31.6666666666667
463,117,137535,5,8
400,168,137711,1,0
460,228,137888,1,0
399,288,138064,2,8,B|279:293|324:213|393:231|332:330,1,190
336,325,138594,1,0
336,324,138770,2,12,B|265:324|265:324|265:339|265:339|251:324|251:324|251:339|251:339|181:339,1,190
40,248,139476,2,2,B|40:176|40:176|80:176|80:176|80:96,1,190
80,16,140005,1,0
168,16,140182,1,0
256,16,140358,6,10,B|384:16|384:128,1,190
297,123,140888,2,10,B|297:251|409:251,1,190
404,336,141417,1,0
318,336,141594,2,6,B|234:386|234:386|105:219|233:143|299:172|334:316|131:343|131:343|101:238,1,665,14|6
40,192,143005,1,0
40,158,143094,1,0
40,124,143182,5,8
40,38,143358,1,0
112,80,143535,1,8
184,40,143711,1,0
256,80,143888,1,8
256,80,143976,1,8
256,80,144064,1,8
328,40,144241,1,8
400,80,144417,1,8
472,40,144594,6,2,B|527:87|445:151,1,95
475,208,144947,1,0
475,293,145123,1,0
414,353,145299,1,8
380,353,145388,1,8
346,353,145476,1,8
260,353,145652,1,8
174,353,145829,1,8
88,353,146005,6,6,B|48:327|48:327|87:303,1,95
88,302,146358,2,6,B|48:276|48:276|87:252,1,95
88,251,146711,2,6,B|48:225|48:225|87:201,1,95
88,200,147064,2,6,B|48:174|48:174|87:150,1,95
96,64,147417,5,8
128,80,147505,1,0
160,64,147593,1,4
192,80,147681,1,0
224,64,147769,1,8
256,80,147858,1,0
288,64,147946,1,4
320,80,148034,1,0
360,64,148123,1,8
488,32,148299,5,14
488,192,148476,1,14
488,360,148652,1,14
256,360,148829,6,2,B|160:368|136:272,1,142.499995753169
28,293,149182,1,8
28,293,149270,1,8
28,293,149358,1,8
28,178,149535,6,2,B|-16:96|72:40,1,142.499995753169
169,52,149888,1,8
169,52,149976,1,8
169,52,150064,1,8
283,52,150241,6,4,B|320:41|320:41|360:50|360:50|400:44|400:44|440:53|440:53|480:46|480:46|504:55,1,213.749993629754
491,86,150594,2,4,B|453:75|453:75|413:84|413:84|373:78|373:78|333:87|333:87|293:80|293:80|269:89,1,213.749993629754
282,120,150947,2,4,B|319:109|319:109|359:118|359:118|399:112|399:112|439:121|439:121|479:114|479:114|503:123,1,213.749993629754
490,154,151300,2,4,B|452:143|452:143|412:152|412:152|372:146|372:146|332:155|332:155|292:148|292:148|268:157,1,213.749993629754
281,188,151652,5,2
376,248,151829,1,2
472,312,152005,1,8
472,312,152094,1,8
472,312,152182,1,8
376,376,152358,1,2
261,376,152535,1,2
147,376,152711,1,8
147,376,152799,1,8
147,376,152888,1,8
33,376,153064,6,2,B|91:314|25:234,1,142.499995753169
32,136,153417,1,8
112,48,153594,1,8
184,136,153770,6,2,B|192:48|288:48,1,142.499995753169
352,136,154123,1,8
352,248,154299,1,0
352,249,154476,2,2,B|404:299|448:251|448:251|486:272,1,142.499995753169,2|0
352,249,154829,2,2,B|299:298|255:251|255:251|218:271,2,142.499995753169
352,352,155358,5,0
240,352,155535,1,0
127,352,155711,2,4,B|172:257|172:257|77:257|77:257|115:181,1,284.999991506338
1,180,156241,1,8
1,66,156417,2,4,B|95:21|95:21|95:116|95:116|171:78,1,284.999991506338
288,80,156947,1,0
376,8,157123,1,0
464,80,157299,5,2
464,112,157388,1,2
464,144,157476,1,2
384,224,157652,1,8
464,304,157829,1,8
383,384,158005,1,2
344,384,158094,1,2
304,384,158182,1,2
224,304,158358,1,8
144,224,158535,1,8
64,144,158711,5,8
64,112,158799,1,0
64,80,158888,1,8
64,48,158976,1,0
64,16,159064,1,8
96,16,159152,1,0
128,16,159241,1,8
160,16,159329,1,0
192,16,159417,1,8
224,16,159505,5,8
256,16,159594,1,8
288,16,159682,1,8
320,16,159770,1,0
352,16,159858,1,0
384,16,159947,1,8
416,16,160035,1,0
448,16,160123,6,2,B|528:88|416:168,1,142.499995753169
376,224,160476,1,8
456,304,160652,1,8
376,384,160829,1,2
376,384,160917,1,2
376,384,161005,1,2
296,304,161182,1,8
215,384,161358,1,8
134,303,161535,6,4,B|104:240|40:192,1,142.499995753169
40,160,161799,1,8
40,128,161888,2,4,B|112:96|160:32,1,142.499995753169
184,40,162152,1,8
216,40,162241,2,4,B|256:96|328:128,1,142.499995753169
328,160,162505,1,8
320,192,162594,2,4,B|264:240|232:304,1,142.499995753169
200,304,162858,1,8
168,304,162946,5,8
56,304,163123,1,12
56,192,163299,2,2,B|24:104|120:56,1,142.499995753169
208,32,163652,1,8
208,32,163741,1,8
208,32,163829,1,8
312,72,164005,2,0,B|385:107|353:195,1,142.499995753169,2|0
472,192,164358,5,8
472,192,164447,1,8
472,192,164535,1,8
472,304,164711,1,8
368,344,164888,1,8
264,304,165064,1,4
160,344,165241,1,4
56,304,165417,1,4
56,192,165594,1,4
56,80,165770,6,2,B|88:0|192:24,1,142.499995753169
272,80,166123,1,8
376,24,166299,1,8
480,80,166476,1,2
480,112,166564,1,2
480,144,166652,1,2
480,176,166741,1,2
480,208,166829,1,8
480,320,167005,1,8
368,320,167182,5,2
360,288,167271,1,2
328,272,167359,1,2
296,288,167447,1,2
288,320,167535,1,8
176,320,167711,1,8
64,320,167888,5,2
32,312,167977,1,2
16,280,168065,1,2
32,248,168153,1,2
64,240,168241,1,12
64,128,168417,1,12
176,32,168594,6,2,B|256:152|256:152|333:27,1,284.999991506338
176,352,169299,2,2,B|256:232|256:232|333:357,1,284.999991506338
256,0,170005,5,12
512,192,170358,5,12
256,384,170711,5,12
0,192,171064,5,12
256,192,171417,12,4,172476
256,192,172829,6,2,B|167:103|267:18,1,190,2|0
256,28,173535,2,2,B|345:117|245:202,1,190,2|0
256,192,174241,5,2
160,104,174594,1,2
256,29,174947,1,2
352,104,175299,1,2
256,192,175652,5,8
200,232,175829,1,8
256,272,176005,1,8
200,304,176182,1,8
240,360,176358,5,4
272,376,176447,1,4
304,360,176535,1,4
336,376,176623,1,0
368,360,176711,1,4
400,376,176799,1,4
432,360,176888,1,4
464,376,176976,1,0
496,384,177064,6,2,B|560:288|488:192,1,190
497,138,177594,1,2
497,71,177770,1,2
368,32,178123,1,2
301,32,178299,1,2
232,32,178476,6,4,B|136:32|136:32|80:112,1,190
152,112,179005,2,4,B|98:189|98:189|2:189,1,190
2,256,179535,1,8
2,322,179711,2,14,B|18:314|18:314|18:330|18:330|34:314|34:314|34:330|34:330|50:314|50:314|50:330|50:330|66:314|66:314|66:330|66:330|82:314|82:314|82:330|82:330|98:314|98:314|98:330|98:330|114:314|114:314|114:330|114:330|130:314|130:314|130:330|130:330|146:314|146:314|146:330|146:330|162:314|162:314|162:330|162:330|178:314|178:314|178:330|178:330|194:314|194:314|194:330|194:330|210:314|210:314|210:330|210:330|226:314|226:314|226:330|226:330|242:314|242:314|242:330|242:330|258:314|258:314|258:330|258:330|274:314|274:314|274:330|274:330|290:314|290:314|290:330|290:330|298:322,1,665
349,320,181123,1,0
415,320,181299,6,2,B|480:304|448:216,1,95
416,192,181652,1,8
456,136,181829,1,8
416,80,182005,1,4
384,64,182094,1,4
352,80,182182,1,4
320,64,182270,1,4
288,80,182358,2,0,B|256:80,7,23.75
256,192,182711,12,14,185535
256,192,191182,12,0,192947
168,264,193299,5,8
344,120,193475,5,8
344,264,193652,5,8
168,120,193828,5,8
256,192,194005,5,2
256,104,194182,1,0
208,32,194358,1,0
120,32,194535,2,2,B|40:80|40:80|40:208,1,190
40,176,195064,1,0
40,176,195241,2,8,B|40:272|40:272|120:320,1,190
288,320,195947,6,2,B|392:296|440:184,1,190
432,120,196476,1,0
432,32,196652,1,0
344,32,196829,6,8,B|264:32|264:32|256:40|256:40|256:24|256:24|248:32|248:32|144:32,1,190
88,32,197358,2,8,B|63:72|96:72|96:72|63:138|63:138|96:138|80:200,1,190
80,272,197888,1,0
152,320,198064,2,2,B|192:336|192:336|192:288|192:288|232:336|232:336|232:288|232:288|264:320|264:320|288:360|288:360|344:256|344:256|272:256|272:256|328:360|328:360|360:320|360:320|392:320,1,665
424,288,199476,1,0
448,272,199564,1,0
472,256,199652,5,8
472,168,199829,1,0
472,80,200005,1,8
400,32,200182,1,0
312,32,200358,2,2,B|256:24|232:80,1,95
152,80,200711,1,8
64,80,200888,1,8
64,168,201064,6,2,B|8:200|32:264,1,95
27,333,201417,1,8
115,333,201594,1,8
203,333,201770,1,2
203,333,201858,1,2
203,333,201947,1,2
291,333,202123,1,12
379,333,202299,1,12
467,333,202476,5,0
467,301,202564,1,0
467,269,202652,1,0
395,229,202829,1,0
395,197,202917,1,0
395,165,203005,1,0
475,133,203182,1,0
475,101,203270,1,0
475,69,203358,1,0
395,29,203535,2,0,B|371:29,7,23.75,6|6|6|6|6|6|6|6
256,192,203888,12,12,206358
256,192,206711,5,14
480,32,207594,5,14
392,32,207770,1,14
294,36,207947,2,14,B|38:36|88:176|88:176|72:176|72:176|72:192|72:192|88:192|88:192|36:347|307:347,1,665
352,280,209358,1,14
296,216,209535,6,6,B|104:136,1,190,12|6
296,216,210241,2,14,B|192:48,1,190,12|6
296,216,210946,2,14,B|400:48,1,190,12|6
296,216,211652,2,14,B|488:136,1,190,12|6
296,216,212358,6,6,B|296:232|296:232|288:240|288:240|304:240|304:240|288:248|288:248|304:248|304:248|288:256|288:256|304:256|304:256|288:264|288:264|304:264|304:264|288:272|288:272|304:272|304:272|288:280|288:280|304:280|304:280|288:288|288:288|304:288|304:288|288:296|288:296|304:296|304:296|288:304|288:304|304:304|304:304|296:312|296:312|296:368,1,380
209,366,213241,1,0
121,366,213417,1,0
33,366,213594,2,8,B|105:278|-39:278|41:174,1,190
25,110,214123,1,0
89,54,214299,2,8,B|177:126|177:-18|281:62,1,190
347,48,214829,1,0
433,46,215005,1,0
433,134,215182,6,2,B|409:198|481:222,1,95
461,299,215535,2,2,B|404:310|421:378,1,95
304,368,215888,1,8
176,344,216064,1,8
104,248,216241,1,8
32,144,216417,1,8
104,32,216594,5,2
136,32,216682,1,0
168,32,216770,1,2
200,32,216858,1,0
232,32,216947,1,2
264,32,217035,1,0
296,32,217123,1,2
328,32,217211,1,0
360,32,217299,1,2
392,32,217388,1,0
424,32,217476,5,4
496,192,217652,1,4
432,360,217829,1,4
184,360,218005,6,2,B|144:360|144:360|96:304|96:304|48:304,1,142.499995753169
16,200,218358,1,8
16,200,218447,1,8
16,200,218535,1,8
72,104,218711,2,2,B|100:104|100:104|148:48|148:48|188:48,1,142.499995753169
304,48,219064,1,8
304,48,219152,1,8
304,48,219241,1,8
416,48,219417,6,0,B|480:136|480:136|404:237,1,213.749993629754
416,255,219770,2,0,B|328:319|328:319|227:243,1,213.749993629754
208,255,220123,2,0,B|120:319|120:319|19:243,1,213.749993629754
36,219,220476,2,0,B|-27:135|-27:135|36:47,1,213.749993629754
71,47,220829,6,2,B|119:47|119:47|126:34|126:34|133:47|133:47|140:34|140:34|147:47|147:47|228:47|228:47|236:34|236:34|242:47|242:47|249:34|249:34|256:47|256:47|318:47,1,284.999991506338
404,47,221358,2,2,B|427:88|427:88|442:88|442:88|433:100|433:100|449:100|449:100|440:112|440:112|480:184|480:184|495:183|495:183|486:195|486:195|502:195|502:195|493:208|493:208|523:262,1,284.999991506338
432,328,221888,1,2
328,376,222064,1,6
224,328,222241,6,8,B|161:328|161:328|137:280|137:280|74:280|74:280|58:233|58:233|3:233|3:233,1,284.999991506338
0,120,222770,2,8,B|62:120|62:120|86:72|86:72|149:72|149:72|165:25|165:25|220:25|220:25,1,284.999991506338
312,96,223299,1,8
400,16,223476,1,8
480,96,223652,6,10,B|434:150|434:150|477:146|522:171|540:212|537:263|560:361|459:356|410:367|366:357|334:317|323:282|323:282|284:328,1,569.999983012677
128,312,224535,5,0
40,240,224711,1,0
128,168,224888,1,0
304,24,225241,1,0
392,96,225418,1,0
304,168,225594,1,0
128,312,225947,1,0
40,240,226123,1,0
128,168,226300,1,0
128,168,226476,6,2,B|112:80|216:56,1,142.499995753169
312,61,226829,1,8
425,61,227005,1,8
479,161,227182,2,2,B|512:248|404:294,1,142.499995753169
336,344,227535,1,8
222,344,227711,1,8
104,344,227888,1,0
32,256,228064,5,2
32,256,228152,1,0
32,256,228241,1,8
32,144,228417,5,2
32,144,228505,1,0
32,144,228594,1,8
40,32,228770,5,2
72,32,228858,1,0
104,32,228947,1,8
216,32,229123,1,10
329,32,229299,6,2,B|352:120|480:80,1,142.499995753169
480,200,229652,1,8
480,312,229829,1,8
368,312,230005,2,2,B|304:376|232:304,1,142.499995753169
127,313,230358,1,8
32,248,230535,1,8
32,136,230711,5,8
32,24,230888,1,8
145,24,231064,1,8
145,138,231241,1,8
89,81,231417,1,8
200,80,231594,1,8
200,193,231770,1,8
85,193,231947,1,8
85,306,232123,6,2,B|128:384|216:336,1,142.499995753169
320,341,232476,1,8
355,341,232564,1,8
390,341,232652,1,8
390,226,232829,1,8
422,218,232918,1,0
438,186,233006,1,8
422,154,233094,1,0
390,146,233182,1,8
392,32,233358,1,8
280,32,233535,5,2
168,32,233711,1,2
112,128,233888,1,8
77,128,233976,1,8
42,128,234064,1,8
40,240,234241,1,8
48,272,234330,1,0
80,288,234418,1,8
112,272,234506,1,0
120,240,234594,1,8
208,312,234770,1,8
296,240,234947,6,4,B|285:203|285:203|294:163|294:163|288:123|288:123|297:83|297:83|290:43|290:43|299:19,1,213.749993629754
330,32,235300,2,4,B|319:70|319:70|328:110|328:110|322:150|322:150|331:190|331:190|324:230|324:230|333:254,1,213.749993629754
364,241,235653,2,4,B|353:204|353:204|362:164|362:164|356:124|356:124|365:84|365:84|358:44|358:44|367:20,1,213.749993629754
398,33,236006,2,4,B|387:71|387:71|396:111|396:111|390:151|390:151|399:191|399:191|392:231|392:231|401:255,1,213.749993629754
431,241,236358,6,2,B|472:344|336:384,1,142.499995753169
275,362,236711,1,8
160,360,236888,1,8
46,360,237064,2,10,B|-16:296|56:232,1,142.499995753169
56,120,237417,1,8
136,32,237594,1,8
248,32,237770,6,4,B|328:32,3,71.2499978765846
320,64,238123,2,0,B|320:136,3,71.2499978765846
320,168,238476,2,4,B|248:168,3,71.2499978765846
248,200,238829,2,0,B|248:272,3,71.2499978765846
248,304,239182,5,10
232,336,239270,1,0
200,352,239358,1,10
168,352,239447,1,0
136,352,239535,1,10
104,344,239623,1,0
72,328,239711,1,10
48,296,239799,1,0
40,264,239888,1,10
40,232,239976,1,10
48,200,240064,1,10
72,168,240152,1,10
96,144,240241,1,10
128,136,240329,1,0
160,136,240417,1,10
192,136,240505,1,0
256,192,240594,12,0,251535
256,192,251711,5,8
256,192,251888,2,4,B|261:174|261:174|290:192|301:174|307:157|267:146|267:146|312:140|301:129|301:106|273:129|273:129|290:95|273:78|261:118|261:118|256:61|244:83|233:61|233:118|233:118|216:78|199:95|221:129|221:129|193:106|193:129|182:140|227:146|227:146|187:157|193:174|204:192|227:174|227:174|233:192,1,570,4|4
256,192,253299,6,4,B|238:186|238:186|256:157|238:146|221:140|210:180|210:180|204:135|193:146|170:146|193:174|193:174|159:157|142:174|182:186|182:186|125:192|147:203|125:214|182:214|182:214|142:231|159:248|193:226|193:226|170:254|193:254|204:265|210:220|210:220|221:260|238:254|256:243|238:220|238:220|256:214,1,570,4|4
256,192,254711,6,4,B|250:209|250:209|221:192|210:209|204:226|244:237|244:237|199:243|210:254|210:277|238:254|238:254|221:288|238:305|250:265|250:265|256:322|267:300|278:322|278:265|278:265|295:305|312:288|290:254|290:254|318:277|318:254|329:243|284:237|284:237|324:226|318:209|307:192|284:209|284:209|278:192,1,570,4|4
256,192,256123,6,4,B|273:197|273:197|256:226|273:237|290:243|301:203|301:203|307:248|318:237|341:237|318:209|318:209|352:226|369:209|329:197|329:197|386:192|364:180|386:169|329:169|329:169|369:152|352:135|318:157|318:157|341:129|318:129|307:118|301:163|301:163|290:123|273:129|256:140|273:163|273:163|256:169,1,570,4|4
256,192,257358,1,8
256,104,257535,5,2
128,168,257711,1,0
256,104,257888,1,2
192,248,258064,1,0
256,104,258241,1,2
320,248,258417,1,0
256,104,258593,1,0
384,160,258770,1,2
136,24,258946,6,0,B|96:56|80:104,1,95
376,24,259299,2,2,B|416:48|432:104,1,95
136,152,259652,2,2,B|96:192|80:232,1,95
376,152,260005,2,6,B|416:184|432:232,1,95
144,280,260358,6,6,B|131:339|72:352,1,95,0|0
368,104,260711,2,6,B|376:48|440:32,1,95
144,104,261064,2,6,B|136:48|72:32,1,95
368,280,261417,2,6,B|376:336|440:352,1,95
144,280,261770,5,4
368,104,261947,1,4
104,279,262123,5,4
408,104,262299,1,4
64,280,262476,5,4
448,104,262652,1,4
24,280,262829,5,4
488,104,263005,1,4
256,192,263182,12,4,274476
