osu file format v7

[General]
AudioFilename: Toki no Mukou Gawa.mp3
AudioLeadIn: 0
PreviewTime: 44840
Countdown: 0
SampleSet: Soft
StackLeniency: 0.7
Mode: 0
LetterboxInBreaks: 1

[Editor]
Bookmarks: 75317,161031,214369
DistanceSpacing: 1.29999995231628
BeatDivisor: 4
GridSize: 8

[Metadata]
Title:Other Side of Time
Artist:Riya
Creator:f0012979
Version:Normal
Source:The Legend of Heroes III: The White Witch
Tags:falcom video game

[Difficulty]
HPDrainRate:1
CircleSize:4
OverallDifficulty:5
SliderMultiplier:1.2
SliderTickRate:0.5

[Events]
//Background and Video events
0,0,"BG.jpg"
//Break Periods
2,75561,89399
//Storyboard Layer 0 (Background)
//Storyboard Layer 1 (Fail)
//Storyboard Layer 2 (Pass)
//Storyboard Layer 3 (Foreground)
//Storyboard Sound Samples
//Background Colour Transformations
3,100,163,162,255

[TimingPoints]
1076,476.190476190476,4,2,1,70,1,0
4885,-100,4,2,1,70,0,1
5005,-100,4,2,1,70,0,0
20124,-100,4,2,1,90,0,1
20243,-100,4,2,1,70,0,0
35362,-100,4,2,1,85,0,1
35481,-100,4,2,1,70,0,0
44886,-100,4,2,1,85,0,1
45005,-100,4,2,1,70,0,0
90600,-100,4,2,1,85,0,1
90719,-100,4,2,1,70,0,0
105838,-100,4,2,1,85,0,1
105957,-100,4,2,1,70,0,0
115362,-100,4,2,1,85,0,1
115481,-100,4,2,1,70,0,0
145838,-100,4,2,1,45,0,0

[Colours]
Combo1 : 250,133,141
Combo2 : 255,128,64
Combo3 : 12,203,243

[HitObjects]
256,56,4885,2,0,B|352:48|456:64,1,180,2|0
456,136,5837,2,0,B|464:224,2,60
256,328,6790,2,0,B|160:336|56:320,1,180,2|0
32,256,7742,2,0,B|24:168,2,60
152,56,8695,6,0,B|216:56|288:64,1,120,2|0
336,104,9409,2,0,B|368:104|408:112,1,60
440,176,9885,2,0,B|440:256,1,60
408,312,10361,6,0,B|336:312|264:304,1,120,2|0
232,256,11075,2,0,B|168:248|96:248,1,120,2|0
64,184,11790,2,0,B|8:144,2,60,0|2|0
112,120,12504,6,0,B|192:88|304:80,1,180,2|0
400,264,13695,2,0,B|320:296|208:304,1,180,0|2
144,312,14647,2,0,B|104:320|72:312,2,60,0|0|2
368,312,15599,6,0,B|408:320|440:312,2,60,0|0|2
328,240,16314,2,0,B|352:120,1,120,2|0
400,56,17028,2,0,B|336:24|256:56,1,120
240,112,17742,2,0,B|104:120,1,120,0|2
136,352,18933,2,0,B|197:351|272:344,1,120,2|0
256,272,20123,6,0,B|336:264,1,60,2|0
392,256,20599,2,0,B|408:200|424:120,1,120,2|0
368,80,21314,1,0
368,80,21552,2,0,B|288:88,1,60,2|0
256,144,22028,2,0,B|112:160,2,120,2|2|0
256,64,23218,5,0
256,64,23456,1,2
256,64,23695,1,0
256,64,23933,2,0,B|344:56,2,60,0|0|2
192,208,24885,2,0,B|104:216,2,60,0|0|2
256,256,25599,1,0
392,336,26075,2,0,B|464:328,2,60,0|2|0
256,256,27028,6,0,B|184:264,2,60,0|2|0
336,248,27742,2,0,B|368:184|368:104,1,120,2|2
336,64,28456,2,0,B|272:32|192:32,1,120,0|0
160,88,29171,2,0,B|32:96,1,120,2|2
16,168,29885,2,0,B|16:240,2,60,0|2|0
112,288,30837,6,0,B|112:216,2,60,0|2|0
176,328,31552,2,0,B|304:320,1,120,2|2
368,296,32266,2,0,B|376:224|368:152,1,120
448,176,32980,2,0,B|440:48,1,120,2|0
288,24,33933,1,2
288,24,34171,2,0,B|224:24|152:40,1,120,0|8
120,96,34885,2,0,B|120:144,1,30,8|8
120,240,35361,6,0,B|264:224,1,120,2|0
360,328,36314,2,0,B|416:296|464:232,1,120,8|0
472,176,37028,2,0,B|480:104|440:32,1,120,0|2
384,32,37742,1,0
384,32,37980,2,0,B|312:32|248:48,1,120,4|0
112,144,38933,5,0
112,144,39171,2,0,B|176:144|240:128,1,120,4|8
288,184,39885,2,0,B|344:200|416:200,1,120
464,256,40599,1,8
456,336,40837,1,0
256,192,41075,12,0,42980
256,192,43456,12,4,44885
160,248,45361,6,0,B|144:192|152:120,1,120,8|0
208,72,46075,1,0
208,72,46314,2,0,B|296:56|400:64,1,180,8|2
416,136,47266,2,0,B|480:136,1,60,8|0
488,216,47742,2,0,B|480:280|456:352,1,120,0|8
304,344,48695,6,0,B|176:336,1,120,2|8
160,264,49409,2,0,B|97:255|32:256,1,120
16,184,50123,2,0,B|24:96,1,60,8|0
72,72,50599,1,0
72,72,50837,1,0
72,72,51075,2,0,B|131:64|200:64,1,120,8|2
344,56,52028,1,8
408,200,52504,6,0,B|341:194|264:192,1,120,4|8
136,208,53456,1,0
104,360,53933,2,0,B|160:344|232:344,1,120,8|2
288,304,54647,2,0,B|352:312,2,60,2|8|0
224,160,55599,1,0
224,160,55837,2,0,B|160:144|80:144,1,120,8|2
216,32,56790,6,0,B|296:24,1,60,8|0
424,80,57504,2,0,B|344:88,1,60,0|8
256,200,58218,2,0,B|192:208|120:224,1,120,2|8
80,272,58933,2,0,B|80:336,1,60,0|2
152,360,59409,1,0
152,360,59647,2,0,B|208:352|296:328,1,120,8|4
400,248,60599,6,0,B|472:232,2,60,8|0|0
256,192,61552,2,0,B|168:200,2,60,8|0|0
312,136,62266,1,2
424,24,62742,2,0,B|496:16,2,60,2|0|2
368,80,63456,2,0,B|224:104,1,120,8|2
168,232,64409,5,8
168,232,64647,2,0,B|232:232|312:216,1,120
344,272,65361,1,8
312,344,65599,2,0,B|240:360|168:360,1,120
112,352,66314,2,0,B|88:288|88:224,1,120,8|2
104,80,67266,1,8
256,48,67742,6,0,B|320:56|384:72,1,120,2|8
384,144,68456,2,0,B|456:160,1,60,2|0
456,312,69171,2,0,B|392:296,1,60,8|0
336,344,69647,2,0,B|272:336|192:312,1,120,2|8
192,248,70361,2,0,B|125:237|48:216,1,120,2|0
16,168,71075,2,0,B|32:96,1,60,8|0
96,64,71552,6,0,B|232:40,1,120,4|8
256,104,72266,2,0,B|344:104|440:120,1,180,2|2
256,192,73456,12,4,75361
80,328,90599,6,0,B|166:336|280:336,1,180,2|0
304,272,91552,2,0,B|448:264,1,120,2|0
472,120,92504,2,0,B|464:56,2,60,2|0|0
328,72,93456,5,2
328,72,93695,2,0,B|260:71|184:80,1,120
152,136,94409,2,0,B|160:208,2,60,2|0|0
288,208,95361,6,0,B|280:280,1,60,2|0
272,344,95837,2,0,B|336:344|416:328,1,120,0|2
432,264,96552,2,0,B|496:256,2,60,0|0|2
360,128,97504,6,0,B|272:112,1,60,0|2
224,96,97980,1,0
144,80,98218,2,0,B|132:132|120:224,1,120,2|0
192,240,98933,2,0,B|192:312,1,60,2|0
256,344,99409,1,0
256,344,99647,2,0,B|400:336,1,120,2|2
424,272,100361,1,2
424,272,100599,2,0,B|496:264,1,60,0|2
360,168,101314,6,0,B|280:176,1,60,0|2
224,184,101790,1,0
224,184,102028,2,0,B|157:173|80:152,1,120,2|0
48,208,102742,2,0,B|40:264|40:336,1,120
112,344,103456,2,0,B|168:360|248:360,1,120
384,336,104409,5,8
456,304,104647,2,0,B|488:256|496:168,1,120
352,120,105599,2,0,B|352:40,1,60,0|2
200,32,106314,6,0,B|189:91|200:168,1,120,0|0
128,184,107028,2,0,B|128:320,1,120,2|2
280,344,107980,2,0,B|312:336|360:344,1,60
368,272,108456,2,0,B|428:265|496:272,1,120,4|0
488,112,109409,5,0
464,40,109647,2,0,B|400:24|328:32,1,120,4|8
304,96,110361,2,0,B|160:96,1,120
112,128,111075,2,0,B|64:192,1,60,8|0
160,312,111790,2,0,B|208:240,1,60,0|8
256,216,112266,1,0
256,216,112504,2,0,B|320:208|400:216,1,120,0|8
256,192,113456,12,4,115361
152,256,115837,6,0,B|187:253|224:256,1,60,8|0
256,192,116314,2,0,B|315:186|400:192,1,120,2|8
456,176,117028,1,0
456,176,117266,2,0,B|464:112|464:48,1,120,2|8
392,32,117980,2,0,B|320:24|256:32,1,120,0|2
216,80,118695,2,0,B|136:104,2,60,8|0|2
328,192,119647,6,0,B|264:216,1,60,8|0
208,352,120361,2,0,B|288:320,1,60,0|8
344,344,120837,2,0,B|416:328|440:240,1,120
432,192,121552,2,0,B|432:104,1,60,8|0
400,64,122028,1,2
400,64,122266,2,0,B|368:56|336:64,1,60,0|8
256,192,122980,6,0,B|192:200|112:192,1,120,4|8
104,120,123695,2,0,B|112:88|104:40,1,60,2|0
24,192,124409,2,0,B|16:224|24:264,2,60,8|0|2
152,280,125361,2,0,B|160:312|152:352,2,60,8|0|2
216,232,126075,1,0
216,232,126314,2,0,B|272:224|352:232,1,120,8|2
464,144,127266,5,8
464,144,127504,2,0,B|376:128|272:144,1,180,0|8
232,88,128456,2,0,B|160:88,1,60,0|2
32,160,129171,2,0,B|96:160,1,60,8|0
128,224,129647,1,2
176,288,129885,1,0
232,344,130123,2,0,B|296:336|376:344,1,120,8|4
464,232,131075,6,0,B|472:168|464:104,1,120,8|0
408,56,131790,1,0
408,56,132028,2,0,B|370:49|328:56,1,60,8|0
304,112,132504,2,0,B|224:120,2,60,0|0|8
224,248,133456,2,0,B|304:240,2,60,0|2|8
176,312,134171,1,0
104,344,134409,6,0,B|64:288|56:208,1,120,2|8
48,160,135123,1,0
152,40,135599,2,0,B|224:32,1,60,0|8
264,88,136075,2,0,B|328:80|408:96,1,120,2|0
448,136,136790,1,8
448,288,137266,2,0,B|383:287|320:280,1,120,0|8
192,208,138218,6,0,B|132:207|64:224,1,120,2|8
32,160,138933,2,0,B|16:88,1,60,2|0
160,32,139647,2,0,B|176:104,1,60,8|0
240,128,140123,2,0,B|301:133|384:144,1,120,2|8
416,192,140837,2,0,B|432:272,1,60,2|0
384,320,141314,1,2
384,320,141552,2,0,B|325:316|256:320,1,120,8|4
136,224,142504,5,8
136,224,142742,2,0,B|196:215|264:224,2,120,2|0|4
256,192,143933,12,4,145837
