osu file format v7

[General]
AudioFilename: Toki no Mukou Gawa.mp3
AudioLeadIn: 0
PreviewTime: 44840
Countdown: 0
SampleSet: Soft
StackLeniency: 0.7
Mode: 0
LetterboxInBreaks: 1

[Editor]
Bookmarks: 75317,161031,214369
DistanceSpacing: 1.10000002384186
BeatDivisor: 4
GridSize: 8

[Metadata]
Title:Other Side of Time
Artist:Riya
Creator:f0012979
Version:Easy
Source:The Legend of Heroes III: The White Witch
Tags:falcom video game

[Difficulty]
HPDrainRate:0
CircleSize:4
OverallDifficulty:2
SliderMultiplier:0.7
SliderTickRate:1

[Events]
//Background and Video events
0,0,"BG.jpg"
//Break Periods
//Storyboard Layer 0 (Background)
//Storyboard Layer 1 (Fail)
//Storyboard Layer 2 (Pass)
//Storyboard Layer 3 (Foreground)
//Storyboard Sound Samples
//Background Colour Transformations
3,100,163,162,255

[TimingPoints]
1076,476.190476190476,4,2,1,70,1,0
4885,-100,4,2,1,70,0,1
5005,-100,4,2,1,70,0,0
20123,-100,4,2,1,85,0,0
20242,-100,4,2,1,70,0,0
35362,-100,4,2,1,85,0,1
35481,-100,4,2,1,70,0,0
44886,-100,4,2,1,85,0,1
45005,-100,4,2,1,70,0,0
52861,-100,4,2,2,70,0,0
53099,-100,4,2,1,70,0,0
56671,-100,4,2,2,70,0,0
56909,-100,4,2,1,70,0,0
59528,-100,4,2,2,70,0,0
59766,-100,4,2,1,70,0,0
68099,-100,4,2,2,70,0,0
68337,-100,4,2,1,70,0,0
70004,-100,4,2,2,70,0,0
70242,-100,4,2,1,70,0,0

[Colours]
Combo1 : 250,133,141
Combo2 : 255,128,64
Combo3 : 12,203,243

[HitObjects]
104,344,4885,2,0,B|200:352|320:312,1,210,2|0
376,272,6790,2,0,B|376:200,1,70,2|0
256,48,7980,6,0,B|199:59|136:88,1,105,0|2
88,120,9171,2,0,B|72:176|72:256,1,105
128,280,10361,6,0,B|208:320|312:296,1,175
336,296,11790,2,0,B|352:216,1,70
392,240,12504,6,0,B|405:166|416:88,1,140,2|0
376,32,13933,1,0
312,72,14409,2,0,B|236:60|160:64,1,140,2|0
80,192,16314,6,0,B|144:208|224:208,1,140,2|0
296,192,17742,1,0
376,192,18218,2,0,B|376:264|360:336,2,140,2|0|2
424,88,20837,5,0
424,88,21075,2,0,B|320:64|200:80,1,210
88,296,23218,5,0
88,296,23456,2,0,B|192:320|312:304,1,210
320,280,25123,2,0,B|400:280,1,70,2|0
448,232,26075,2,0,B|456:192|448:152,1,70
424,88,27028,6,0,B|366:85|312:88,1,105,0|2
256,128,28218,1,0
256,128,28456,1,0
256,208,28933,2,0,B|256:248,1,35
88,296,30837,6,0,B|145:298|200:296,1,105,0|2
256,256,32027,1,0
256,256,32265,1,0
256,176,32742,2,0,B|256:136,1,35
256,64,33456,2,0,B|186:58|104:64,2,140,2|0|2
448,88,36552,6,0,B|448:160,1,70,2|0
448,232,37504,2,0,B|384:264|296:264,1,140,2|0
240,232,38933,6,0,B|192:232,1,35,0|4
272,152,39647,2,0,B|320:152,1,35,8|0
248,72,40361,2,0,B|200:72,2,35,0|8|0
256,192,41075,12,0,42980
64,312,44885,6,0,B|64:232,1,70,4|8
104,176,45837,1,0
160,128,46314,2,0,B|232:125|312:128,1,140,8|8
368,168,47742,2,0,B|456:168,2,70,0|8|2
312,224,49171,6,0,B|312:272,1,35,8|0
232,272,49885,2,0,B|232:224,2,35,0|8|0
168,320,50837,1,0
168,320,51075,2,0,B|104:288|24:320,1,140,8|8
8,240,52504,6,0,B|-8:136|8:16,1,210,4|8
80,8,54409,2,0,B|168:0,1,70,2|8
208,56,55361,1,0
208,56,55837,1,8
256,112,56314,6,0,B|360:96|472:112,1,210,2|8
480,184,58218,2,0,B|488:224|480:264,1,70,2|8
416,296,59171,2,0,B|345:308|264:304,1,140,0|4
224,248,60599,6,0,B|144:248,1,70,8|0
104,192,61552,1,8
104,192,61790,2,0,B|94:134|96:80,1,105,0|8
200,48,63218,1,2
200,48,63456,2,0,B|208:128,1,70,8|2
272,152,64409,6,0,B|312:160|352:152,1,70,8|0
416,168,65361,2,0,B|456:160|496:176,1,70,8|0
480,248,66314,2,0,B|480:336|384:336,1,140,8|8
336,280,67742,2,0,B|280:272|216:280,1,105
152,192,69171,1,8
152,192,69647,2,0,B|205:185|272:192,1,105
304,136,70837,2,0,B|344:136,2,35,2|8|2
256,192,71552,12,4,75361
