osu file format v9

[General]
AudioFilename: 26 Reason Of Quibble (iHoneyJoo.com).mp3
AudioLeadIn: 1004
PreviewTime: 15141
Countdown: 0
SampleSet: Normal
StackLeniency: 0.7
Mode: 0
LetterboxInBreaks: 1

[Editor]
Bookmarks: 1001,17874,21624,28499,35961,64308,80419
DistanceSpacing: 1.2
BeatDivisor: 3
GridSize: 8

[Metadata]
Title:Reason of Quibble
Artist:Ritsuko Okazaki
Creator:chamelepeace710
Version:Zodiac Trick
Source:Fruits Baskets
Tags:tohru toru honda zodiac

[Difficulty]
HPDrainRate:7
CircleSize:5
OverallDifficulty:7
ApproachRate:7
SliderMultiplier:1.4
SliderTickRate:1

[Events]
//Background and Video events
0,0,"fruits-basket.jpg"
//Break Periods
//Storyboard Layer 0 (Background)
//Storyboard Layer 1 (Fail)
//Storyboard Layer 2 (Pass)
//Storyboard Layer 3 (Foreground)
//Storyboard Sound Samples
//Background Colour Transformations
3,100,163,162,255

[TimingPoints]
1810,416.666666666667,4,1,0,29,1,0
1928,-100,4,2,0,29,0,0
3266,-100,4,2,1,29,0,0
8734,-100,4,2,0,29,0,0
9845,-100,4,2,1,29,0,0
10401,-100,4,2,0,29,0,0
11685,-100,4,2,1,29,0,0
12102,-100,4,2,0,29,0,0
13248,-100,4,2,1,29,0,0
13769,-100,4,2,0,29,0,0
14032,-100,4,2,1,29,0,0
21254,-100,4,2,1,0,0,0
21532,-100,4,2,1,28,0,0
28337,-100,4,2,1,0,0,0
28615,-100,4,2,1,28,0,0
42345,-100,4,2,0,29,0,0
42623,-100,4,2,1,29,0,0
44012,-100,4,2,0,29,0,0
44290,-100,4,2,1,29,0,0
45678,-100,4,2,0,29,0,0
45956,-100,4,2,1,29,0,0
48317,-100,4,2,0,50,0,0
52484,-100,4,2,1,29,0,0
60282,-100,4,2,0,29,0,0
61675,-100,4,2,2,29,0,0
61952,-100,4,2,1,29,0,0
63786,-100,4,1,0,29,0,0
68337,-100,4,2,0,0,0,0
68615,-100,4,1,0,28,0,0
74984,-100,4,2,2,29,0,0
78198,-100,4,2,1,29,0,0
81790,-100,4,2,1,29,0,0
90837,-100,4,2,1,0,0,0
91119,-100,4,1,0,29,0,0

[Colours]
Combo1 : 255,255,255
Combo2 : 255,128,192
Combo3 : 255,128,128
Combo4 : 240,5,5

[HitObjects]
112,48,1254,1,0
112,48,1393,1,0
32,192,1810,5,0
200,192,2226,1,0
120,344,2643,1,8
288,344,3059,1,0
200,272,3337,1,4
200,216,3476,5,4
368,216,3893,1,0
480,96,4309,1,8
440,56,4448,1,0
400,16,4587,1,0
360,56,4726,1,0
248,56,5004,1,0
192,56,5143,5,4
24,56,5559,1,0
192,56,5976,1,8
104,200,6393,1,0
104,88,6671,1,4
104,144,6809,5,4
264,200,7226,1,0
264,368,7643,1,8
224,328,7782,1,0
184,288,7921,1,0
224,248,8059,1,0
264,144,8337,5,4
264,88,8476,1,4
264,256,8893,1,2
104,200,9309,1,8
264,144,9726,1,2
368,104,10004,5,4
416,136,10143,1,4
416,192,10282,1,0
456,232,10421,1,0
456,288,10559,1,2
288,288,10976,1,8
288,232,11115,1,0
288,176,11254,1,0
288,120,11393,1,2
120,96,11809,5,4
40,240,12226,1,2
208,240,12643,1,8
288,96,13059,1,2
368,184,13337,1,4
400,232,13476,1,4
288,232,13754,1,0
256,184,13893,1,2
216,312,14171,5,4
248,360,14309,1,4
280,312,14448,1,0
312,360,14587,1,4
344,312,14726,1,4
376,360,14865,1,0
408,312,15004,1,4
440,360,15143,6,0,L|440:200,1,140,4|0
312,112,15976,2,0,L|232:112|168:80,1,140,8|6
96,160,16671,1,4
152,160,16809,2,0,L|152:320,1,140,4|0
320,304,17643,1,8
248,152,18060,1,6
248,264,18337,1,0
248,320,18476,1,4
256,192,18893,12,4,21393
344,320,21671,5,4
344,320,21810,1,4
456,192,22226,1,0
344,64,22643,1,8
344,216,23060,1,6
344,104,23337,1,0
344,160,23476,6,0,B|200:160,1,140,4|0
144,160,24032,1,0
88,160,24171,1,0
32,160,24310,2,0,B|32:264|120:264,1,140,8|6
200,320,25004,1,4
256,320,25143,1,4
256,192,25560,12,4,28476
256,128,28893,6,0,B|256:272,1,140,0|8
392,168,29726,1,6
392,280,30004,1,4
432,248,30143,2,0,B|408:200|320:232|344:288,1,140,4|0
176,312,30976,1,8
176,144,31393,1,6
176,32,31671,1,4
176,88,31810,5,4
16,144,32226,1,4
88,232,32504,1,0
88,288,32643,1,4
184,232,32921,1,0
184,288,33060,1,4
288,256,33337,1,0
320,208,33476,5,4
352,256,33615,1,0
408,256,33754,1,0
440,208,33893,1,0
440,152,34032,1,0
408,104,34171,1,0
352,104,34310,5,4
296,120,34448,1,0
264,168,34587,1,0
232,216,34726,1,6
184,240,34865,1,0
136,216,35004,1,0
112,168,35143,1,4
256,64,35421,5,0
256,120,35560,2,8,C|96:120,1,140,4|8
112,288,36393,2,6,C|208:288,1,93.3333333333333,4|0
264,288,36810,1,4
264,120,37226,1,0
432,120,37643,1,8
264,120,38060,1,6
416,48,38476,5,4
248,48,38893,1,0
80,48,39310,2,0,B|80:192,1,140,4|0
248,192,40143,1,0
312,248,40421,1,4
312,248,40560,1,4
184,248,40837,1,4
184,248,40976,1,4
184,120,41254,1,4
184,120,41393,1,4
272,48,41671,1,0
328,48,41810,1,0
448,48,42087,5,0
448,104,42226,1,4
352,160,42504,1,2
352,160,42643,2,0,L|208:160,1,140,4|6
104,144,43337,1,0
104,200,43476,5,4
216,200,43754,1,0
216,256,43893,1,4
328,256,44171,1,2
344,312,44310,2,2,B|400:280|392:208|320:192,1,140,4|6
272,136,45004,1,0
328,136,45143,5,4
440,136,45421,1,0
384,136,45560,1,4
272,136,45837,1,2
272,80,45976,2,2,L|184:80|160:144,1,140,4|6
160,240,46671,1,0
216,240,46810,5,4
104,240,47087,1,0
104,296,47226,1,4
48,296,47365,1,0
104,296,47504,1,0
160,296,47643,2,0,L|240:296|280:240,1,140,4|6
272,80,48476,1,4
104,80,48893,1,0
176,168,49171,1,0
192,224,49310,6,0,B|128:176|64:224,1,140,8|0
128,128,50004,1,0
184,144,50143,2,2,B|248:192|312:144,1,140,2|2
184,32,50976,1,8
264,176,51393,2,0,C|168:240,1,93.3333333333333
224,264,51810,1,2
392,264,52226,1,0
256,168,52643,6,0,L|324:149|432:184,1,140,8|0
296,240,53337,1,4
256,280,53476,2,0,L|192:280|112:312,1,140,6|0
128,192,54171,1,4
128,136,54310,2,0,L|208:120|288:168,1,140,6|0
368,152,55004,1,4
368,208,55143,6,2,C|304:208,5,46.6666666666667,6|0|0|0|0|0
264,208,55976,2,2,B|160:184|160:88,1,140,4|8
272,120,56671,1,0
328,120,56810,1,4
160,120,57226,1,0
328,120,57643,1,8
328,288,58060,2,0,C|424:288,1,93.3333333333333
464,248,58476,6,0,C|416:200,2,46.6666666666667,4|0|0
464,184,58893,2,0,C|424:144,2,46.6666666666667,4|0|0
464,248,59310,2,0,C|464:344,1,93.3333333333333,8|0
408,352,59726,1,0
416,296,59865,1,0
360,312,60004,1,0
344,256,60143,2,0,B|160:320|48:160|72:120|160:56|241:72|328:136|120:336|56:328,1,653.333333333333,4|0
128,352,62226,2,0,B|216:368|296:360,1,140,6|8
256,192,63060,2,0,B|296:248,2,46.6666666666667
232,144,63476,5,4
64,144,63893,2,0,C|136:144,2,46.6666666666667
64,88,64310,1,8
176,88,64587,1,0
232,88,64726,1,0
256,192,65143,12,4,68476
96,32,68754,5,0
128,80,68893,1,0
240,32,69171,1,0
240,32,69310,2,0,B|240:176,1,140
352,216,70004,1,0
392,176,70143,1,0
392,64,70421,1,0
440,96,70560,1,0
440,208,70837,1,0
440,264,70976,2,0,B|432:368|328:328,1,140
200,280,71671,1,0
256,280,71810,5,0
256,112,72226,1,0
112,200,72643,1,8
256,280,73060,1,0
144,296,73337,1,0
88,320,73476,6,0,L|52:245|88:160,1,140
152,120,74171,1,0
208,104,74310,2,0,L|274:72|368:104,1,140,8|0
256,232,75143,6,0,B|320:296|384:232,1,140,4|0
376,128,75837,1,0
336,168,75976,2,0,B|272:104|208:168,1,140,12|0
160,264,76671,1,0
128,216,76810,2,0,B|64:280|128:344,1,140,4|0
264,168,77504,1,0
240,216,77643,2,0,B|304:280|368:216,1,140,12|0
256,88,78476,5,4
208,64,78615,1,0
160,88,78754,1,0
112,112,78893,1,4
88,160,79032,1,0
120,208,79171,1,0
152,248,79310,2,0,B|152:296|88:288,2,46.6666666666667,8|0|0
208,256,79726,2,0,B|208:304,2,46.6666666666667,8|0|0
264,248,80143,5,6
264,136,80421,1,0
264,80,80560,1,4
376,80,80837,1,0
376,136,80976,1,4
208,136,81393,1,4
80,40,81810,5,4
248,40,82226,1,0
416,40,82643,1,8
416,208,83060,1,0
304,208,83337,1,4
248,208,83476,1,4
80,208,83893,1,0
160,64,84310,1,8
160,232,84726,1,0
224,144,85004,1,4
256,96,85143,5,4
336,176,85421,1,0
344,232,85560,1,4
232,248,85837,1,0
224,192,85976,1,4
216,136,86115,1,0
160,144,86254,1,0
104,152,86393,1,4
280,248,86810,5,4
288,192,86948,1,0
296,136,87087,1,0
352,144,87226,1,4
408,152,87365,1,0
400,208,87504,1,0
392,264,87643,1,4
336,256,87782,1,0
344,200,87921,1,0
288,192,88060,1,4
256,192,88476,12,4,90976
424,192,91393,5,0
256,192,91810,1,0
16,328,92504,1,0
16,48,93198,1,0
