osu file format v9

[General]
AudioFilename: 26 Reason Of Quibble (iHoneyJoo.com).mp3
AudioLeadIn: 1004
PreviewTime: 15143
Countdown: 0
SampleSet: Soft
StackLeniency: 1
Mode: 0
LetterboxInBreaks: 1

[Editor]
Bookmarks: 1001,80419
DistanceSpacing: 0.8
BeatDivisor: 1
GridSize: 8

[Metadata]
Title:Reason of Quibble
Artist:Ritsuko Okazaki
Creator:chamelepeace710
Version:Novice
Source:Fruits Basket
Tags:tohru toru honda zodiac

[Difficulty]
HPDrainRate:2
CircleSize:3
OverallDifficulty:2
ApproachRate:2
SliderMultiplier:1
SliderTickRate:1

[Events]
//Background and Video events
0,0,"fruits-basket.jpg"
//Break Periods
2,66176,66916
//Storyboard Layer 0 (Background)
//Storyboard Layer 1 (Fail)
//Storyboard Layer 2 (Pass)
//Storyboard Layer 3 (Foreground)
//Storyboard Sound Samples
//Background Colour Transformations
3,100,163,162,255

[TimingPoints]
1810,416.666666666667,4,2,1,45,1,0
18754,-100,4,2,0,45,0,0
19865,-100,4,2,1,45,0,0
20421,-100,4,2,0,45,0,0
22365,-100,4,2,1,45,0,0
25421,-100,4,2,0,45,0,0
26532,-100,4,2,1,45,0,0
26948,-100,4,2,0,45,0,0
28615,-100,4,2,1,45,0,0
32504,-100,4,2,0,45,0,0
32782,-100,4,2,1,45,0,0
40837,-100,4,2,0,45,0,0
41115,-100,4,2,1,45,0,0
53615,-100,4,2,0,45,0,0
54171,-100,4,2,1,45,0,0
68754,-100,4,2,0,45,0,0
69726,-100,4,2,1,45,0,0
70421,-100,4,2,0,45,0,0
71532,-100,4,2,1,45,0,0
72087,-100,4,2,0,45,0,0
73337,-100,4,2,1,45,0,0
73615,-100,4,2,0,45,0,0
74865,-100,4,2,1,45,0,0
91532,-100,4,1,2,45,0,0

[Colours]
Combo1 : 255,255,255
Combo2 : 255,128,192
Combo3 : 255,128,128
Combo4 : 255,0,0

[HitObjects]
256,88,1809,1,4
376,192,2643,1,8
256,296,3476,1,4
136,192,4310,1,8
256,296,5143,5,4
376,192,5976,1,8
256,88,6810,1,4
136,192,7643,1,8
216,192,8060,1,0
296,192,8476,6,0,L|408:192,2,100,4|0|8
160,272,10143,2,0,L|56:272,2,100,4|0|8
320,304,11810,2,0,C|472:304,2,100,4|0|8
144,248,13476,2,0,C|144:128,3,100,4|0|8|8
216,112,15143,6,0,B|264:80|312:112,1,100,4|0
392,120,15976,2,0,B|424:168|392:216,1,100,8|0
344,280,16810,2,0,B|304:328|232:288,3,100,4|0|8|0
200,232,18476,2,0,B|120:168|200:112|104:56,3,200,4|8|4|8
256,128,21810,1,4
376,232,22643,6,0,L|480:232,1,100,8|0
448,160,23476,2,0,B|344:160,1,100,4|0
352,80,24310,2,0,B|248:80,1,100,8|0
176,96,25143,2,0,L|64:96|64:208,3,200,4|8|4|8
224,216,28476,5,4
264,144,28893,1,0
336,104,29310,6,0,B|304:48|224:48,1,100,8|0
184,88,30143,2,0,B|216:144|296:144,1,100,4|0
320,200,30976,1,8
392,160,31393,1,0
440,224,31810,2,0,B|352:328|256:232|256:232|160:328|72:224,1,400,4|4
160,200,33893,5,8
144,120,34310,1,0
88,64,34726,1,8
8,48,35143,1,4
232,112,35976,6,0,B|256:48|328:64,1,100,8|0
384,88,36810,2,0,B|432:128|400:184,1,100,4|0
392,256,37643,2,0,B|368:320|288:296,1,100,8|0
232,312,38476,2,0,B|136:288|88:144|112:136,2,200,4|0|4
256,152,40976,1,4
456,240,41810,6,0,B|336:240,1,100,4|0
400,176,42643,2,0,B|288:176,1,100,6|8
344,112,43476,2,0,B|240:112,1,100,4|0
160,112,44310,2,0,L|56:112,1,100,6|8
80,192,45143,2,0,B|80:296,3,100,4|0|6|8
160,272,46810,2,0,B|272:272,3,100,4|0|6|8
296,344,48476,6,0,B|408:344,1,100,4|0
400,264,49310,2,0,B|400:160,1,100,6|8
360,96,50143,2,0,B|216:96,1,100,4|0
192,136,50976,2,0,B|240:224,1,100,6|8
296,280,51810,5,4
376,280,52226,1,0
376,200,52643,1,6
296,200,53060,1,8
216,200,53476,2,0,B|72:200|72:48,1,200,4|6
152,80,54726,1,8
232,80,55143,6,0,B|304:80|304:152,1,100,4|0
240,192,55976,2,0,B|240:264|320:256,1,100,4|8
376,248,56810,2,0,B|464:248|464:168,2,100,4|0|4
224,96,58476,6,0,B|224:208,2,100,4|0|8
304,96,59726,1,0
384,96,60143,2,0,B|384:208,2,100,4|0|8
304,96,61393,1,0
304,176,61810,1,4
224,176,62226,1,0
224,96,62643,6,0,B|176:64|96:104,1,100,8|0
80,152,63476,2,0,B|72:216|112:272,1,100,4|0
176,232,64310,1,8
256,208,64726,2,0,B|320:256|280:336,1,100,0|4
232,344,65560,1,0
152,344,65976,1,8
248,192,68476,6,0,L|136:192|136:64,1,200,6|8
296,104,70143,2,0,L|400:104|400:232,1,200,6|8
240,200,71810,2,0,L|240:304|144:304,1,200,6|8
136,144,73476,2,0,L|24:144|24:264,1,200,6|8
72,304,75143,5,4
232,304,75976,1,8
232,144,76810,1,4
72,144,77643,1,8
72,304,78476,1,4
232,304,79310,1,8
232,144,80143,2,0,L|336:144,3,100,4|0|8|0
392,192,81810,6,0,L|392:328,1,100,4|0
312,288,82643,1,8
232,288,83060,1,0
152,288,83476,2,0,L|152:176,1,100,4|0
152,104,84310,1,8
72,104,84726,1,0
72,184,85143,6,0,L|72:288,1,100,4|0
152,280,85976,1,8
232,280,86393,1,0
312,280,86810,2,0,L|424:280,2,100,4|0|8
312,200,88060,1,0
256,192,88476,12,4,90975
176,192,91810,6,0,B|352:192,2,166.666666666667,4|4|4
