osu file format v9

[General]
AudioFilename: 26 Reason Of Quibble (iHoneyJoo.com).mp3
AudioLeadIn: 1004
PreviewTime: 15141
Countdown: 0
SampleSet: Normal
StackLeniency: 0.7
Mode: 0
LetterboxInBreaks: 1

[Editor]
Bookmarks: 1001,37643,52087,80419
DistanceSpacing: 0.9
BeatDivisor: 3
GridSize: 8

[Metadata]
Title:Reason of Quibble
Artist:Ritsuko Okazaki
Creator:chamelepeace710
Version:Junior
Source:Fruits Baskets
Tags:tohru toru honda zodiac

[Difficulty]
HPDrainRate:3
CircleSize:4
OverallDifficulty:4
ApproachRate:5
SliderMultiplier:1.4
SliderTickRate:1

[Events]
//Background and Video events
0,0,"fruits-basket.jpg"
//Break Periods
//Storyboard Layer 0 (Background)
//Storyboard Layer 1 (Fail)
//Storyboard Layer 2 (Pass)
//Storyboard Layer 3 (Foreground)
//Storyboard Sound Samples
//Background Colour Transformations
3,100,163,162,255

[TimingPoints]
1810,416.666666666667,4,1,0,30,1,0
2036,-100,4,2,1,30,0,0
46254,-100,4,2,0,30,0,0
46532,-100,4,2,1,30,0,0
47087,-100,4,2,0,30,0,0
47365,-100,4,2,1,30,0,0
62087,-100,4,2,0,30,0,0
63198,-100,4,2,1,30,0,0
63615,-100,4,2,0,30,0,0
64865,-100,4,2,1,30,0,0
68754,-100,4,2,0,30,0,0
69032,-100,4,2,1,30,0,0
90698,-100,4,2,0,0,0,0
91393,-100,4,1,0,30,0,0

[Colours]
Combo1 : 255,255,255
Combo2 : 255,128,192
Combo3 : 255,128,128
Combo4 : 255,0,0

[HitObjects]
16,256,1254,2,0,L|16:200,1,46.6666666666667
16,96,1809,5,0
136,64,2226,1,0
256,24,2643,1,8
376,64,3060,1,0
496,96,3476,5,4
376,136,3893,1,0
256,160,4310,2,0,B|256:224|256:224|256:240|272:240|272:240|336:240,1,140,8|0
432,176,5143,5,4
488,288,5560,1,0
376,344,5976,1,8
264,296,6393,1,0
320,192,6810,5,4
224,104,7226,1,0
344,64,7643,1,8
464,104,8059,1,0
376,192,8476,5,4
376,320,8893,1,6
256,272,9309,1,8
136,320,9726,1,6
136,192,10143,5,4
256,240,10559,1,6
368,184,10976,1,8
256,128,11393,1,6
144,64,11809,6,0,L|48:64|16:128,1,140,4|6
144,160,12643,2,8,L|56:160|24:216,1,140,8|6
144,256,13476,2,8,L|176:304|264:304,1,140,4|6
192,200,14309,2,8,L|280:200|312:256,1,140,8|6
368,136,15143,1,4
416,256,15559,1,0
280,256,15976,6,8,L|120:256,1,140,8|0
256,304,16809,2,0,L|448:304,1,140,4|0
456,192,17643,1,8
328,192,18060,2,0,C|344:144|320:104|336:64,1,140,0|4
448,32,18893,1,0
320,32,19310,5,8
192,32,19726,1,0
72,80,20143,2,0,L|16:224,1,140,4|0
128,144,20976,2,8,L|240:272,1,140,8|0
344,256,21810,1,4
472,256,22226,1,0
472,128,22643,5,8
344,128,23060,1,0
216,128,23476,1,4
280,16,23893,2,0,L|280:176,1,140,0|8
280,280,24726,1,0
408,280,25143,2,0,B|408:216|408:216|408:200|392:200|392:200|336:200|336:200,1,140,4|0
216,200,25976,1,8
216,72,26393,1,0
88,72,26810,6,0,B|88:136|88:136|88:152|104:152|104:152|160:152,1,140,4|0
280,128,27643,2,0,C|360:144,1,46.6666666666667,4|0
304,168,27921,2,0,C|336:216,1,46.6666666666667,4|0
288,216,28198,2,0,C|288:272,1,46.6666666666667,4|0
248,256,28476,1,4
352,336,28893,1,0
448,256,29310,6,0,B|448:96,1,140,8|0
376,224,30143,2,0,L|376:32,1,140,4|0
248,88,30976,1,8
248,216,31393,2,0,L|88:216,1,140,0|4
104,88,32226,1,0
112,216,32643,2,0,C|144:248|112:280|144:312|112:344,1,140,8|0
272,312,33476,6,0,B|336:344|400:312,1,140,4|0
424,184,34310,2,0,B|416:96|320:80,1,140,8|0
264,184,35143,1,4
264,56,35560,1,0
136,64,35976,5,8
40,144,36393,1,0
136,224,36810,1,4
264,224,37226,1,0
376,288,37643,1,8
264,352,38060,1,0
136,352,38476,1,4
136,224,38893,2,0,L|136:144,2,46.6666666666667
176,224,39310,2,0,B|320:224,1,140,8|0
360,112,40143,6,0,C|200:112,1,140,6|0
96,112,40976,1,8
336,192,41810,1,4
224,248,42226,1,0
112,192,42643,5,8
112,64,43060,1,0
240,64,43476,1,4
368,64,43893,1,0
368,192,44310,1,8
240,192,44726,2,0,C|240:352,1,140,0|4
368,328,45560,1,0
368,200,45976,6,0,B|240:112|88:200,2,280,8|4|8
312,88,48060,1,0
192,64,48476,1,4
216,184,48893,2,0,C|216:344,1,140,0|8
344,288,49726,1,0
384,168,50143,2,0,L|464:168,2,46.6666666666667,4|0|0
344,168,50560,2,4,C|344:24,2,140
256,248,51810,1,4
136,288,52226,6,0,C|136:128,1,140,0|8
264,144,53060,1,0
264,16,53476,2,0,L|312:16,2,46.6666666666667,4|0|0
264,56,53893,2,0,C|120:56,1,140,4|8
16,120,54726,1,0
112,192,55143,5,4
240,192,55560,1,0
368,192,55976,1,8
304,304,56393,2,0,L|304:232,3,46.6666666666667,4|0|0|4
304,128,57226,1,0
184,168,57643,1,8
56,176,58060,1,0
112,280,58476,2,0,L|112:216,3,46.6666666666667,4|0|0|4
112,144,59310,5,8
240,144,59726,1,4
368,144,60143,2,0,L|368:224,3,46.6666666666667,4|0|0|4
240,192,60976,1,8
240,320,61393,1,4
360,320,61810,6,0,L|360:160|392:160|392:32,1,280,4|8
144,72,63476,2,0,L|144:232|112:232|112:328,1,280,4|8
256,192,65143,6,0,L|256:32,2,140,4|0|8
32,192,66810,2,0,L|128:320,2,140,4|0|8
160,192,68060,1,0
160,112,68337,1,4
200,112,68476,6,0,B|344:32|472:112,1,280,4|8
312,248,70004,1,4
352,224,70143,2,0,L|320:160|256:120,2,140,4|0|8
128,96,71810,6,0,C|128:256,2,140,4|0|8
336,96,73337,1,4
288,96,73476,2,0,C|128:96,3,140,4|0|8|0
96,160,75004,5,4
128,192,75143,2,0,C|160:224|128:256|160:288|160:320,1,140,4|0
256,208,75976,1,8
456,136,76671,1,4
424,160,76810,2,0,C|392:192|424:224|392:256|424:256,1,140,4|0
280,192,77643,1,8
128,48,78337,1,4
168,72,78476,2,0,B|224:120|264:40|328:104,3,140,4|0|8|0
256,160,80143,5,4
128,160,80560,1,0
256,160,80976,1,4
384,160,81393,1,4
384,288,81810,6,0,C|352:224|256:224,1,140,4|0
176,160,82643,2,0,L|144:216,5,46.6666666666667,4|0|0|4|0|0
152,128,83476,6,0,C|88:128|80:48,1,140,4|0
208,48,84310,2,0,L|264:40,1,46.6666666666667,4|0
272,80,84587,2,0,L|216:88,1,46.6666666666667,0|4
240,192,85143,6,0,B|336:192|336:96,1,140,4|0
384,232,85976,2,0,L|448:216,3,46.6666666666667,4|0|0|4
344,128,86810,6,0,B|408:64|472:128,1,140,4|0
464,248,87643,2,0,L|496:312,1,46.6666666666667,4|0
448,296,87921,2,0,C|456:360,1,46.6666666666667,4|0
416,328,88198,2,0,C|400:384,1,46.6666666666667,4|0
256,192,88476,12,4,90976
256,96,91810,5,4
152,272,92504,1,0
360,272,93198,1,0
