osu file format v12

[General]
AudioFilename: .mp3
AudioLeadIn: 0
PreviewTime: 202400
Countdown: 0
SampleSet: Soft
StackLeniency: 0.7
Mode: 0
LetterboxInBreaks: 0
WidescreenStoryboard: 0

[Editor]
DistanceSpacing: 1.4
BeatDivisor: 4
GridSize: 8

[Metadata]
Title:Utsukushi
TitleUnicode:うつくし
Artist:Ritsuka
ArtistUnicode:リツカ
Creator:enlxodutls
Version:Normal
Source:
Tags:
BeatmapID:272803
BeatmapSetID:103360

[Difficulty]
HPDrainRate:3
CircleSize:3
OverallDifficulty:4
ApproachRate:5
SliderMultiplier:1.2
SliderTickRate:2

[Events]
//Background and Video events
0,0,"pixiv26574132.png",0,0
//Break Periods
//Storyboard Layer 0 (Background)
//Storyboard Layer 1 (Fail)
//Storyboard Layer 2 (Pass)
//Storyboard Layer 3 (Foreground)
//Storyboard Sound Samples
//Background Colour Transformations
3,100,255,255,255

[TimingPoints]
10252,638.297872340426,4,2,2,15,1,0
11209,-100,4,2,2,10,0,0
12805,-100,4,2,2,15,0,0
13762,-100,4,2,2,10,0,0
15358,-100,4,2,2,15,0,0
16315,-100,4,2,2,10,0,0
17911,-100,4,2,2,15,0,0
18869,-100,4,2,2,10,0,0
20464,-100,4,2,2,20,0,0
21103,-100,4,2,2,15,0,0
21422,-100,4,2,2,10,0,0
23017,-100,4,2,2,20,0,0
23656,-100,4,2,2,15,0,0
23975,-100,4,2,2,10,0,0
25571,-100,4,2,2,20,0,0
26528,-100,4,2,2,15,0,0
28124,-100,4,2,2,20,0,0
28762,-100,4,2,2,15,0,0
29400,-100,4,2,1,20,0,0
29720,-100,4,2,1,5,0,0
30039,-100,4,2,2,20,0,0
31315,-100,4,2,2,15,0,0
31954,-100,4,2,1,10,0,0
32273,-100,4,2,2,20,0,0
33869,-100,4,2,2,15,0,0
34188,-100,4,2,2,10,0,0
34507,-100,4,2,2,20,0,0
36422,-100,4,2,2,15,0,0
37060,-100,4,2,1,10,0,0
37379,-100,4,2,1,15,0,0
37698,-100,4,2,2,20,0,0
38975,-100,4,2,1,15,0,0
39294,-100,4,2,1,10,0,0
39613,-100,4,2,2,30,0,0
39932,-100,4,2,2,20,0,0
41528,-100,4,2,2,15,0,0
42166,-100,4,2,1,25,0,0
42805,-100,4,2,1,20,0,0
43443,-100,4,2,1,25,0,0
44081,-100,4,2,2,20,0,0
44720,-100,4,2,2,15,0,0
45996,-100,4,2,1,25,0,0
46315,-100,4,2,2,15,0,0
46634,-100,4,2,2,20,0,0
46954,-100,4,2,2,15,0,0
47273,-100,4,2,1,10,0,0
47592,-100,4,2,2,20,0,0
48869,-100,4,2,1,10,0,0
49826,-100,4,2,1,40,0,0
50145,-100,4,2,2,10,0,0
50783,-100,4,2,2,15,0,0
51103,-100,4,2,2,30,0,0
51422,-100,4,2,1,20,0,0
52698,-100,4,2,1,25,0,0
53017,-100,4,2,2,15,0,0
53656,-100,4,2,2,35,0,0
53975,-100,4,2,1,10,0,0
54932,-100,4,2,1,35,0,0
55252,-100,4,2,2,25,0,0
56209,-100,4,2,2,35,0,0
56369,-100,4,2,2,10,0,0
57486,-100,4,2,1,30,0,0
57645,-100,4,2,1,10,0,0
58443,-100,4,2,1,25,0,0
58762,-100,4,2,2,35,0,0
59081,-100,4,2,1,10,0,0
60039,-100,4,2,1,30,0,0
60358,-100,4,2,2,25,0,0
61315,-100,4,2,2,30,0,0
61634,-100,4,2,2,10,0,0
62273,-100,4,2,2,20,0,0
62592,-100,4,2,1,30,0,0
62911,-100,4,2,2,10,0,0
63549,-100,4,2,3,30,0,0
63869,-100,4,2,2,30,0,0
64188,-100,4,2,2,10,0,0
64826,-100,4,2,2,20,0,0
65145,-100,4,2,1,30,0,0
66422,-100,4,2,2,30,0,0
66741,-100,4,2,2,10,0,0
67379,-100,4,2,2,20,0,0
67698,-100,4,2,1,30,0,0
68017,-100,4,2,2,10,0,0
68656,-100,4,2,1,20,0,0
70890,-100,4,2,2,20,0,0
73124,-100,4,2,2,15,0,0
73443,-100,4,2,2,12,0,0
74081,-100,4,2,2,20,0,0
75996,-100,4,2,1,15,0,0
76634,-100,4,2,1,20,0,0
77911,-100,4,2,4,40,0,0
78230,-100,4,2,2,20,0,0
79188,-100,4,2,2,25,0,0
80145,-100,4,2,3,30,0,0
80464,-100,4,2,4,20,0,0
81103,-100,4,2,2,15,0,0
81741,-100,4,2,3,30,0,0
82379,-100,4,2,2,15,0,0
82698,-100,4,2,2,20,0,0
83656,-100,4,2,1,15,0,0
84294,-100,4,2,3,25,0,0
84932,-100,4,2,2,20,0,0
85571,-100,4,2,1,25,0,0
85890,-100,4,2,2,20,0,0
88124,-100,4,2,1,25,0,0
88443,-100,4,2,2,20,0,0
89400,-100,4,2,3,35,0,0
89720,-100,4,2,2,20,0,0
90358,-100,4,2,2,30,0,0
90677,-100,4,2,1,30,0,0
90996,-100,4,2,2,20,0,0
91954,-100,4,2,3,40,0,0
92592,-100,4,2,2,15,0,0
92911,-100,4,2,3,30,0,0
93549,-100,4,2,2,15,0,0
93869,-100,4,2,2,30,0,0
94826,-100,4,2,1,20,0,0
95464,-100,4,2,3,30,0,0
96103,-100,4,2,1,20,0,0
96422,-100,4,2,1,10,0,0
97060,-100,4,2,3,30,0,0
97698,-100,4,2,2,25,0,0
98017,-100,4,2,2,15,0,0
98975,-100,4,2,2,20,0,0
99613,-100,4,2,2,30,0,0
99932,-100,4,2,2,20,0,0
100571,-100,4,2,3,30,0,0
100890,-100,4,2,1,10,0,0
101209,-100,4,2,1,30,0,0
102166,-100,4,2,3,30,0,0
102805,-100,4,2,2,20,0,0
103124,-100,4,2,2,15,0,0
104081,-100,4,2,1,25,0,0
104400,-100,4,2,1,10,0,0
104720,-100,4,2,2,25,0,0
105039,-100,4,2,2,20,0,0
106315,-100,4,2,1,25,0,0
106634,-100,4,2,2,35,0,0
107273,-100,4,2,2,30,0,0
108230,-100,4,2,2,20,0,0
109188,-100,4,2,1,25,0,0
109507,-100,4,2,1,10,0,0
109826,-100,4,2,3,40,0,0
110145,-100,4,2,2,20,0,0
110783,-100,4,2,3,35,0,0
111103,-100,4,2,4,35,0,0
111422,-100,4,2,2,20,0,0
111741,-100,4,2,2,25,0,0
112060,-100,4,2,2,20,0,0
112379,-100,4,2,2,35,0,0
113337,-100,4,2,2,25,0,0
113656,-100,4,2,1,35,0,0
113975,-100,4,2,1,10,0,0
114294,-100,4,2,1,25,0,0
114932,-100,4,2,2,35,0,0
115890,-100,4,2,2,25,0,0
116209,-100,4,2,1,35,0,0
116528,-100,4,2,1,10,0,0
116847,-100,4,2,1,25,0,0
117486,-100,4,2,2,35,0,0
118762,-100,4,2,1,35,0,0
119081,-100,4,2,1,10,0,0
120039,-100,4,2,2,35,0,0
120996,-100,4,2,1,20,0,0
121315,-100,4,2,1,30,0,0
121634,-100,4,2,1,20,0,0
121954,-100,4,2,1,25,0,0
122592,-100,4,2,2,30,0,0
123549,-100,4,2,1,30,0,0
124188,-100,4,2,1,10,0,0
124507,-100,4,2,1,20,0,0
125145,-100,4,2,1,35,0,0
125464,-100,4,2,1,10,0,0
126103,-100,4,2,2,25,0,0
126422,-100,4,2,2,30,0,0
127698,-100,4,2,1,45,0,0
128017,-100,4,2,1,10,0,0
128656,-100,4,2,1,30,0,0
128975,-100,4,2,1,45,0,0
129294,-100,4,2,1,10,0,0
129932,-100,4,2,1,30,0,0
130252,-100,4,2,2,40,0,0
131528,-100,4,2,3,35,0,0
132805,-100,4,2,2,30,0,1
133762,-100,4,2,3,30,0,1
134081,-100,4,2,1,35,0,1
134400,-100,4,2,2,20,0,1
135039,-100,4,2,1,30,0,1
135358,-100,4,2,2,30,0,1
136315,-100,4,2,2,20,0,1
136634,-100,4,2,1,30,0,1
136954,-100,4,2,2,20,0,1
137911,-100,4,2,2,30,0,1
138869,-100,4,2,1,25,0,1
139188,-100,4,2,1,30,0,1
139507,-100,4,2,2,20,0,1
140464,-100,4,2,2,30,0,1
140943,-100,4,2,1,20,0,1
141103,-100,4,2,2,30,0,1
142220,-100,4,2,2,20,0,1
143017,-100,4,2,2,30,0,1
143975,-100,4,2,2,25,0,1
144294,-100,4,2,1,30,0,1
144613,-100,4,2,2,25,0,1
145571,-100,4,2,2,35,0,1
146528,-100,4,2,1,25,0,1
146847,-100,4,2,1,30,0,1
147166,-100,4,2,2,20,0,1
148124,-100,4,2,2,30,0,1
149081,-100,4,2,1,25,0,1
149400,-100,4,2,1,35,0,1
149720,-100,4,2,2,20,0,1
150677,-100,4,2,2,30,0,1
151634,-100,4,2,1,20,0,1
151954,-100,4,2,3,30,0,1
152432,-100,4,2,3,35,0,1
152911,-100,4,2,3,30,0,1
153230,-100,4,2,2,20,0,0
153869,-100,4,2,2,20,0,0
154188,-100,4,2,2,15,0,0
155145,-100,4,2,2,25,0,0
155783,-100,4,2,2,30,0,0
157698,-100,4,2,1,30,0,0
158337,-100,4,2,2,35,0,0
158815,-100,4,2,2,25,0,0
159613,-100,4,2,2,35,0,0
160092,-100,4,2,2,25,0,0
160890,-100,4,2,2,35,0,0
161369,-100,4,2,2,25,0,0
162166,-100,4,2,2,35,0,0
162645,-100,4,2,2,25,0,0
163443,-100,4,2,2,20,0,0
164400,-100,4,2,2,5,0,0
165996,-100,4,2,2,20,0,0
166634,-100,4,2,2,15,0,0
167273,-100,4,2,2,20,0,0
171103,-100,4,2,2,20,0,0
172379,-100,4,2,2,30,0,0
172698,-100,4,2,2,20,0,0
173017,-100,4,2,2,30,0,0
173337,-100,4,2,2,20,0,0
173656,-100,4,2,2,40,0,0
174294,-100,4,2,2,20,0,0
174613,-100,4,2,2,30,0,0
175252,-100,4,2,2,20,0,0
175571,-100,4,2,1,25,0,0
176209,-100,4,2,2,30,0,0
177166,-100,4,2,2,20,0,0
177486,-100,4,2,2,30,0,0
178443,-100,4,2,2,20,0,0
179720,-100,4,2,3,30,0,0
180039,-100,4,2,1,20,0,0
181315,-100,4,2,2,25,0,0
183869,-100,4,2,2,35,0,0
184826,-100,4,2,2,25,0,0
185145,-100,4,2,1,35,0,0
185464,-100,4,2,1,10,0,0
185783,-100,4,2,2,25,0,0
186422,-100,4,2,2,35,0,0
187379,-100,4,2,2,25,0,0
187698,-100,4,2,1,35,0,0
188017,-100,4,2,1,10,0,0
188337,-100,4,2,2,25,0,0
188975,-100,4,2,1,35,0,0
189294,-100,4,2,1,10,0,0
189613,-100,4,2,2,25,0,0
190252,-100,4,2,2,35,0,0
190890,-100,4,2,2,25,0,0
191528,-100,4,2,2,35,0,0
192486,-100,4,2,2,25,0,0
193443,-100,4,2,2,20,0,0
194081,-100,4,2,2,35,0,0
195996,-100,4,2,2,20,0,0
196954,-100,4,2,2,30,0,0
197911,-100,4,2,2,35,0,0
198549,-100,4,2,2,25,0,0
199188,-100,4,2,2,35,0,0
200145,-100,4,2,2,25,0,0
200464,-100,4,2,1,35,0,0
200783,-100,4,2,1,15,0,0
201422,-100,4,2,2,35,0,0
201741,-100,4,2,3,50,0,0
202060,-100,4,2,3,40,0,0
203017,-100,4,2,3,35,0,0
204294,-100,4,2,2,30,0,1
205252,-100,4,2,2,20,0,1
205571,-100,4,2,1,30,0,1
205890,-100,4,2,2,25,0,1
206847,-100,4,2,2,35,0,1
207805,-100,4,2,2,25,0,1
208124,-100,4,2,1,35,0,1
208443,-100,4,2,2,25,0,1
209400,-100,4,2,2,35,0,1
210358,-100,4,2,2,25,0,1
210677,-100,4,2,1,35,0,1
210996,-100,4,2,2,25,0,1
211634,-100,4,2,2,20,0,1
211954,-100,4,2,2,35,0,1
212432,-100,4,2,2,25,0,1
212911,-100,4,2,2,20,0,1
213230,-100,4,2,1,35,0,1
213549,-100,4,2,2,25,0,1
214188,-100,4,2,2,20,0,1
214507,-100,4,2,2,35,0,1
215464,-100,4,2,2,25,0,1
215783,-100,4,2,1,35,0,1
216103,-100,4,2,2,25,0,1
217060,-100,4,2,2,35,0,1
218017,-100,4,2,2,25,0,1
218337,-100,4,2,1,35,0,1
218656,-100,4,2,2,25,0,1
219613,-100,4,2,2,35,0,1
220571,-100,4,2,2,25,0,1
220890,-100,4,2,1,35,0,1
221209,-100,4,2,2,25,0,1
222166,-100,4,2,2,35,0,1
222645,-100,4,2,2,25,0,1
223443,-100,4,2,1,30,0,1
223762,-100,4,2,3,40,0,1
224720,-100,4,2,2,35,0,0
226634,-100,4,2,1,35,0,0
227273,-100,4,2,2,30,0,0
229188,-100,4,2,1,30,0,0
229826,-100,4,2,2,30,0,0
230783,-100,4,2,2,25,0,0
231103,-100,4,2,1,35,0,0
231422,-100,4,2,2,30,0,0
232060,-100,4,2,1,25,0,0
232379,-100,4,2,2,35,0,0
232539,-100,4,2,2,20,0,0
233337,-100,4,2,2,25,0,0
233656,-100,4,2,1,30,0,0
233815,-100,4,2,1,5,0,0
234613,-100,4,2,1,20,0,0

[Colours]
Combo1 : 255,179,217
Combo2 : 128,128,192
Combo3 : 0,46,102

[HitObjects]
160,248,10252,2,0,P|224:232|272:200,1,120,2|0,0:0|0:0,0:0:0:0:
328,144,11209,1,0,0:0:0:0:
376,280,12805,6,0,P|288:272|248:248,1,120
192,208,13762,1,0,0:0:0:0:
48,336,15358,6,0,P|64:296|128:240,1,120,2|0,0:0|0:0,0:0:0:0:
200,224,16315,1,0,0:0:0:0:
352,320,17911,6,0,P|319:291|289:211,1,120
298,138,18869,1,0,0:0:0:0:
120,96,20464,6,0,B|160:88|184:96|208:104|240:96,1,120,2|0,0:0|0:0,0:0:0:0:
320,88,21422,1,0,0:0:0:0:
392,192,23017,6,0,B|344:200|328:192|312:184|272:192,1,120
192,200,23975,1,0,0:0:0:0:
120,288,25571,6,0,B|160:296|184:288|208:280|240:288,1,120,2|0,0:0|0:0,0:0:0:0:
320,296,26528,1,0,0:0:0:0:
400,192,28124,6,0,B|336:200|352:184|264:192,1,120
112,192,29400,2,0,B|176:200|160:184|248:192,1,120,2|0,0:0|0:0,0:0:0:0:
400,192,30677,6,0,P|384:264|328:296,1,120,2|0,0:0|0:0,0:0:0:0:
264,296,31634,2,0,P|200:280|128:296,1,120
72,320,32592,1,0,0:0:0:0:
160,176,33230,6,0,P|216:152|248:96,1,120,2|0,0:0|0:0,0:0:0:0:
256,16,34188,2,0,P|312:80|360:88,1,120
424,72,35145,1,0,0:0:0:0:
360,232,35783,6,0,P|288:208|256:168,1,120,2|0,0:0|0:0,0:0:0:0:
224,104,36741,2,0,P|136:136|120:160,1,120
96,232,37698,1,0,0:0:0:0:
200,360,38337,6,0,P|256:376|320:360,1,120
264,296,39294,2,0,B|320:264|376:304,1,120
432,368,40252,1,0,0:0:0:0:
464,288,40571,6,0,P|488:232|480:160,1,120
456,96,41528,1,0,0:0:0:0:
288,112,42166,6,0,B|240:96|256:96|216:80,2,60
136,192,43443,2,0,B|93:200|103:194|51:209,2,60,2|0|0,0:0|0:0|0:0,0:0:0:0:
256,304,44720,5,2,0:0:0:0:
384,192,45358,1,0,0:0:0:0:
328,352,45996,6,0,P|264:336|224:288,1,120,2|0,0:0|0:0,0:0:0:0:
144,312,46954,2,0,P|160:232|200:192,1,120
128,144,47911,2,0,P|192:120|248:136,1,120
240,296,49188,1,0,0:0:0:0:
392,200,49826,2,0,P|432:144|416:32,1,180,6|0,0:0|0:0,0:0:0:0:
352,88,51103,6,0,P|304:192|360:304,1,240,14|0,0:0|0:0,0:0:0:0:
392,368,52698,2,0,P|312:384|248:376,1,120,6|0,0:0|0:0,0:0:0:0:
192,352,53656,6,0,P|312:280|424:304,1,240,10|0,0:0|0:0,0:0:0:0:
464,352,55252,2,0,P|496:288|496:224,1,120,8|0,0:0|0:0,0:0:0:0:
432,192,56209,6,0,B|368:184|344:152|328:56|256:40|192:56|176:144|152:176|88:192,1,420,10|0,0:0|0:0,0:0:0:0:
120,272,58762,2,0,B|136:304|176:320|176:320|208:288|208:264|224:208|256:176|288:208|296:264|304:288|336:320|336:320|376:304|392:272,1,420,8|0,0:0|0:0,0:0:0:0:
432,200,61315,6,0,P|368:160|328:64,1,180,8|0,0:0|0:0,0:0:0:0:
248,32,62592,2,0,P|200:96|96:80,1,180,6|0,0:0|0:0,0:0:0:0:
48,144,63869,6,0,B|16:192|8:240|40:304|88:312,1,180,8|0,0:0|0:0,0:0:0:0:
144,336,65145,1,2,0:0:0:0:
312,312,65783,1,0,0:0:0:0:
456,224,66422,6,0,P|416:208|272:216,1,180,10|0,0:0|0:0,0:0:0:0:
232,280,67698,2,0,P|142:296|56:272,1,180,6|0,0:0|0:0,0:0:0:0:
256,192,68975,12,2,70890,0:0:0:0:
232,328,71528,6,0,P|288:280|304:224,1,120,8|0,0:0|0:0,0:0:0:0:
224,224,72486,2,0,P|224:152|192:112,1,120,8|0,0:0|0:0,0:0:0:0:
136,56,73443,1,0,0:0:0:0:
40,192,74081,6,0,P|48:264|80:304,1,120,8|0,0:0|0:0,0:0:0:0:
136,240,75039,2,0,P|184:280|256:280,1,120,8|0,0:0|0:0,0:0:0:0:
320,256,75996,1,2,0:0:0:0:
456,352,76634,6,0,P|472:272|456:224,1,120,6|0,0:0|0:0,0:0:0:0:
400,184,77592,1,4,0:0:0:0:
384,264,77911,2,0,P|352:328|232:344,1,180,2|0,0:0|0:0,0:0:0:0:
248,272,79188,6,0,P|176:272|120:304,1,120,8|0,0:0|0:0,0:0:0:0:
80,352,80145,1,0,0:0:0:0:
16,304,80464,2,0,P|40:240|104:208,1,120,2|0,0:0|0:0,0:0:0:0:
216,312,81741,6,0,P|288:344|336:336,1,120,0|0,0:0|0:0,0:0:0:0:
312,256,82698,2,0,P|376:232|408:192,1,120,8|0,0:0|0:0,0:0:0:0:
448,120,83656,1,0,0:0:0:0:
296,40,84294,6,0,P|216:32|160:48,1,120,0|0,0:0|0:0,0:0:0:0:
216,112,85252,2,0,P|168:128|128:192,1,120,8|0,0:0|0:0,0:0:0:0:
120,264,86209,1,0,0:0:0:0:
280,328,86847,6,0,P|320:344|352:344,2,60,8|0|0,0:0|0:0|0:0,0:0:0:0:
328,264,87805,2,0,P|392:232|416:184,1,120,8|0,0:0|0:0,0:0:0:0:
432,112,88762,1,0,0:0:0:0:
272,64,89400,6,0,P|254:40|230:21,2,60,0|0|0,0:0|0:0|0:0,0:0:0:0:
216,128,90358,2,0,P|248:184|240:248,1,120,8|0,0:0|0:0,0:0:0:0:
216,320,91315,1,0,0:0:0:0:
72,232,91954,6,0,P|144:208|176:160,1,120,0|0,0:0|0:0,0:0:0:0:
248,216,92911,2,0,P|312:200|376:216,1,120
320,280,93869,2,0,P|264:304|224:360,1,120,2|0,0:0|0:0,0:0:0:0:
144,360,94826,6,0,P|80:336|56:272,2,120,4|0|0,0:0|0:0|0:0,0:0:0:0:
224,328,96422,1,8,0:0:0:0:
256,160,97060,6,0,P|216:104|152:88,1,120
152,168,98017,2,0,P|96:208|32:208,1,120,8|0,0:0|0:0,0:0:0:0:
88,288,98975,2,0,P|144:328|208:336,1,120,2|0,0:0|0:0,0:0:0:0:
272,312,99932,6,0,P|328:280|392:304,2,120,8|0|0,0:0|0:0|0:0,0:0:0:0:
200,352,101528,1,2,0:0:0:0:
72,248,102166,6,0,P|152:224|184:184,1,120
232,136,103124,2,0,P|288:168|360:168,1,120,8|0,0:0|0:0,0:0:0:0:
424,144,104081,2,0,P|472:192|480:256,1,120,6|0,0:0|0:0,0:0:0:0:
400,272,105039,6,0,P|432:336|480:360,2,120,8|0|0,0:0|0:0|0:0,0:0:0:0:
392,192,106634,1,2,0:0:0:0:
256,288,107273,6,0,P|208:232|208:176,1,120,8|0,0:0|0:0,0:0:0:0:
120,200,108230,2,0,P|136:120|160:88,1,120,8|0,0:0|0:0,0:0:0:0:
240,112,109188,2,0,P|288:160|352:176,1,120,2|0,0:0|0:0,0:0:0:0:
392,112,110145,6,0,P|448:152|464:208,1,120
448,280,111103,2,0,L|392:320,1,60,2|0,0:0|0:0,0:0:0:0:
320,352,111741,2,0,L|248:360,1,60
176,352,112379,6,0,P|152:248|184:168,1,180,8|0,0:0|0:0,0:0:0:0:
256,208,113656,2,0,B|288:144|240:88,1,120,2|0,0:0|0:0,0:0:0:0:
176,48,114613,1,0,0:0:0:0:
176,128,114932,6,0,P|256:152|360:152,1,180,10|0,0:0|0:0,0:0:0:0:
432,128,116209,2,0,P|456:184|464:256,1,120,6|0,0:0|0:0,0:0:0:0:
456,328,117166,1,0,0:0:0:0:
376,352,117486,6,0,P|352:296|296:248,1,120,8|0,0:0|0:0,0:0:0:0:
224,264,118443,1,0,0:0:0:0:
208,344,118762,2,0,P|104:312|72:240,1,180,6|0,0:0|0:0,0:0:0:0:
152,232,120039,6,0,P|176:176|232:144,1,120,8|0,0:0|0:0,0:0:0:0:
272,216,120996,2,0,P|344:224|384:264,1,120,4|0,0:0|0:0,0:0:0:0:
408,336,121954,1,2,0:0:0:0:
240,328,122592,6,0,P|288:280|328:168,1,180,10|0,0:0|0:0,0:0:0:0:
240,192,123869,2,0,P|240:128|208:72,1,120,2|0,0:0|0:0,0:0:0:0:
136,40,124826,1,0,0:0:0:0:
136,120,125145,6,0,P|240:104|320:64,1,180,6|0,0:0|0:0,0:0:0:0:
360,136,126422,2,0,P|424:136|488:152,1,120,2|0,0:0|0:0,0:0:0:0:
424,304,127698,6,0,P|288:296|240:272,1,180,6|0,0:0|0:0,0:0:0:0:
216,360,128975,2,0,P|152:312|120:216,1,180,0|0,0:0|0:0,0:0:0:0:
200,192,130252,1,2,0:0:0:0:
312,192,131528,2,0,B|368:200|352:184|408:192,2,90
224,192,132805,6,0,B|136:208|176:168|32:192,1,180,10|0,0:0|0:0,0:0:0:0:
88,264,134081,2,0,B|160:288|120:264|184:288,2,90,2|0|0,0:0|0:0|0:0,0:0:0:0:
48,192,135358,6,0,P|144:192|227:131,1,180,10|0,0:0|0:0,0:0:0:0:
254,75,136634,2,0,P|206:67|150:83,2,90,6|0|0,0:0|0:0|0:0,0:0:0:0:
336,88,137911,6,0,P|384:168|392:256,1,180,10|0,0:0|0:0,0:0:0:0:
312,224,139188,2,0,P|304:272|272:312,2,90,6|0|0,0:0|0:0|0:0,0:0:0:0:
232,240,140464,6,0,P|200:264|144:272,2,90,10|0|0,0:0|0:0|0:0,0:0:0:0:
256,160,141741,2,0,P|232:96|240:56,2,90,6|0|0,0:0|0:0|0:0,0:0:0:0:
312,224,143017,6,0,B|344:240|368:224|400:144|360:72,1,180,10|0,0:0|0:0,0:0:0:0:
328,16,144294,2,0,P|280:40|256:88,2,90,6|0|0,0:0|0:0|0:0,0:0:0:0:
336,96,145571,6,0,B|360:152|344:216|296:240|256:208,1,180,10|0,0:0|0:0,0:0:0:0:
208,152,146847,2,0,B|168:104|200:120|160:64,2,90,6|0|0,0:0|0:0|0:0,0:0:0:0:
184,232,148124,6,0,B|168:288|176:352|208:376|264:344,1,180,10|0,0:0|0:0,0:0:0:0:
320,304,149400,2,0,B|368:304|400:312|400:344,2,90,2|0|0,0:0|0:0|0:0,0:0:0:0:
240,280,150677,6,0,B|264:238|286:214|314:230,2,90,10|0|0,0:0|0:0|0:0,0:0:0:0:
176,336,151954,2,0,B|152:294|142:262|170:246,2,90,0|0|0,0:0|0:0|0:0,0:0:0:0:
256,368,153230,6,0,P|320:344|360:304,1,120,12|0,0:0|0:0,0:0:0:0:
408,240,154188,1,0,0:0:0:0:
456,80,154826,2,0,P|448:128|440:152,1,60,0|2,0:0|0:0,0:0:0:0:
328,256,155783,6,0,P|264:256|192:240,1,120,8|0,0:0|0:0,0:0:0:0:
128,216,156741,1,0,0:0:0:0:
24,88,157379,2,0,P|48:136|72:160,1,60,0|2,0:0|0:0,0:0:0:0:
216,144,158337,6,0,B|240:104|256:80|288:80,2,90,0|0|0,0:0|0:0|0:0,0:0:0:0:
208,232,159613,2,0,B|168:208|144:192|144:160,2,90
296,240,160890,6,0,B|272:280|256:304|224:304,2,90,2|0|0,0:0|0:0|0:0,0:0:0:0:
304,152,162166,2,0,B|344:176|368:192|368:224,2,90
232,112,163443,6,0,B|184:88|136:80|104:112,1,120,0|0,0:0|0:0,0:0:0:0:
152,176,164400,2,0,B|120:192|112:216|104:264|128:288,1,120
168,344,165358,1,2,0:0:0:0:
304,240,165996,6,0,B|363:197|324:193|392:136,1,120
208,144,167273,2,0,B|148:186|187:190|112:248,1,120,0|2,0:0|0:0,0:0:0:0:
256,360,168549,6,0,P|288:304|336:272,1,120
416,280,169507,2,0,P|408:216|432:152,1,120
456,88,170464,1,2,0:0:0:0:
320,192,171103,6,0,B|256:256|208:288|176:264|184:224,1,180,0|2,0:0|0:0,0:0:0:0:
192,152,172379,2,0,P|192:112|176:80,1,60
128,32,173017,2,0,P|96:16|64:16,1,60
80,96,173656,6,0,B|136:136|192:128|216:120,1,120,2|0,0:0|0:0,0:0:0:0:
272,104,174613,2,0,P|344:96|392:120,2,120,8|0|0,0:0|0:0|0:0,0:0:0:0:
208,152,176209,1,10,0:0:0:0:
192,232,176528,6,0,P|176:296|136:344,1,120,0|0,0:0|0:0,0:0:0:0:
96,272,177486,2,0,P|88:200|56:160,1,120
128,120,178443,2,0,L|256:160,2,120
104,40,180039,5,0,0:0:0:0:
256,104,180677,1,2,0:0:0:0:
408,40,181315,1,2,0:0:0:0:
408,240,183869,6,0,P|320:248|216:224,1,180,10|0,0:0|0:0,0:0:0:0:
280,160,185145,2,0,P|224:128|192:80,1,120,2|0,0:0|0:0,0:0:0:0:
224,8,186103,1,0,0:0:0:0:
272,72,186422,6,0,P|200:96|112:176,1,180,8|0,0:0|0:0,0:0:0:0:
200,192,187698,2,0,P|264:176|336:192,1,120,2|0,0:0|0:0,0:0:0:0:
392,216,188656,1,0,0:0:0:0:
464,264,188975,6,0,P|400:304|336:304,1,120,0|0,0:0|0:0,0:0:0:0:
288,264,189932,1,0,0:0:0:0:
224,216,190252,2,0,P|160:224|112:272,1,120,2|0,0:0|0:0,0:0:0:0:
72,328,191209,1,0,0:0:0:0:
152,344,191528,6,0,P|240:344|344:288,1,180,8|0,0:0|0:0,0:0:0:0:
408,328,192805,2,0,P|440:280|448:200,1,120,2|0,0:0|0:0,0:0:0:0:
440,136,193762,1,0,0:0:0:0:
376,192,194081,6,0,P|320:232|200:232,1,180,8|0,0:0|0:0,0:0:0:0:
264,168,195358,2,0,P|312:120|376:104,1,120,2|0,0:0|0:0,0:0:0:0:
304,40,196315,2,0,P|224:48|176:24,2,120
384,16,197911,6,0,P|424:64|440:136,1,120,2|0,0:0|0:0,0:0:0:0:
432,200,198869,1,0,0:0:0:0:
360,160,199188,6,0,P|240:144|168:168,1,180,8|0,0:0|0:0,0:0:0:0:
120,216,200464,2,0,P|160:304|248:336,1,180,2|0,0:0|0:0,0:0:0:0:
312,320,201741,2,0,L|376:304,1,60,0|0,0:0|0:0,0:0:0:0:
168,192,203017,2,0,B|104:192|120:184|56:192,2,90
256,192,204294,6,0,B|368:200|320:176|456:192,1,180,10|8,0:0|0:0,0:0:0:0:
400,264,205571,2,8,B|338:282|352:272|298:289,2,90,6|0|0,0:0|0:0|0:0,0:0:0:0:
435,189,206847,6,0,B|368:160|344:144|336:80|360:56|384:72,1,180,0|8,0:0|0:0,0:0:0:0:
456,88,208124,2,0,P|480:56|480:0,2,90,6|0|0,0:0|0:0|0:0,0:0:0:0:
379,69,209400,6,0,B|323:45|267:45|219:53|219:77|235:101,1,180,10|8,0:0|0:0,0:0:0:0:
288,152,210677,2,0,B|296:168|280:184|240:184|208:176,2,90,6|0|0,0:0|0:0|0:0,0:0:0:0:
368,128,211954,6,0,B|385:129|391:150|371:185|348:209,2,90,10|0|8,0:0|0:0|0:0,0:0:0:0:
288,96,213230,2,0,B|240:80|224:56|248:32,2,90,2|0|0,0:0|0:0|0:0,0:0:0:0:
368,80,214507,6,0,P|400:136|376:256,1,180,10|8,0:0|0:0,0:0:0:0:
312,288,215783,2,0,P|248:320|232:344,2,90,6|0|0,0:0|0:0|0:0,0:0:0:0:
304,200,217060,6,0,P|264:128|168:72,1,180,10|8,0:0|0:0,0:0:0:0:
104,56,218337,2,0,P|72:56|8:80,2,90,2|0|0,0:0|0:0|0:0,0:0:0:0:
120,136,219613,6,0,P|192:128|288:64,1,180,10|8,0:0|0:0,0:0:0:0:
352,24,220890,2,0,P|416:16|448:24,2,90,2|0|0,0:0|0:0|0:0,0:0:0:0:
400,96,222166,6,0,P|440:112|480:152,2,90,10|0|0,0:0|0:0|0:0,0:0:0:0:
312,96,223443,2,0,B|256:104|272:88|216:96,2,90,2|0|0,0:0|0:0|0:0,0:0:0:0:
368,160,224720,6,0,B|288:192|312:160|232:200,1,120,2|0,0:0|0:0,0:0:0:0:
184,240,225677,1,0,0:0:0:0:
24,192,226315,2,0,B|48:168|96:160,1,60,0|2,0:0|0:0,0:0:0:0:
248,184,227273,6,0,P|312:160|352:112,1,120,2|0,0:0|0:0,0:0:0:0:
384,48,228230,1,0,0:0:0:0:
480,184,228869,2,0,P|480:208|456:256,1,60,0|2,0:0|0:0,0:0:0:0:
296,240,229826,6,0,B|344:248|328:256|392:264,2,90,2|0|0,0:0|0:0|0:0,0:0:0:0:
208,232,231103,2,0,B|200:280|192:264|184:328,2,90,2|0|0,0:0|0:0|0:0,0:0:0:0:
232,152,232379,6,0,P|264:104|384:64,1,180,2|0,0:0|0:0,0:0:0:0:
376,144,233656,2,0,P|352:232|288:304,1,180,0|0,0:0|0:0,0:0:0:0:
216,328,234932,1,4,0:0:0:0:
