osu file format v9

[General]
AudioFilename: Signal Heart -short ver.-.mp3
AudioLeadIn: 2000
PreviewTime: 52928
Countdown: 0
SampleSet: Soft
StackLeniency: 0.7
Mode: 0
LetterboxInBreaks: 0

[Editor]
Bookmarks: 60386
DistanceSpacing: 0.8
BeatDivisor: 4
GridSize: 4

[Metadata]
Title:Signal Heart
Artist:Rita
Creator:Fionana
Version:Insane
Source:Signal Heart
Tags:opening purple software game Potential Flask eroge visual novel

[Difficulty]
HPDrainRate:7
CircleSize:4
OverallDifficulty:7
ApproachRate:8
SliderMultiplier:1.6
SliderTickRate:1

[Events]
//Background and Video events
0,0,"0100.jpg"
Video,0,"signal heart.avi"
//Break Periods
//Storyboard Layer 0 (Background)
//Storyboard Layer 1 (Fail)
//Storyboard Layer 2 (Pass)
//Storyboard Layer 3 (Foreground)
//Storyboard Sound Samples
//Background Colour Transformations
3,100,163,162,255

[TimingPoints]
221,331.491712707182,4,2,1,50,1,0
10497,-100,4,2,1,50,0,0
22099,331.491712707182,4,2,1,50,1,0
53922,-100,4,2,1,60,0,1
72982,-100,4,1,1,35,0,1
74474,-100,4,2,1,60,0,0
75137,-100,4,2,1,50,0,0
83093,-100,4,2,1,40,0,0
83259,-100,4,2,1,50,0,0
86242,-133.333333333333,4,2,1,50,0,0

[Colours]
Combo1 : 252,189,137
Combo2 : 253,168,230
Combo3 : 133,244,254

[HitObjects]
56,48,221,2,8,B|56:136,1,80,8|0
456,336,883,2,8,B|456:248,1,80,8|0
152,112,1546,2,8,B|152:208,1,80,8|0
352,272,2209,2,8,B|352:192,1,80,8|0
352,192,2458,1,0
352,192,2541,1,8
256,336,2872,5,8
256,336,3038,1,0
256,48,3535,1,8
256,48,3701,1,0
256,192,4198,5,4
168,216,4364,1,0
80,192,4530,1,8
40,112,4696,2,0,B|92:48|176:24,1,160,4|0
256,72,5193,2,0,B|292:92|332:92,2,80,8|0|0
384,168,5690,6,0,B|356:200|304:208,2,80,0|8|0
328,308,6353,2,0,B|284:312|244:272,2,80,0|8|0
140,328,7016,2,0,B|136:280|168:252,2,80,0|8|0
40,208,7679,1,0
84,108,7845,1,8
112,88,7928,1,0
148,80,8011,1,0
236,256,8342,5,0
320,300,8508,1,8
400,256,8674,1,0
400,256,9005,1,0
372,168,9171,1,8
441,106,9337,1,0
376,40,9502,1,0
376,40,9668,1,0
376,40,9751,1,0
376,40,9834,2,0,B|295:60,1,80,8|0
168,280,10497,5,8
168,280,10580,1,8
168,280,10662,1,8
168,280,10745,1,0
168,280,10828,6,0,B|244:312|332:300,1,160,4|8
412,248,11325,2,0,B|452:240|476:204,2,80
372,160,11823,1,8
372,160,11988,2,0,B|332:84|260:48,1,160
168,88,12486,1,8
168,88,12651,2,0,B|124:100|96:132,2,80
160,320,13149,1,8
160,320,13314,5,0
160,320,13397,1,0
160,320,13480,2,0,B|244:300|304:232,1,160,4|8
384,188,13977,2,0,B|424:168|472:176,2,80
280,68,14475,1,8
280,68,14558,1,0
280,68,14640,2,0,B|200:84|136:148,1,160,4|0
52,184,15138,2,0,B|76:224|124:232,1,80,8|0
114,230,15469,5,2
200,340,15635,1,2
200,204,15801,1,0
116,312,15966,1,2
256,272,16132,2,0,B|344:296|428:272,1,160,4|8
488,180,16629,2,0,B|496:136|488:96,1,80
336,56,16961,2,0,B|328:100|336:140,1,80,0|8
216,152,17292,5,0
216,152,17375,1,0
216,152,17458,2,0,B|136:176|56:148,1,160,0|8
144,64,17955,2,0,B|184:52|228:64,1,80
296,152,18287,2,0,B|256:164|212:152,1,80,0|8
132,284,18618,5,0
132,284,18701,1,0
132,284,18784,2,0,B|304:288,1,160,4|8
404,332,19281,2,0,B|488:336,2,80
392,212,19779,1,8
256,192,19944,12,0,21436
48,112,21767,5,8
24,304,22099,1,4
200,232,22430,1,8
264,144,22596,1,0
336,224,22762,6,0,B|380:145|344:56,1,160,0|8
396,316,23425,2,0,B|316:352|216:312,1,160,0|8
172,232,23922,1,0
172,232,24005,1,0
172,232,24088,2,0,B|252:208|344:236,1,160,0|8
416,184,24585,1,0
416,184,24751,6,0,B|432:132|412:80,1,80,0|0
336,48,25082,1,8
336,48,25248,1,0
232,72,25414,2,0,B|188:68|140:92,1,80,0|0
68,144,25745,1,8
68,144,25911,1,0
80,240,26077,2,0,B|76:288|112:320,1,80,0|0
216,340,26408,1,8
216,340,26574,1,0
424,260,26740,5,0
340,344,26906,1,0
424,260,27071,5,8
424,260,27154,1,0
424,260,27237,2,0,B|456:212|456:156|432:96,1,160,4|0
280,112,27734,5,8
280,112,28066,2,0,B|200:112|120:160,1,160,0|8
40,224,28563,1,0
40,224,28646,1,0
40,224,28728,2,0,B|8:304,2,80,0|0|8
128,296,29226,1,0
128,296,29392,2,0,B|168:312|224:296,1,80,0|0
300,252,29723,5,8
364,164,29889,1,0
304,72,30055,1,4
204,104,30220,1,0
204,104,30386,2,0,B|204:208,1,80,8|0
204,184,30883,1,0
204,184,31049,1,8
380,328,31381,5,4
460,288,31546,1,0
496,204,31712,1,8
484,116,31878,1,4
484,116,32209,1,0
408,60,32375,1,8
320,80,32541,2,0,B|252:124|248:228,1,160,4|0
96,160,33038,5,8
96,160,33370,2,0,B|104:248|188:296,1,160,0|8
280,264,33867,1,0
280,264,33950,1,0
280,264,34032,2,0,B|280:344,2,80,0|0|8
280,164,34530,1,0
280,164,34696,2,0,B|360:136|444:164,1,160,0|8
272,68,35193,5,0
272,68,35359,2,0,B|192:96|108:68,1,160,0|8
72,148,35856,1,0
132,216,36022,1,0
224,220,36187,1,0
312,188,36353,6,0,B|356:160,2,40,8|0|0
216,304,36685,2,0,B|168:348,2,40,2|0|0
356,312,37016,1,8
312,188,37181,1,0
356,312,37348,2,0,B|392:284|408:240,1,80,2|0
464,124,37679,1,8
464,124,37845,6,0,B|408:56|320:40,1,160,4|0
232,40,38342,1,8
168,108,38508,1,0
200,196,38674,2,0,B|196:252|272:276|256:344,1,160,0|8
156,312,39171,2,0,B|96:264|124:212|80:168,1,160
136,80,39668,1,8
136,80,39751,1,0
136,80,39834,1,0
232,56,40000,6,0,B|292:48|344:52|420:80,1,160,0|8
376,264,40497,1,0
376,264,40580,1,0
376,264,40662,2,0,B|392:228|384:184,1,80,8|8
256,320,40994,1,8
256,320,41160,6,0,B|196:328|144:324|68:296,1,160,0|8
36,232,41657,1,8
128,188,41823,1,0
48,136,41988,1,4
144,88,42154,1,0
56,32,42320,1,8
144,88,42486,2,0,B|212:68|256:96|308:72,1,160,4|0
380,148,42983,2,0,B|344:172|320:152|288:172,1,80,8|0
256,192,43314,12,0,44972
64,88,45303,6,0,B|144:60|224:84,1,160,0|8
204,204,45801,1,0
204,204,46132,2,0,B|248:216|280:264,1,80,0|8
184,336,46464,1,0
184,336,46795,2,0,B|132:356|84:332,2,80,0|8|0
292,320,47292,5,4
292,320,47458,1,0
376,252,47624,1,8
376,252,47790,2,0,B|412:208|412:148|376:104,1,160,4|0
288,56,48287,1,8
264,152,48452,1,0
172,108,48618,5,0
140,196,48784,1,0
172,108,48949,1,8
172,108,49115,2,0,B|224:176|316:200,1,160
344,104,49612,1,8
302,196,49778,2,0,B|272:268|192:312,1,160
56,244,50275,1,8
200,216,50441,1,0
100,328,50607,5,0
120,172,50773,1,0
56,244,50938,1,8
56,244,51021,1,0
56,244,51104,1,0
256,192,51270,12,0,52596
448,72,52928,5,0
372,68,53259,1,0
313,115,53591,1,0
228,180,53922,6,0,B|176:228|72:232,1,160,4|8
8,136,54419,1,0
108,80,54585,2,0,B|188:108|244:200,1,160,0|8
276,324,55082,1,0
276,324,55165,1,0
276,324,55248,2,0,B|344:272|452:252,1,160,0|8
496,168,55745,1,0
420,80,55911,2,0,B|364:132|260:144,1,160,0|8
164,88,56408,6,0,B|156:132|168:176,2,80,0|4|0
316,200,56906,1,8
316,200,56988,1,0
316,200,57071,2,0,B|324:244|312:288,1,80
112,316,57403,1,0
220,344,57569,1,8
112,316,57734,2,0,B|80:224|108:136,1,160
240,60,58232,5,8
240,60,58563,2,0,B|272:136|240:232,1,160,0|8
244,216,58977,1,0
244,216,59060,1,0
404,248,59226,1,4
404,248,59558,6,0,B|400:292|352:336,1,80,8|0
108,224,59889,2,0,B|108:172|132:120|184:92,1,160,0|8
316,184,60386,1,0
316,184,60469,1,0
316,184,60552,2,0,B|272:168|220:184,1,80,0|0
192,308,60883,1,8
192,308,61049,2,0,B|276:340|352:312,1,160
448,320,61546,5,8
468,224,61712,2,0,B|476:184|468:140,1,80,0|4
416,56,62043,1,0
312,52,62209,2,0,B|268:44|220:52,1,80,8|0
92,168,62541,5,0
92,168,62707,2,0,B|172:184|256:168,1,160
344,108,63204,1,4
344,108,63370,1,0
344,108,63453,1,0
344,108,63535,2,0,B|364:148|360:212,1,80,8|0
264,240,63867,1,0
160,188,64033,1,0
160,80,64198,1,8
160,80,64530,6,0,B|120:68|80:80,1,80,4|0
160,188,64861,2,0,B|200:200|240:188,1,80,8|0
344,160,65193,2,0,B|432:168|492:236,1,160,0|8
384,248,65690,2,0,B|464:96,1,160
288,112,66187,2,0,B|192:120|136:48,2,160,8|0|8
256,216,67016,1,0
120,232,67182,6,0,B|80:220|16:232,1,80,4|0
104,336,67513,2,0,B|144:348|208:336,1,80,8|0
296,320,67845,2,0,B|376:280|396:184,1,160,0|8
470,221,68342,2,0,B|310:173,1,160
208,168,68839,2,0,B|216:128|248:96,1,80,8|0
424,112,69170,2,0,B|416:152|384:184,1,80,0|0
424,112,69502,2,0,B|462:188|428:271,1,160,8|4
136,264,70165,6,0,B|98:188|132:105,1,160,8|0
238,38,70662,1,0
130,109,70828,1,8
238,38,70994,2,0,B|276:114|242:197,1,160,0|0
200,320,71491,1,8
312,244,71657,1,0
176,244,71823,1,0
288,320,71988,1,0
288,320,72071,1,0
288,320,72154,2,0,B|328:328|368:320,1,80,8|0
496,192,72486,6,0,B|416:176|320:192,1,160,4|8
248,240,72983,1,0
248,240,73149,1,0
144,256,73314,1,0
136,232,73397,1,0
128,208,73480,1,0
24,192,73645,1,0
32,168,73728,1,0
40,144,73811,1,0
112,64,73977,5,0
128,64,74060,1,0
144,64,74143,1,0
160,64,74226,1,0
176,64,74308,1,0
192,64,74391,1,0
208,64,74474,6,0,B|240:144|208:224,1,160,0|8
400,296,75137,2,0,B|368:216|400:136,1,160,4|8
480,216,75634,1,0
256,192,75801,12,0,78453
104,256,78784,5,8
104,256,78867,1,0
104,256,78950,2,0,B|176:288|288:260,1,160,4|0
348,304,79447,2,0,B|376:264|352:216,1,80,8|0
358,229,79779,5,2
392,88,79944,1,2
284,172,80110,1,0
428,172,80276,1,2
300,84,80441,2,0,B|220:72|136:84,1,160,4|8
48,152,80938,2,0,B|40:192|48:244,1,80
192,268,81270,2,0,B|200:228|192:176,1,80,0|8
112,332,81601,5,0
112,332,81684,1,0
112,332,81767,2,0,B|192:364|272:332,1,160,0|8
388,356,82264,2,0,B|396:312|384:260,1,80
292,152,82596,2,0,B|284:196|296:248,1,80,0|8
452,192,82928,5,0
408,104,83093,1,4
320,64,83259,1,0
224,80,83425,1,8
164,160,83591,2,0,B|148:204|172:256,1,80
272,320,83922,2,0,B|288:285|272:241,1,80,0|8
164,160,84253,6,0,B|84:192|0:164,1,160,4|0
84,72,84750,1,8
204,56,84916,1,0
204,56,84999,1,0
204,56,85082,2,0,B|248:48|292:56,1,80
256,152,85413,2,0,B|300:168|328:200,1,80,8|0
276,316,85745,2,0,B|232:300|204:268,1,80
364,280,86076,1,8
364,280,86242,6,0,B|408:300|448:272|496:292,1,119.999996423721,0|0
272,128,86905,2,0,B|228:108|188:136|140:116,1,119.999996423721
364,280,87568,1,4
