osu file format v12

[General]
AudioFilename: Princess blood.mp3
AudioLeadIn: 0
PreviewTime: 11260
Countdown: 0
SampleSet: Normal
StackLeniency: 0.5
Mode: 0
LetterboxInBreaks: 1
WidescreenStoryboard: 0

[Editor]
Bookmarks: 87197,103760
DistanceSpacing: 1
BeatDivisor: 4
GridSize: 4

[Metadata]
Title:Princess Blood
TitleUnicode:Princess Blood
Artist:Rita
ArtistUnicode:Rita
Creator:Zweib
Version:Normal
Source:Kuro No Utahime
Tags:opening magnetism
BeatmapID:253529
BeatmapSetID:94112

[Difficulty]
HPDrainRate:3
CircleSize:3
OverallDifficulty:3
ApproachRate:5
SliderMultiplier:0.80000000596046
SliderTickRate:1

[Events]
//Background and Video events
0,0,"Sengoku.jpg",0,0
//Break Periods
2,95230,101955
2,165855,181330
//Storyboard Layer 0 (Background)
//Storyboard Layer 1 (Fail)
//Storyboard Layer 2 (Pass)
//Storyboard Layer 3 (Foreground)
//Storyboard Sound Samples
//Background Colour Transformations
3,100,163,162,255

[TimingPoints]
1145,405.405405405405,4,1,1,50,1,0
11280,312.5,4,1,1,50,1,0
11592,-100,4,1,5,50,0,0
11748,-100,4,1,1,50,0,0
12842,-100,4,1,5,50,0,0
12998,-100,4,1,1,50,0,0
14092,-100,4,1,5,50,0,0
14248,-100,4,1,1,50,0,0
16592,-100,4,1,5,50,0,0
16748,-100,4,1,1,50,0,0
17842,-100,4,1,5,50,0,0
17998,-100,4,1,1,50,0,0
19092,-100,4,1,5,50,0,0
19248,-100,4,1,1,50,0,0
21592,-100,4,1,5,50,0,0
21748,-100,4,1,1,50,0,0
22842,-100,4,1,5,50,0,0
22998,-100,4,1,1,50,0,0
24092,-100,4,1,5,50,0,0
24248,-100,4,1,1,50,0,0
26592,-100,4,1,5,50,0,0
26748,-100,4,1,1,50,0,0
27842,-100,4,1,5,50,0,0
27998,-100,4,1,1,50,0,0
28623,-100,4,1,3,50,0,0
28780,-100,4,1,1,50,0,0
29092,-100,4,1,5,50,0,0
29248,-100,4,1,1,50,0,0
32842,-100,4,1,4,50,0,0
33467,-100,4,1,5,50,0,0
33623,-100,4,1,4,50,0,0
34092,-100,4,1,5,50,0,0
34248,-100,4,1,4,50,0,0
35342,-100,4,1,5,50,0,0
35498,-100,4,1,4,50,0,0
35967,-100,4,1,5,50,0,0
36123,-100,4,1,4,50,0,0
39092,-100,4,1,5,50,0,0
39248,-100,4,1,4,50,0,0
40342,-100,4,1,5,50,0,0
40498,-100,4,1,4,50,0,0
41592,-100,4,1,5,50,0,0
41748,-100,4,1,4,50,0,0
43467,-100,4,1,5,50,0,0
43623,-100,4,1,4,50,0,0
44092,-100,4,1,5,50,0,0
44248,-100,4,1,4,50,0,0
45342,-100,4,1,5,50,0,0
45498,-100,4,1,4,50,0,0
46592,-100,4,1,5,50,0,0
46748,-100,4,1,4,50,0,0
47217,-100,4,1,5,50,0,0
47373,-100,4,1,4,50,0,0
47842,-100,4,1,5,50,0,0
47998,-100,4,1,4,50,0,0
48467,-100,4,1,5,50,0,0
48623,-100,4,1,4,50,0,0
49717,-100,4,1,5,50,0,0
49873,-100,4,1,4,50,0,0
52217,-100,4,2,2,50,0,0
60967,-100,4,1,5,50,0,0
61123,-100,4,2,2,50,0,0
61905,-100,4,1,4,50,0,0
67530,-100,4,2,1,20,0,0
67842,-100,4,2,1,40,0,0
69717,-100,4,1,5,40,0,0
69873,-100,4,2,1,40,0,0
72217,-100,4,1,1,50,0,0
75030,-100,4,1,1,50,0,1
75342,-100,4,1,5,50,0,1
75498,-100,4,1,1,50,0,1
76592,-100,4,1,5,50,0,1
76748,-100,4,1,1,50,0,1
77842,-100,4,1,5,50,0,1
77998,-100,4,1,1,50,0,1
78467,-100,4,1,5,50,0,1
78623,-100,4,1,1,50,0,1
83467,-100,4,1,5,50,0,1
83623,-100,4,1,1,50,0,1
85342,-100,4,1,5,50,0,1
85498,-100,4,1,1,50,0,1
86592,-100,4,1,5,50,0,1
86748,-100,4,1,1,50,0,1
92530,-100,4,1,1,40,0,0
103155,-100,4,1,4,50,0,0
105342,-100,4,1,5,50,0,0
105498,-100,4,1,4,50,0,0
105967,-100,4,1,5,50,0,0
106123,-100,4,1,4,50,0,0
107217,-100,4,1,5,50,0,0
107373,-100,4,1,4,50,0,0
109092,-100,4,1,5,50,0,0
109248,-100,4,1,4,50,0,0
110342,-100,4,1,5,50,0,0
110498,-100,4,1,4,50,0,0
111592,-100,4,1,5,50,0,0
111748,-100,4,1,4,50,0,0
113467,-100,4,1,5,50,0,0
113623,-100,4,1,4,50,0,0
114092,-100,4,1,5,50,0,0
114248,-100,4,1,4,50,0,0
115342,-100,4,1,5,50,0,0
115498,-100,4,1,4,50,0,0
116592,-100,4,1,5,50,0,0
116748,-100,4,1,4,50,0,0
117217,-100,4,1,5,50,0,0
117373,-100,4,1,4,50,0,0
117842,-100,4,1,5,50,0,0
117998,-100,4,1,4,50,0,0
118467,-100,4,1,5,50,0,0
118623,-100,4,1,4,50,0,0
119717,-100,4,1,5,50,0,0
119873,-100,4,1,4,50,0,0
121905,-100,4,2,2,50,0,0
130967,-100,4,1,5,50,0,0
131123,-100,4,2,2,50,0,0
132217,-100,4,1,4,50,0,0
137530,-100,4,2,1,20,0,0
137842,-100,4,2,1,40,0,0
139717,-100,4,1,5,50,0,0
139873,-100,4,2,1,50,0,0
142217,-100,4,1,1,50,0,0
145030,-100,4,1,1,50,0,1
146592,-100,4,1,5,50,0,1
146748,-100,4,1,1,50,0,1
149092,-100,4,1,5,50,0,1
149248,-100,4,1,1,50,0,1
153467,-100,4,1,5,50,0,1
153623,-100,4,1,1,50,0,1
155342,-100,4,1,5,50,0,1
155498,-100,4,1,1,50,0,1
156592,-100,4,1,5,50,0,1
156748,-100,4,1,1,50,0,1
162530,-100,4,2,2,5,0,0
181280,-100,4,1,4,50,0,0
185342,-100,4,1,5,50,0,0
185498,-100,4,1,4,50,0,0
187530,-100,4,2,1,20,0,0
187842,-100,4,2,1,40,0,0
189717,-100,4,1,5,50,0,0
189873,-100,4,2,1,50,0,0
192217,-100,4,1,1,50,0,0
195030,-100,4,1,1,50,0,1
196592,-100,4,1,5,50,0,1
196748,-100,4,1,1,50,0,1
199092,-100,4,1,5,50,0,1
199248,-100,4,1,1,50,0,1
203467,-100,4,1,5,50,0,1
203623,-100,4,1,1,50,0,1
205342,-100,4,1,5,50,0,1
205498,-100,4,1,1,50,0,1
206592,-100,4,1,5,50,0,1
206748,-100,4,1,1,50,0,1
212530,-100,4,1,1,50,0,0

[Colours]
Combo1 : 213,214,221
Combo2 : 53,220,255
Combo3 : 129,255,68
Combo4 : 250,71,71

[HitObjects]
22,128,11280,2,0,B|123:75|123:75|134:102|176:148|237:120,1,240.000001788138,6|8,0:0|0:0,0:0:0:0:
200,48,12530,2,0,P|148:131|196:259,1,240.000001788138,2|8,0:0|0:0,0:0:0:0:
134,310,13780,6,0,P|208:248|356:240,1,240.000001788138,2|8,0:0|0:0,0:0:0:0:
426,261,15030,2,0,P|428:216|404:176,3,80.000000596046,0|8|0|8,0:0|0:0|0:0|0:0,0:0:0:0:
336,160,16280,6,0,P|367:163|461:134,2,120.000000894069,2|2|8,0:0|0:0|0:0,0:0:0:0:
259,125,17530,2,0,P|187:117|136:144,1,120.000000894069,2|2,0:0|0:0,0:0:0:0:
32,176,18467,2,0,L|36:221,1,40.000000298023,8|0,0:0|0:0,0:0:0:0:
40,256,18780,6,0,P|64:312|120:336,2,120.000000894069,2|2|8,0:0|0:0|0:0,0:0:0:0:
128,248,20030,2,0,P|176:224|192:192,1,80.000000596046,2|8,0:0|0:0,0:0:0:0:
216,128,20655,2,0,P|256:128|296:144,1,80.000000596046,0|8,0:0|0:0,0:0:0:0:
372,156,21280,6,0,P|388:124|380:28,2,120.000000894069,6|2|8,0:0|0:0|0:0,0:0:0:0:
400,232,22530,2,0,P|456:232|512:200,2,120.000000894069,2|2|8,0:0|0:0|0:0,0:0:0:0:
320,220,23780,6,0,P|192:244|128:340,1,240.000001788138,2|8,0:0|0:0,0:0:0:0:
208,356,25030,2,0,P|232:316|264:300,1,80.000000596046,2|8,0:0|0:0,0:0:0:0:
340,300,25655,2,0,P|380:324|396:364,1,80.000000596046,0|8,0:0|0:0,0:0:0:0:
476,348,26280,6,0,L|444:220,1,120.000000894069,2|2,0:0|0:0,0:0:0:0:
484,160,27061,2,0,L|473:121,1,40.000000298023,2|8,0:0|0:0,0:0:0:0:
400,88,27530,2,0,P|356:44|292:40,1,120.000000894069,2|2,0:0|0:0,0:0:0:0:
232,80,28311,2,0,L|192:48,2,40.000000298023,2|8|0,0:0|0:0|0:0,0:0:0:0:
208,112,28780,6,0,P|152:112|91:152,2,120.000000894069,0|2|8,0:0|0:0|0:0,0:0:0:0:
256,176,30030,1,0,0:0:0:0:
336,192,30342,1,8,0:0:0:0:
416,168,30655,1,0,0:0:0:0:
456,96,30967,1,8,0:0:0:0:
256,192,31123,12,4,32530,0:0:0:0:
163,79,33155,2,0,P|85:214|184:224,1,320.000002384184,2|0,0:0|0:0,0:0:0:0:
256,191,34717,1,8,0:0:0:0:
328,160,35030,2,0,P|427:170|349:305,1,320.000002384184,2|4,0:0|0:0,0:0:0:0:
192,304,36905,1,0,0:0:0:0:
72,200,37530,5,0,0:0:0:0:
168,72,38155,1,0,0:0:0:0:
96,104,38467,1,8,0:0:0:0:
160,152,38780,2,0,P|256:200|272:256,1,160.000001192092,2|0,0:0|0:0,0:0:0:0:
248,320,39717,1,8,0:0:0:0:
328,296,40030,6,0,P|272:240|288:88,1,240.000001788138,2|8,0:0|0:0,0:0:0:0:
352,136,41280,2,0,P|280:176|160:96,1,240.000001788138,2|8,0:0|0:0,0:0:0:0:
145,20,42530,1,4,0:0:0:0:
96,176,43155,6,0,P|179:254|384:232,1,320.000002384184,2|0,0:0|0:0,0:0:0:0:
432,184,44717,1,8,0:0:0:0:
432,184,45030,2,0,P|471:124|468:64,1,120.000000894069,2|2,0:0|0:0,0:0:0:0:
352,96,45967,1,8,0:0:0:0:
352,96,46280,2,0,P|312:144|248:172,1,120.000000894069,0|2,0:0|0:0,0:0:0:0:
224,96,47061,6,0,L|156:156,1,80.000000596046,2|4,0:0|0:0,0:0:0:0:
96,104,47686,2,0,L|72:200,1,80.000000596046,2|4,0:0|0:0,0:0:0:0:
8,200,48311,2,0,L|8:288,1,80.000000596046,2|4,0:0|0:0,0:0:0:0:
80,304,48936,6,0,L|128:336,1,40.000000298023,2|8,0:0|0:0,0:0:0:0:
152,312,49248,2,0,P|192:336|240:344,2,80.000000596046,6|2|2,0:0|0:0|0:0,0:0:0:0:
256,192,50030,12,0,51748,0:0:0:0:
122,61,52530,6,0,P|104:97|128:169,2,120.000000894069,2|2|8,0:0|0:0|0:0,0:0:0:0:
184,112,53780,2,0,P|296:65|408:121,1,240.000001788138,2|8,0:0|0:0,0:0:0:0:
455,166,55030,2,0,P|478:122|456:57,2,120.000000894069,2|2|8,0:0|0:0|0:0,0:0:0:0:
376,192,56280,6,0,B|313:179|265:211|265:211|217:243|145:227,1,240.000001788138,2|8,0:0|0:0,0:0:0:0:
104,296,57530,2,0,P|66:248|80:184,2,120.000000894069,2|2|8,0:0|0:0|0:0,0:0:0:0:
176,328,58780,1,0,0:0:0:0:
252,304,59092,1,0,0:0:0:0:
325,337,59405,2,0,P|351:295|361:261,1,80.000000596046,0|8,0:0|0:0,0:0:0:0:
431,299,60030,6,0,P|425:223|342:188,3,160.000001192092,2|0|0|0,0:0|0:0|0:0|0:0,0:0:0:0:
256,56,62530,6,0,P|232:120|136:148,1,160.000001192092
256,264,63780,2,0,P|280:200|364:156,1,160.000001192092,0|0,0:0|0:0,0:0:0:0:
180,172,65030,6,0,P|104:168|64:144,2,120.000000894069
176,216,66123,2,0,P|146:271|152:337,1,120.000000894069,0|0,0:0|0:0,0:0:0:0:
272,296,67061,6,0,L|312:304,1,40.000000298023
336,272,67373,2,0,L|424:288,1,80.000000596046
432,256,67842,2,0,L|513:271,2,80.000000596046,8|0|8,0:0|0:0|0:0,0:0:0:0:
400,184,68780,6,0,L|312:168,1,80.000000596046,2|8,0:0|0:0,0:0:0:0:
320,128,69248,2,0,L|228:108,2,80.000000596046,2|2|2,0:0|0:0|0:0,0:0:0:0:
256,192,70030,12,0,72530,0:0:0:0:
392,152,74717,6,0,L|360:104,1,40.000000298023,8|0,0:0|0:0,0:0:0:0:
341,84,75030,6,0,P|275:29|203:13,1,160.000001192092,6|0,0:0|0:0,0:0:0:0:
128,24,75967,1,8,0:0:0:0:
160,96,76280,2,0,P|225:150|297:166,1,160.000001192092,2|0,0:0|0:0,0:0:0:0:
480,256,77530,6,0,P|420:272|384:328,1,120.000000894069,2|2,0:0|0:0,0:0:0:0:
320,272,78311,2,0,P|276:286|232:272,1,80.000000596046,2|0,0:0|0:0,0:0:0:0:
224,244,78780,2,0,P|171:228|144:204,3,80.000000596046,2|8|0|8,0:0|0:0|0:0|0:0,0:0:0:0:
96,160,80030,6,0,L|14:185,1,80.000000596046,2|8,0:0|0:0,0:0:0:0:
24,144,80498,2,0,L|150:107,1,120.000000894069,2|8,0:0|0:0,0:0:0:0:
216,88,81280,2,0,L|293:107,1,80.000000596046,2|8,0:0|0:0,0:0:0:0:
280,144,81748,2,0,L|413:178,1,120.000000894069,2|8,0:0|0:0,0:0:0:0:
472,200,82530,6,0,P|472:150|456:120,2,80.000000596046,2|8|0,0:0|0:0|0:0,0:0:0:0:
464,240,83311,2,0,L|440:368,1,120.000000894069,2|0,0:0|0:0,0:0:0:0:
320,376,84248,2,0,L|344:248,1,120.000000894069,2|8,0:0|0:0,0:0:0:0:
264,272,85030,6,0,P|168:264|140:248,1,120.000000894069,2|2,0:0|0:0,0:0:0:0:
36,208,85967,1,8,0:0:0:0:
36,208,86280,2,0,P|76:168|108:96,1,120.000000894069,2|2,0:0|0:0,0:0:0:0:
224,116,87217,6,0,L|152:180,2,80.000000596046,8|2|8,0:0|0:0|0:0,0:0:0:0:
264,112,87998,2,0,P|306:62|368:40,1,120.000000894069,2|8,0:0|0:0,0:0:0:0:
396,40,88623,1,2,0:0:0:0:
472,288,89717,5,8,0:0:0:0:
400,320,90030,2,0,L|364:232,1,80.000000596046,0|8,0:0|0:0,0:0:0:0:
332,252,90498,2,0,P|316:212|232:184,1,120.000000894069,0|8,0:0|0:0,0:0:0:0:
252,260,91280,6,0,L|268:316,1,40.000000298023,6|4,0:0|0:0,0:0:0:0:
256,192,92530,12,4,95030,0:0:0:0:
312,128,103155,6,0,P|344:193|316:281,2,160.000001192092,0|6|0,0:0|0:0|0:0,0:0:0:0:
232,152,104717,1,8,0:0:0:0:
176,208,105030,2,8,P|80:247|81:91,1,320.000002384184,2|2,0:0|0:0,0:0:0:0:
160,64,106592,1,8,0:0:0:0:
240,64,106905,2,0,L|412:64,1,160.000001192092,0|0,0:0|0:0,0:0:0:0:
460,212,108155,6,0,P|480:252|480:296,1,80.000000596046,2|8,0:0|0:0,0:0:0:0:
400,272,108780,2,0,P|304:224|288:168,1,160.000001192092,2|0,0:0|0:0,0:0:0:0:
264,104,109717,1,8,0:0:0:0:
208,48,110030,6,0,P|136:96|176:240,1,240.000001788138,2|8,0:0|0:0,0:0:0:0:
237,255,111280,2,0,P|150:233|30:312,1,240.000001788138,2|8,0:0|0:0,0:0:0:0:
0,384,112530,1,4,0:0:0:0:
0,216,113155,6,0,B|81:156|164:225|164:225|205:139|148:88,1,320.000002384184,2|0,0:0|0:0,0:0:0:0:
164,16,114717,1,8,0:0:0:0:
240,32,115030,2,0,P|281:100|287:154,1,120.000000894069,2|2,0:0|0:0,0:0:0:0:
257,256,115967,1,8,0:0:0:0:
257,256,116280,2,0,P|320:256|376:224,1,120.000000894069,2|0,0:0|0:0,0:0:0:0:
448,216,117061,6,0,L|472:128,1,80.000000596046,2|4,0:0|0:0,0:0:0:0:
392,152,117686,2,0,L|420:58,1,80.000000596046,2|4,0:0|0:0,0:0:0:0:
360,16,118311,2,0,L|332:104,1,80.000000596046,2|4,0:0|0:0,0:0:0:0:
256,104,118936,6,0,L|240:147,1,40.000000298023,2|8,0:0|0:0,0:0:0:0:
224,176,119248,2,0,P|196:204|192:260,2,80.000000596046,6|2|2,0:0|0:0|0:0,0:0:0:0:
256,192,120030,12,0,121748,0:0:0:0:
150,286,122217,5,0,0:0:0:0:
96,228,122530,2,0,B|148:189|203:226|203:226|252:255|337:221,1,240.000001788138,2|8,0:0|0:0,0:0:0:0:
396,193,123780,6,0,P|384:276|343:303,2,120.000000894069,2|0|8,0:0|0:0|0:0,0:0:0:0:
332,143,125030,2,0,P|344:60|385:33,2,120.000000894069,2|2|8,0:0|0:0|0:0,0:0:0:0:
406,113,126280,6,0,B|324:136|292:64|292:64|235:32|185:74,1,240.000001788138,0|8,0:0|0:0,0:0:0:0:
241,131,127530,2,0,B|256:156|283:173|283:173|282:212|262:246,2,120.000000894069,2|2|8,0:0|0:0|0:0,0:0:0:0:
163,151,128780,5,2,0:0:0:0:
156,230,129092,1,0,0:0:0:0:
77,247,129405,2,0,P|42:294|38:323,2,80.000000596046,0|8|2,0:0|0:0|0:0,0:0:0:0:
200,352,130655,6,0,P|313:339|353:301,2,160.000001192092,2|2|0,0:0|0:0|0:0,0:0:0:0:
296,224,132530,6,0,L|228:64,1,160.000001192092
376,136,133780,2,0,L|445:298,1,160.000001192092
296,344,135030,6,0,P|263:356|180:349,2,120.000000894069,2|2|8,0:0|0:0|0:0,0:0:0:0:
328,320,136123,2,0,P|352:264|344:200,1,120.000000894069,2|8,0:0|0:0,0:0:0:0:
232,232,137061,6,0,L|192:200,1,40.000000298023,2|8,0:0|0:0,0:0:0:0:
192,168,137373,2,0,L|117:105,1,80.000000596046,2|0,0:0|0:0,0:0:0:0:
144,80,137842,2,0,L|80:20,2,80.000000596046,8|0|8,0:0|0:0|0:0,0:0:0:0:
224,72,138780,6,0,L|312:88,1,80.000000596046,2|8,0:0|0:0,0:0:0:0:
328,56,139248,2,0,L|416:72,2,80.000000596046,2|0|0,0:0|0:0|0:0,0:0:0:0:
256,192,140030,12,0,142530,0:0:0:0:
256,80,144717,5,8,0:0:0:0:
256,80,145030,6,0,L|256:160,1,80.000000596046,2|8,0:0|0:0,0:0:0:0:
256,200,145499,2,0,L|256:320,1,120.000000894069,2|8,0:0|0:0,0:0:0:0:
330,348,146280,2,0,P|248:321|174:358,1,160.000001192092,2|0,0:0|0:0,0:0:0:0:
64,264,147530,6,0,L|64:168,1,80.000000596046,2|8,0:0|0:0,0:0:0:0:
45,144,147998,2,0,P|95:164|176:158,1,120.000000894069,2|8,0:0|0:0,0:0:0:0:
176,240,148780,2,0,P|232:200|216:104,1,160.000001192092,2|0,0:0|0:0,0:0:0:0:
208,40,149717,1,8,0:0:0:0:
288,56,150030,6,0,L|360:120,1,80.000000596046,0|8,0:0|0:0,0:0:0:0:
388,104,150498,2,0,L|420:220,1,120.000000894069,2|8,0:0|0:0,0:0:0:0:
382,288,151280,6,0,L|304:268,1,80.000000596046,2|8,0:0|0:0,0:0:0:0:
288,304,151748,2,0,L|176:240,1,120.000000894069,2|8,0:0|0:0,0:0:0:0:
104,224,152530,6,0,P|104:273|120:304,2,80.000000596046,2|8|0,0:0|0:0|0:0,0:0:0:0:
72,200,153311,2,0,L|96:72,1,120.000000894069,2|0,0:0|0:0,0:0:0:0:
208,40,154248,2,0,L|184:176,1,120.000000894069,2|8,0:0|0:0,0:0:0:0:
264,144,155030,6,0,P|344:144|384:168,1,120.000000894069,2|2,0:0|0:0,0:0:0:0:
480,224,155967,1,8,0:0:0:0:
480,224,156280,2,0,P|440:264|408:336,1,120.000000894069,2|2,0:0|0:0,0:0:0:0:
288,320,157217,6,0,L|360:256,2,80.000000596046,8|2|8,0:0|0:0|0:0,0:0:0:0:
264,288,157998,2,0,P|216:336|160:344,1,120.000000894069,2|8,0:0|0:0,0:0:0:0:
128,344,158623,1,2,0:0:0:0:
130,127,159717,5,8,0:0:0:0:
130,127,160030,2,0,L|224:120,1,80.000000596046,2|8,0:0|0:0,0:0:0:0:
248,120,160498,2,0,P|263:161|343:193,1,120.000000894069,2|8,0:0|0:0,0:0:0:0:
330,113,161280,6,0,L|388:106,1,40.000000298023,6|4,0:0|0:0,0:0:0:0:
256,192,162530,12,0,165655,0:0:0:0:
96,338,182530,6,2,L|112:168,1,160.000001192092,2|0,0:0|0:0,0:0:0:0:
216,56,183780,2,2,L|200:226,1,160.000001192092,2|0,0:0|0:0,0:0:0:0:
296,88,185030,6,0,P|352:68|420:96,2,120.000000894069,2|2|8,0:0|0:0|0:0,0:0:0:0:
304,128,186123,2,0,L|293:252,1,120.000000894069,2|8,0:0|0:0,0:0:0:0:
200,160,187061,6,0,L|196:205,1,40.000000298023,2|8,0:0|0:0,0:0:0:0:
156,204,187373,2,0,L|149:301,1,80.000000596046,2|0,0:0|0:0,0:0:0:0:
112,284,187842,2,0,L|105:376,2,80.000000596046,8|2|8,0:0|0:0|0:0,0:0:0:0:
92,192,188780,6,0,L|100:96,1,80.000000596046,2|8,0:0|0:0,0:0:0:0:
111,70,189248,2,0,P|158:54|188:52,2,80.000000596046,2|2|2,0:0|0:0|0:0,0:0:0:0:
256,192,190030,12,0,192530,0:0:0:0:
328,299,194717,5,8,0:0:0:0:
376,232,195030,6,0,P|343:219|296:225,1,80.000000596046,2|8,0:0|0:0,0:0:0:0:
288,184,195499,2,0,L|174:220,1,120.000000894069,2|8,0:0|0:0,0:0:0:0:
128,288,196280,2,0,P|96:240|144:144,1,160.000001192092,2|0,0:0|0:0,0:0:0:0:
260,48,197530,6,0,L|355:57,1,80.000000596046,2|8,0:0|0:0,0:0:0:0:
376,72,197998,2,0,P|321:99|272:148,1,120.000000894069,2|8,0:0|0:0,0:0:0:0:
200,136,198780,2,0,P|270:137|332:218,1,160.000001192092,2|0,0:0|0:0,0:0:0:0:
304,276,199717,1,8,0:0:0:0:
380,260,200030,6,0,L|452:220,1,80.000000596046,2|8,0:0|0:0,0:0:0:0:
464,256,200498,2,0,L|356:316,1,120.000000894069,2|8,0:0|0:0,0:0:0:0:
289,354,201280,2,0,L|212:334,1,80.000000596046,2|8,0:0|0:0,0:0:0:0:
176,352,201748,2,0,P|138:291|132:239,1,120.000000894069,2|8,0:0|0:0,0:0:0:0:
108,165,202530,6,0,P|82:126|76:89,2,80.000000596046,2|8|0,0:0|0:0|0:0,0:0:0:0:
149,149,203311,2,0,P|184:86|239:51,1,120.000000894069,2|0,0:0|0:0,0:0:0:0:
296,32,204092,2,0,P|340:28|386:52,2,80.000000596046,8|0|8,0:0|0:0|0:0,0:0:0:0:
328,104,205030,6,0,L|431:195,1,120.000000894069,2|2,0:0|0:0,0:0:0:0:
424,304,205967,1,8,0:0:0:0:
424,304,206280,2,0,L|328:225,1,120.000000894069,2|2,0:0|0:0,0:0:0:0:
216,264,207217,6,0,L|275:317,2,80.000000596046,8|2|8,0:0|0:0|0:0,0:0:0:0:
176,280,207998,2,0,P|147:234|160:156,1,120.000000894069,2|8,0:0|0:0,0:0:0:0:
176,136,208623,1,2,0:0:0:0:
452,127,209717,5,8,0:0:0:0:
424,200,210030,2,0,L|388:280,1,80.000000596046,2|8,0:0|0:0,0:0:0:0:
352,264,210498,2,0,P|305:272|248:336,1,120.000000894069,2|8,0:0|0:0,0:0:0:0:
184,360,211280,6,0,L|160:308,1,40.000000298023,6|4,0:0|0:0,0:0:0:0:
256,192,212530,12,4,216280,0:0:0:0:
