osu file format v12

[General]
AudioFilename: Princess blood.mp3
AudioLeadIn: 0
PreviewTime: 11260
Countdown: 0
SampleSet: Normal
StackLeniency: 0.5
Mode: 0
LetterboxInBreaks: 1
WidescreenStoryboard: 0

[Editor]
Bookmarks: 29072,87197
DistanceSpacing: 1
BeatDivisor: 4
GridSize: 8

[Metadata]
Title:Princess Blood
TitleUnicode:Princess Blood
Artist:Rita
ArtistUnicode:Rita
Creator:Zweib
Version:Insane
Source:Kuro No Utahime
Tags:opening magnetism
BeatmapID:253528
BeatmapSetID:94112

[Difficulty]
HPDrainRate:6
CircleSize:4
OverallDifficulty:7
ApproachRate:9
SliderMultiplier:1.92
SliderTickRate:1

[Events]
//Background and Video events
0,0,"Sengoku.jpg",0,0
//Break Periods
2,95230,101773
2,165855,169430
//Storyboard Layer 0 (Background)
//Storyboard Layer 1 (Fail)
//Storyboard Layer 2 (Pass)
//Storyboard Layer 3 (Foreground)
//Storyboard Sound Samples
//Background Colour Transformations
3,100,163,162,255

[TimingPoints]
1145,405.405405405405,4,1,1,50,1,0
11280,312.5,4,1,1,50,1,0
13623,-100,4,1,3,50,0,0
13780,-100,4,1,1,50,0,0
13936,-100,4,1,3,50,0,0
14092,-100,4,1,1,50,0,0
14405,-100,4,1,3,50,0,0
14561,-100,4,1,1,50,0,0
14873,-100,4,1,3,50,0,0
15030,-100,4,1,1,50,0,0
15186,-100,4,1,3,50,0,0
15342,-100,4,1,1,50,0,0
15498,-100,4,1,3,50,0,0
15655,-100,4,1,1,50,0,0
15811,-100,4,1,3,50,0,0
15967,-100,4,1,1,50,0,0
16123,-100,4,1,3,50,0,0
16280,-100,4,1,1,50,0,0
16436,-100,4,1,3,50,0,0
16592,-100,4,1,1,50,0,0
17373,-100,4,1,3,50,0,0
17530,-100,4,1,1,50,0,0
17686,-100,4,1,3,50,0,0
17842,-100,4,1,1,50,0,0
18155,-100,4,1,3,50,0,0
18311,-100,4,1,1,50,0,0
18467,-100,4,1,4,45,0,0
18780,-100,4,1,1,50,0,0
19405,-100,4,1,3,50,0,0
19561,-100,4,1,1,50,0,0
21436,-100,4,1,3,50,0,0
21592,-100,4,1,1,50,0,0
23936,-100,4,1,3,50,0,0
24092,-100,4,1,1,50,0,0
24405,-100,4,1,3,50,0,0
24561,-100,4,1,1,50,0,0
24873,-100,4,1,3,50,0,0
25030,-100,4,1,1,50,0,0
25186,-100,4,1,3,50,0,0
25342,-100,4,1,1,50,0,0
25498,-100,4,1,3,50,0,0
25655,-100,4,1,1,50,0,0
25811,-100,4,1,3,50,0,0
25967,-100,4,1,1,50,0,0
26123,-100,4,1,3,50,0,0
26280,-100,4,1,1,50,0,0
26436,-100,4,1,3,50,0,0
26592,-100,4,1,1,50,0,0
27373,-100,4,1,3,50,0,0
27530,-100,4,1,1,50,0,0
27686,-100,4,1,3,50,0,0
27842,-100,4,1,1,50,0,0
28155,-100,4,1,3,50,0,0
28311,-100,4,1,1,50,0,0
28467,-100,4,1,4,45,0,0
28780,-100,4,1,1,50,0,0
29405,-100,4,1,3,50,0,0
29561,-100,4,1,1,50,0,0
31280,-100,4,1,1,50,0,0
32217,-100,4,1,2,50,0,0
32530,-100,4,1,4,55,0,0
32842,-111.111111111111,4,1,4,55,0,0
33155,-125,4,1,4,55,0,0
33467,-142.857142857143,4,1,4,55,0,0
33780,-100,4,1,4,55,0,0
35342,-111.111111111111,4,1,4,55,0,0
35655,-125,4,1,4,55,0,0
35967,-142.857142857143,4,1,4,55,0,0
36280,-166.666666666667,4,1,4,55,0,0
36592,-200,4,1,4,55,0,0
37842,-100,4,1,4,55,0,0
39092,-100,4,1,5,55,0,0
39248,-100,4,1,4,55,0,0
42217,-100,4,1,4,55,0,0
42530,-100,4,1,4,55,0,0
45186,-200,4,1,4,55,0,0
46905,-100,4,1,1,35,0,0
47373,-100,4,1,4,35,0,0
47530,-100,4,1,1,45,0,0
47998,-100,4,1,4,45,0,0
48155,-100,4,1,1,50,0,0
48623,-100,4,1,4,50,0,0
48780,-100,4,1,1,50,0,0
49248,-100,4,1,4,50,0,0
49405,-100,4,1,1,50,0,0
52217,-133.333333333333,4,2,2,40,0,0
61905,-133.333333333333,4,1,1,35,0,0
63780,-133.333333333333,4,1,1,40,0,0
64717,-100,4,1,4,50,0,0
65030,-100,4,1,1,45,0,0
66905,-100,4,1,4,55,0,0
67373,-100,4,1,4,55,0,0
70030,-100,4,2,1,25,0,0
70342,-100,4,2,1,40,0,0
71905,-100,4,1,4,45,0,0
72530,-100,4,1,1,50,0,0
72842,-100,4,1,3,50,0,0
72998,-100,4,1,1,50,0,0
73311,-100,4,1,4,55,0,0
74405,-100,4,1,2,50,0,0
74717,-100,4,1,1,55,0,0
75030,-100,4,1,1,55,0,1
91748,-100,4,1,1,45,0,1
92530,-100,4,1,1,50,0,0
102373,-100,4,1,2,40,0,0
102842,-100,4,1,4,55,0,0
104092,-100,4,1,5,55,0,0
104248,-100,4,1,4,55,0,0
117061,-100,4,1,1,35,0,0
117373,-100,4,1,4,35,0,0
117530,-100,4,1,1,45,0,0
117998,-100,4,1,4,50,0,0
118155,-100,4,1,1,50,0,0
118623,-100,4,1,4,50,0,0
118780,-100,4,1,1,50,0,0
119248,-100,4,1,4,50,0,0
119405,-100,4,1,1,50,0,0
122217,-133.333333333333,4,2,2,40,0,0
131280,-133.333333333333,4,1,1,35,0,0
132530,-133.333333333333,4,1,1,40,0,0
133780,-133.333333333333,4,1,1,45,0,0
134717,-100,4,1,4,55,0,0
135030,-100,4,1,1,50,0,0
136905,-100,4,1,4,55,0,0
139873,-133.333333333333,4,1,4,55,0,0
142530,-133.333333333333,4,1,1,50,0,0
143467,-100,4,1,4,55,0,0
144405,-100,4,1,2,40,0,0
144717,-100,4,1,1,50,0,0
145030,-100,4,1,1,55,0,1
161280,-66.6666666666667,4,1,1,55,0,1
161592,-100,4,1,1,55,0,1
162530,-200,4,2,1,50,0,0
162998,-200,4,1,3,5,0,0
170030,-100,4,2,3,50,0,0
172608,-100,4,1,4,55,0,0
174092,-125,4,1,4,55,0,0
174405,-166.666666666667,4,1,4,55,0,0
174717,-100,4,1,4,55,0,0
182373,-100,4,1,1,40,0,0
182998,-100,4,1,1,40,0,0
183780,-100,4,1,1,45,0,0
185030,-100,4,1,1,50,0,0
186905,-100,4,1,4,55,0,0
190030,-100,4,2,1,25,0,0
190342,-100,4,2,1,40,0,0
192530,-100,4,1,1,50,0,0
193780,-100,4,1,2,40,0,0
194717,-100,4,1,1,50,0,0
195030,-100,4,1,1,60,0,1
212530,-100,4,1,1,50,0,0
219717,-100,4,1,4,45,0,0
220030,-100,4,1,1,50,0,0
220655,-100,4,1,3,50,0,0
220811,-100,4,1,1,50,0,0
222686,-100,4,1,3,50,0,0
222842,-100,4,1,1,50,0,0
223936,-100,4,1,3,50,0,0
224092,-100,4,1,1,50,0,0
226436,-100,4,1,3,50,0,0
226592,-100,4,1,1,50,0,0
226748,-100,4,1,3,50,0,0
226905,-100,4,1,1,50,0,0
227061,-100,4,1,3,50,0,0
227217,-100,4,1,1,50,0,0
227373,-100,4,1,3,50,0,0
227530,-100,4,1,1,50,0,0
229717,-100,4,1,4,40,0,0
230030,-100,4,1,1,50,0,0
230186,-100,4,1,3,50,0,0
230342,-100,4,1,1,50,0,0
231436,-100,4,1,3,50,0,0
231592,-100,4,1,1,50,0,0
231748,-100,4,1,3,50,0,0
231905,-100,4,1,1,50,0,0
232061,-100,4,1,3,50,0,0
232217,-100,4,1,1,50,0,0
232373,-100,4,1,3,50,0,0
233155,-100,4,1,1,40,0,0
233780,-100,4,1,3,30,0,0
234405,-100,4,1,3,20,0,0
235030,-100,4,1,3,10,0,0

[Colours]
Combo1 : 213,214,221
Combo2 : 53,220,255
Combo3 : 129,255,68
Combo4 : 250,71,71

[HitObjects]
256,192,8036,12,4,11280,0:0:0:0:
312,144,11592,5,8,0:0:0:0:
240,208,11749,2,0,P|126:202|62:162,1,192,2|2,0:0|0:0,0:0:0:0:
32,72,12217,1,8,0:0:0:0:
169,290,12530,6,0,P|131:192|157:89,1,192,2|8,0:0|0:0,0:0:0:0:
220,27,12998,2,0,P|317:0|428:27,1,192,2|2,0:0|0:0,0:0:0:0:
499,69,13467,2,0,P|483:103|427:157,1,96,8|0,0:0|0:0,0:0:0:0:
248,160,13780,6,0,P|304:160|352:176,1,96,2|0,1:0|1:0,0:0:0:0:
423,246,14092,1,8,0:0:0:0:
307,288,14248,2,0,P|256:292|188:266,1,96,2|0,0:0|0:0,0:0:0:0:
104,238,14561,1,2,0:0:0:0:
48,142,14717,2,0,P|85:131|142:135,1,96,8|0,0:0|0:0,0:0:0:0:
232,72,15030,6,8,P|192:48|152:8,1,96,2|2,0:0|0:0,0:0:0:0:
352,64,15342,2,0,L|424:144,1,96,8|0,0:0|0:0,0:0:0:0:
448,248,15655,2,0,P|461:302|440:352,1,96,2|2,0:0|0:0,0:0:0:0:
352,296,15967,2,0,P|339:240|352:200,1,96,8|0,0:0|0:0,0:0:0:0:
146,271,16280,6,0,P|192:256|241:260,1,96,4|0,0:0|0:0,0:0:0:0:
205,359,16592,1,8,0:0:0:0:
72,328,16748,2,0,B|43:282|61:232|61:232|33:187|51:129,1,192,2|2,0:0|0:0,0:0:0:0:
231,166,17217,2,0,P|188:178|135:176,1,96,8|0,0:0|0:0,0:0:0:0:
72,24,17530,6,0,P|112:56|168:64,1,96,2|0,0:0|0:0,0:0:0:0:
256,48,17842,1,8,0:0:0:0:
344,104,17998,2,0,P|368:48|408:16,2,96,2|0|2,0:0|0:0|0:0,0:0:0:0:
320,248,18467,1,8,0:0:0:0:
304,256,18545,1,0,0:0:0:0:
288,264,18623,1,0,0:0:0:0:
272,272,18701,1,0,0:0:0:0:
256,280,18780,6,0,P|176:280|144:272,1,96,4|0,0:0|0:0,0:0:0:0:
82,190,19092,1,8,0:0:0:0:
212,152,19248,2,0,P|267:145|325:155,1,96,2|0,0:0|0:0,0:0:0:0:
440,184,19561,1,2,0:0:0:0:
392,56,19717,6,0,P|290:41|192:48,1,192,8|2,0:0|0:0,0:0:0:0:
64,72,20186,1,2,0:0:0:0:
120,184,20342,2,0,P|232:168|312:176,1,192,8|2,0:0|0:0,0:0:0:0:
440,184,20811,1,2,0:0:0:0:
440,184,20967,1,8,0:0:0:0:
17,325,21280,6,0,P|51:356|115:368,1,96,4|0,0:0|0:0,0:0:0:0:
104,263,21592,1,8,0:0:0:0:
206,231,21748,2,0,B|254:221|297:237|297:237|340:251|410:241,1,192,2|2,0:0|0:0,0:0:0:0:
500,219,22217,1,8,0:0:0:0:
488,16,22530,6,0,P|416:96|408:192,1,192,2|8,0:0|0:0,0:0:0:0:
488,128,22998,2,0,P|408:96|296:112,1,192,2|2,0:0|0:0,0:0:0:0:
200,160,23467,1,8,0:0:0:0:
64,64,23780,6,0,P|126:47|176:48,1,96,2|0,0:0|0:0,0:0:0:0:
272,64,24092,1,8,0:0:0:0:
376,168,24248,2,0,P|325:158|281:161,1,96,2|0,0:0|0:0,0:0:0:0:
176,176,24561,1,2,0:0:0:0:
88,280,24717,2,0,P|143:263|184:264,1,96,8|0,0:0|0:0,0:0:0:0:
296,368,25030,6,0,P|268:325|272:272,1,96,2|2,0:0|0:0,0:0:0:0:
328,200,25342,2,0,P|352:248|352:304,1,96,8|0,0:0|0:0,0:0:0:0:
440,192,25655,2,0,L|376:72,1,96,2|2,0:0|0:0,0:0:0:0:
296,53,25967,2,0,P|333:12|391:-2,1,96,8|0,0:0|0:0,0:0:0:0:
199,113,26280,6,0,P|148:127|87:108,1,96,4|0,0:0|0:0,0:0:0:0:
44,51,26592,1,8,0:0:0:0:
144,20,26748,2,0,P|156:164|174:209,1,192,2|2,0:0|0:0,0:0:0:0:
288,152,27217,2,0,L|400:152,1,96,8|0,0:0|0:0,0:0:0:0:
126,141,27530,6,0,P|78:173|54:213,1,96,2|0,0:0|0:0,0:0:0:0:
168,256,27842,1,8,0:0:0:0:
283,225,27998,2,0,P|286:275|264:331,2,96,2|0|2,0:0|0:0|0:0,0:0:0:0:
224,136,28467,1,8,0:0:0:0:
232,136,28545,1,0,0:0:0:0:
240,136,28623,1,0,0:0:0:0:
248,136,28701,1,0,0:0:0:0:
256,136,28780,6,0,L|368:136,1,96,4|0,0:0|0:0,0:0:0:0:
464,136,29092,1,8,0:0:0:0:
368,312,29248,2,0,P|401:276|432:208,1,96,2|0,0:0|0:0,0:0:0:0:
464,136,29561,1,0,0:0:0:0:
384,48,29717,6,0,P|289:11|179:47,1,192,8|2,0:0|0:0,0:0:0:0:
112,77,30186,1,2,0:0:0:0:
192,144,30342,2,0,B|144:200|72:176|72:176|32:192|24:232,1,192,8|2,0:0|0:0,0:0:0:0:
16,312,30811,1,2,0:0:0:0:
16,312,30967,1,8,0:0:0:0:
203,320,31280,6,0,B|259:328|299:312,1,96
400,352,31592,2,0,P|408:317|394:259,1,96
480,192,31905,2,0,L|384:120,1,96
264,8,32217,5,0,0:0:0:0:
232,24,32295,1,0,0:0:0:0:
200,40,32373,1,0,0:0:0:0:
168,56,32451,1,0,0:0:0:0:
136,72,32530,6,0,P|76:68|34:87,1,96,2|0,0:0|0:0,0:0:0:0:
97,162,32842,6,0,P|55:182|23:238,1,86.3999973632813,8|0,0:0|0:0,0:0:0:0:
115,255,33155,6,0,P|96:294|97:337,1,76.8,2|0,0:0|0:0,0:0:0:0:
188,315,33467,6,0,P|201:349|225:372,1,67.1999979492188,8|0,0:0|0:0,0:0:0:0:
280,297,33780,6,0,P|258:178|280:97,1,192,2|8,0:0|0:0,0:0:0:0:
336,0,34248,2,0,P|360:104|328:224,1,192,2|2,0:0|0:0,0:0:0:0:
392,312,34717,1,8,0:0:0:0:
392,312,34873,1,0,0:0:0:0:
480,232,35030,6,0,L|504:128,1,96,2|0,0:0|0:0,0:0:0:0:
402,172,35342,6,0,L|410:84,1,86.3999973632813,8|0,0:0|0:0,0:0:0:0:
314,142,35655,6,0,L|306:62,1,76.8,2|0,0:0|0:0,0:0:0:0:
223,134,35967,6,0,L|199:70,1,67.1999979492188,8|0,0:0|0:0,0:0:0:0:
136,160,36280,6,0,L|96:112,1,57.5999982421876,2|0,0:0|0:0,0:0:0:0:
72,224,36592,6,0,L|24:192,1,48,8|2,0:0|0:0,0:0:0:0:
53,308,36905,6,0,B|-3:300|53:308|-3:300,2,48,0|2|8,0:0|0:0|0:0,0:0:0:0:
264,288,37530,5,4,0:0:0:0:
403,32,37842,2,0,P|435:70|445:118,1,96,8|0,0:0|0:0,0:0:0:0:
333,67,38155,5,0,0:0:0:0:
380,175,38311,1,2,0:0:0:0:
252,79,38467,5,8,0:0:0:0:
284,215,38623,1,0,0:0:0:0:
176,64,38780,5,0,0:0:0:0:
180,231,38936,2,0,P|144:111|183:58,1,192,0|2,0:0|0:0,0:0:0:0:
0,288,39561,1,2,0:0:0:0:
88,240,39717,2,0,P|136:224|208:248,1,96,8|0,0:0|0:0,0:0:0:0:
272,290,40030,6,0,P|362:274|472:220,1,192,2|8,0:0|0:0,0:0:0:0:
472,120,40498,1,0,0:0:0:0:
472,120,40655,2,0,P|402:179|302:212,1,192,2|8,0:0|0:0,0:0:0:0:
64,88,41280,6,0,L|24:280,1,192,2|8,0:0|0:0,0:0:0:0:
96,344,41748,1,0,0:0:0:0:
80,232,41905,2,0,L|120:32,1,192,2|8,0:0|0:0,0:0:0:0:
152,64,42295,1,0,0:0:0:0:
192,72,42373,1,0,0:0:0:0:
232,64,42451,1,0,0:0:0:0:
256,40,42530,5,4,0:0:0:0:
280,128,42686,1,0,0:0:0:0:
352,112,42842,5,8,0:0:0:0:
377,27,42998,1,0,0:0:0:0:
478,85,43155,5,2,0:0:0:0:
418,148,43311,1,0,0:0:0:0:
352,112,43467,5,8,0:0:0:0:
280,128,43623,1,0,0:0:0:0:
327,223,43780,5,0,0:0:0:0:
465,200,43936,2,0,P|430:237|366:247,1,96,0|8,0:0|0:0,0:0:0:0:
467,344,44248,2,0,P|406:261|309:219,1,192,2|2,0:0|0:0,0:0:0:0:
327,223,44717,1,8,0:0:0:0:
200,224,44873,1,0,0:0:0:0:
264,112,45030,1,2,0:0:0:0:
112,192,45186,6,0,L|112:128,1,48,0|8,0:0|0:0,0:0:0:0:
208,48,45498,2,0,L|157:69,1,48,0|2,0:0|0:0,0:0:0:0:
66,60,45811,2,0,L|19:28,1,48,0|8,0:0|0:0,0:0:0:0:
232,280,46280,5,2,0:0:0:0:
336,144,46436,1,2,0:0:0:0:
248,184,46592,5,8,0:0:0:0:
416,200,46748,1,2,0:0:0:0:
32,304,47061,5,0,0:0:0:0:
120,208,47217,1,8,0:0:0:0:
248,248,47373,2,0,P|288:280|304:328,1,96,6|0,0:0|0:0,0:0:0:0:
120,280,47686,5,0,0:0:0:0:
176,160,47842,1,8,0:0:0:0:
312,144,47998,2,0,P|368:144|432:168,1,96,6|0,0:0|0:0,0:0:0:0:
120,208,48311,5,0,0:0:0:0:
248,248,48467,1,8,0:0:0:0:
360,144,48623,2,0,P|376:104|376:48,1,96,2|0,0:0|0:0,0:0:0:0:
176,160,48936,5,0,0:0:0:0:
312,144,49092,1,8,0:0:0:0:
432,224,49248,2,0,P|440:312|336:320,1,192,2|2,0:0|0:0,0:0:0:0:
296,216,49717,1,0,0:0:0:0:
432,224,49873,1,8,0:0:0:0:
256,192,49951,12,4,51280,0:0:0:0:
256,88,51436,5,2,0:0:0:0:
160,256,51592,1,2,0:0:0:0:
352,256,51748,1,2,0:0:0:0:
96,40,52217,5,0,0:0:0:0:
96,40,52530,2,0,P|80:128|96:192,1,144.000005493164,4|0,0:0|0:0,0:0:0:0:
128,248,52998,1,0,0:0:0:0:
224,176,53311,2,0,P|232:208|272:264,2,72.0000027465821,0|8|0,0:0|0:0|0:0,0:0:0:0:
184,80,53780,2,0,P|272:96|336:72,1,144.000005493164,0|0,0:0|0:0,0:0:0:0:
480,176,54405,6,0,L|435:232,3,72.0000027465821,0|0|8|0,0:0|0:0|0:0|0:0,0:0:0:0:
440,320,55030,2,0,P|360:296|288:304,1,144.000005493164,2|0,0:0|0:0,0:0:0:0:
224,328,55498,1,0,0:0:0:0:
72,128,55811,1,0,0:0:0:0:
144,192,55967,1,8,0:0:0:0:
56,224,56123,1,0,0:0:0:0:
72,128,56280,6,0,P|144:128|208:72,1,144.000005493164,2|0,0:0|0:0,0:0:0:0:
256,24,56748,1,0,0:0:0:0:
332,48,56905,2,0,P|372:120|428:160,1,144.000005493164,0|8,0:0|0:0,0:0:0:0:
432,248,57373,1,0,0:0:0:0:
432,248,57530,2,0,L|376:392,1,144.000005493164,2|0,0:0|0:0,0:0:0:0:
380,382,57998,1,0,0:0:0:0:
280,280,58311,1,0,0:0:0:0:
280,280,58467,1,8,0:0:0:0:
45,73,58780,6,0,B|104:96|104:96|164:152,1,144.000005493164,2|0,0:0|0:0,0:0:0:0:
200,80,59248,1,0,0:0:0:0:
272,104,59405,2,0,L|312:164,1,72.0000027465821
376,112,59717,1,8,0:0:0:0:
440,160,59873,2,0,L|456:264,1,72.0000027465821,0|0,0:0|0:0,0:0:0:0:
256,192,60108,12,4,61905,0:0:0:0:
256,192,62217,5,0,0:0:0:0:
168,128,62530,2,0,P|152:192|176:272,1,144.000005493164,0|8,0:0|0:0,0:0:0:0:
344,256,62998,2,0,P|360:192|336:112,1,144.000005493164,0|0,0:0|0:0,0:0:0:0:
256,192,63467,1,8,0:0:0:0:
384,128,63780,6,0,P|401:204|376:296,1,144.000005493164,0|8,0:0|0:0,0:0:0:0:
128,256,64248,2,0,P|110:179|136:88,1,144.000005493164
122,116,64717,6,0,L|105:64,3,48,8|0|0|0,0:0|0:0|0:0|0:0,0:0:0:0:
80,96,65030,2,0,P|64:200|88:304,1,192,2|8,0:0|0:0,0:0:0:0:
160,192,65498,2,0,P|256:168|360:200,1,192,2|2,0:0|0:0,0:0:0:0:
344,191,65967,1,8,0:0:0:0:
432,96,66123,2,0,P|448:200|424:304,1,192,0|2,0:0|0:0,0:0:0:0:
376,368,66592,1,8,0:0:0:0:
304,304,66748,1,0,0:0:0:0:
212,259,66905,5,0,0:0:0:0:
182,290,66983,1,0,0:0:0:0:
147,299,67061,1,0,0:0:0:0:
113,296,67139,1,0,0:0:0:0:
79,280,67217,1,8,0:0:0:0:
192,109,67373,2,0,L|144:210,1,96
192,109,67686,1,0,0:0:0:0:
312,24,67842,2,0,L|304:128,1,96,8|0,0:0|0:0,0:0:0:0:
464,88,68155,2,0,L|480:192,1,96
357,192,68467,2,0,L|349:296,1,96,8|0,0:0|0:0,0:0:0:0:
357,192,68780,5,0,0:0:0:0:
384,96,68936,1,0,0:0:0:0:
256,64,69092,5,8,0:0:0:0:
248,168,69248,1,0,0:0:0:0:
136,176,69405,6,0,L|112:72,1,96
248,168,69717,1,8,0:0:0:0:
300,260,69873,2,0,L|388:172,1,96
192,280,70186,5,0,0:0:0:0:
320,352,70342,1,8,0:0:0:0:
408,240,70498,1,0,0:0:0:0:
280,168,70655,1,0,0:0:0:0:
280,168,70811,2,0,L|256:40,1,96,0|8,0:0|0:0,0:0:0:0:
262,73,71123,1,0,0:0:0:0:
144,136,71280,6,0,P|120:80|136:24,1,96
376,16,71592,2,0,P|393:58|376:144,1,96,8|0,0:0|0:0,0:0:0:0:
360,264,71905,1,0,0:0:0:0:
344,272,71983,1,0,0:0:0:0:
328,280,72061,1,0,0:0:0:0:
312,288,72139,1,0,0:0:0:0:
296,296,72217,1,8,0:0:0:0:
280,304,72295,1,0,0:0:0:0:
264,312,72373,1,0,0:0:0:0:
248,320,72451,1,0,0:0:0:0:
232,328,72530,6,0,P|183:337|136:328,2,96,4|2|0,0:0|0:0|0:0,0:0:0:0:
184,224,72998,1,2,0:0:0:0:
96,64,73311,2,0,L|48:48,2,48,0|0|8,0:0|0:0|0:0,0:0:0:0:
144,248,73623,2,0,P|167:202|164:158,1,96
224,48,73936,6,0,L|256:8,2,48,0|0|8,0:0|0:0|0:0,0:0:0:0:
296,136,74248,2,0,L|312:184,1,48
376,152,74405,1,0,0:0:0:0:
408,168,74483,1,0,0:0:0:0:
432,200,74561,1,0,0:0:0:0:
424,240,74639,1,0,0:0:0:0:
400,264,74717,2,0,L|400:368,1,96,8|0,0:0|0:0,0:0:0:0:
280,320,75030,5,4,0:0:0:0:
290,222,75186,1,0,0:0:0:0:
192,256,75342,1,8,0:0:0:0:
280,320,75498,2,0,P|288:216|240:144,1,192,2|2,0:0|0:0,0:0:0:0:
144,112,75967,1,8,0:0:0:0:
64,168,76123,1,0,0:0:0:0:
128,24,76280,5,2,0:0:0:0:
232,40,76436,2,0,P|281:27|336:-8,1,96,0|8,0:0|0:0,0:0:0:0:
336,112,76748,1,2,0:0:0:0:
432,184,76905,2,0,P|432:128|464:64,1,96,0|2,0:0|0:0,0:0:0:0:
432,184,77217,1,8,0:0:0:0:
56,288,77530,5,2,0:0:0:0:
22,194,77686,1,0,0:0:0:0:
128,208,77842,1,8,0:0:0:0:
56,288,77998,2,0,P|24:176|80:96,1,192,2|2,0:0|0:0,0:0:0:0:
144,48,78467,1,8,0:0:0:0:
168,160,78623,1,0,0:0:0:0:
256,48,78780,5,2,0:0:0:0:
321,194,78936,2,0,P|369:162|391:125,1,96,0|8,0:0|0:0,0:0:0:0:
256,64,79248,1,2,0:0:0:0:
237,247,79405,2,0,L|320:320,1,96,0|2,0:0|0:0,0:0:0:0:
61,324,79717,2,0,L|173:300,1,96,8|0,0:0|0:0,0:0:0:0:
8,176,80030,6,0,P|90:137|136:32,1,192,2|8,0:0|0:0,0:0:0:0:
135,50,80498,1,2,0:0:0:0:
120,152,80655,2,0,L|240:120,1,96,0|2,0:0|0:0,0:0:0:0:
296,24,80967,2,0,P|344:47|400:40,1,96,8|0,0:0|0:0,0:0:0:0:
512,112,81280,6,0,L|472:304,1,192,2|8,0:0|0:0,0:0:0:0:
416,376,81748,2,0,L|456:184,1,192,2|2,0:0|0:0,0:0:0:0:
424,88,82217,1,8,0:0:0:0:
336,184,82373,1,0,0:0:0:0:
200,104,82530,6,0,P|246:66|302:58,1,96,2|0,0:0|0:0,0:0:0:0:
184,248,82842,1,8,0:0:0:0:
64,128,82998,2,0,L|72:32,1,96,2|0,0:0|0:0,0:0:0:0:
192,272,83311,1,0,0:0:0:0:
320,232,83467,1,8,0:0:0:0:
336,264,83545,1,0,0:0:0:0:
352,296,83623,1,0,0:0:0:0:
448,200,83780,6,0,L|424:96,1,96
288,104,84092,1,8,0:0:0:0:
320,232,84248,1,0,0:0:0:0:
360,72,84405,1,8,0:0:0:0:
200,32,84561,1,0,0:0:0:0:
160,192,84717,1,8,0:0:0:0:
16,352,85030,6,0,P|50:317|112:296,1,96
216,320,85342,1,8,0:0:0:0:
216,320,85498,1,0,0:0:0:0:
104,128,85655,2,0,P|137:165|200:184,1,96
312,192,85967,1,8,0:0:0:0:
280,64,86123,1,0,0:0:0:0:
312,192,86280,2,0,P|392:144|408:32,1,192,0|8,0:0|0:0,0:0:0:0:
272,56,86748,1,0,0:0:0:0:
96,228,87061,5,8,0:0:0:0:
68,112,87217,1,0,0:0:0:0:
0,184,87373,1,0,0:0:0:0:
166,157,87530,2,0,P|208:112|216:72,1,96
304,304,87842,1,8,0:0:0:0:
272,136,87998,2,0,L|376:112,1,96
488,24,88311,1,0,0:0:0:0:
512,168,88467,1,8,0:0:0:0:
504,192,88545,1,0,0:0:0:0:
496,216,88623,6,0,L|400:272,1,96
272,224,88936,1,0,0:0:0:0:
251,38,89092,1,8,0:0:0:0:
168,200,89248,1,0,0:0:0:0:
328,120,89405,1,0,0:0:0:0:
328,120,89717,1,8,0:0:0:0:
144,96,89873,1,0,0:0:0:0:
80,248,90030,6,0,L|80:344,1,96
80,248,90342,1,8,0:0:0:0:
240,216,90498,2,0,L|184:312,1,96
240,216,90811,1,0,0:0:0:0:
376,264,90967,1,8,0:0:0:0:
392,256,91045,1,0,0:0:0:0:
408,248,91123,1,0,0:0:0:0:
424,240,91201,1,0,0:0:0:0:
424,224,91280,6,0,P|449:182|464:128,1,96,6|4,0:0|0:0,0:0:0:0:
462,137,91748,5,0,2:0:0:0:
462,137,92061,1,0,2:0:0:0:
312,168,92217,1,0,2:0:0:0:
208,80,92373,1,0,2:0:0:0:
120,184,92530,6,0,P|160:240|288:280,1,192
272,281,92998,1,0,0:0:0:0:
256,192,93076,12,4,95030,0:0:0:0:
32,72,102373,5,0,0:0:0:0:
40,80,102451,1,0,0:0:0:0:
48,88,102530,1,0,0:0:0:0:
56,96,102608,1,0,0:0:0:0:
64,104,102686,1,0,0:0:0:0:
72,112,102764,1,0,0:0:0:0:
80,120,102842,2,0,P|184:136|272:104,1,192,0|0,0:0|0:0,0:0:0:0:
352,48,103311,1,0,0:0:0:0:
308,208,103467,1,8,0:0:0:0:
432,108,103623,1,0,0:0:0:0:
404,204,103780,5,0,0:0:0:0:
404,204,103936,2,0,P|392:280|280:340,1,192,0|2,0:0|0:0,0:0:0:0:
184,80,104561,1,2,0:0:0:0:
282,109,104717,1,8,0:0:0:0:
211,176,104873,1,0,0:0:0:0:
348,141,105030,6,0,L|280:224,1,96,2|0,0:0|0:0,0:0:0:0:
424,152,105342,2,0,L|364:255,1,96,8|0,0:0|0:0,0:0:0:0:
504,152,105655,6,0,L|456:256,1,96,2|0,0:0|0:0,0:0:0:0:
416,144,105967,2,0,L|464:240,1,96,8|0,0:0|0:0,0:0:0:0:
344,136,106280,6,0,L|376:240,1,96,2|0,0:0|0:0,0:0:0:0:
273,108,106592,1,8,0:0:0:0:
281,213,106748,1,2,0:0:0:0:
80,288,107061,1,2,0:0:0:0:
80,288,107217,2,0,L|48:88,1,192,8|4,0:0|0:0,0:0:0:0:
256,48,107842,5,8,0:0:0:0:
176,128,107998,1,0,0:0:0:0:
336,96,108155,1,2,0:0:0:0:
232,184,108311,1,0,0:0:0:0:
416,144,108467,1,8,0:0:0:0:
288,248,108623,1,0,0:0:0:0:
416,144,108780,5,2,0:0:0:0:
288,248,108936,1,0,0:0:0:0:
416,144,109092,1,8,0:0:0:0:
288,248,109248,1,2,0:0:0:0:
16,320,109561,1,2,0:0:0:0:
112,272,109717,1,8,0:0:0:0:
16,208,109873,1,0,0:0:0:0:
16,320,110030,6,0,P|103:280|168:204,1,192,0|8,0:0|0:0,0:0:0:0:
240,120,110498,2,0,P|320:88|428:100,1,192,2|2,0:0|0:0,0:0:0:0:
512,168,110967,1,8,0:0:0:0:
356,224,111280,6,0,L|328:28,1,192,0|8,0:0|0:0,0:0:0:0:
308,128,111748,2,0,P|261:182|148:180,1,192,2|2,0:0|0:0,0:0:0:0:
136,68,112217,1,8,0:0:0:0:
96,68,112295,1,0,0:0:0:0:
60,88,112373,1,0,0:0:0:0:
40,120,112451,1,0,0:0:0:0:
32,160,112530,6,0,L|0:56,1,96,4|0,0:0|0:0,0:0:0:0:
148,180,112842,2,0,P|180:232|168:288,1,96,8|0,0:0|0:0,0:0:0:0:
288,368,113155,2,0,P|304:312|288:264,1,96,2|0,0:0|0:0,0:0:0:0:
264,144,113467,1,8,0:0:0:0:
380,195,113623,1,0,0:0:0:0:
407,210,113701,1,0,0:0:0:0:
432,224,113780,6,0,P|400:136|472:43,1,192,2|8,0:0|0:0,0:0:0:0:
502,145,114248,2,0,P|406:137|306:85,1,192,2|2,0:0|0:0,0:0:0:0:
240,16,114717,1,8,0:0:0:0:
192,112,114873,1,0,0:0:0:0:
280,204,115030,6,0,L|168:204,1,96,2|0,0:0|0:0,0:0:0:0:
80,280,115342,2,0,L|184:280,1,96,8|0,0:0|0:0,0:0:0:0:
304,352,115655,2,0,L|208:352,1,96,2|0,0:0|0:0,0:0:0:0:
10,205,115967,2,0,L|114:205,1,96,8|0,0:0|0:0,0:0:0:0:
272,136,116280,5,2,0:0:0:0:
384,176,116436,1,0,0:0:0:0:
344,288,116592,1,8,0:0:0:0:
232,248,116748,1,2,0:0:0:0:
128,40,117061,5,2,0:0:0:0:
32,128,117217,1,8,0:0:0:0:
164,160,117373,2,0,P|132:222|129:262,1,96,6|0,0:0|0:0,0:0:0:0:
264,80,117686,5,0,0:0:0:0:
164,160,117842,1,8,0:0:0:0:
296,200,117998,2,0,P|360:180|403:146,1,96,6|0,0:0|0:0,0:0:0:0:
200,288,118311,1,0,0:0:0:0:
296,200,118467,1,8,0:0:0:0:
164,160,118623,6,0,P|106:157|56:188,1,96,6|0,0:0|0:0,0:0:0:0:
128,240,118936,1,0,0:0:0:0:
115,65,119092,1,8,0:0:0:0:
128,240,119248,2,0,P|88:160|123:57,1,192,6|2,0:0|0:0,0:0:0:0:
272,152,119717,1,8,0:0:0:0:
164,160,119873,1,0,0:0:0:0:
216,56,120030,1,0,0:0:0:0:
256,192,120108,12,4,121280,0:0:0:0:
264,168,121436,5,2,0:0:0:0:
272,200,121592,1,2,0:0:0:0:
280,232,121748,1,2,0:0:0:0:
416,40,122217,5,0,0:0:0:0:
416,40,122530,2,0,P|432:128|416:192,1,144.000005493164,4|0,0:0|0:0,0:0:0:0:
384,248,122998,1,0,0:0:0:0:
288,176,123311,2,0,P|280:208|240:264,2,72.0000027465821
328,80,123780,6,0,P|216:96|168:80,1,144.000005493164,2|0,0:0|0:0,0:0:0:0:
120,56,124248,1,0,0:0:0:0:
56,96,124405,2,0,P|52:148|104:248,1,144.000005493164,0|8,0:0|0:0,0:0:0:0:
156,272,124873,1,0,0:0:0:0:
236,268,125030,2,0,P|316:244|388:252,1,144.000005493164,2|0,0:0|0:0,0:0:0:0:
448,280,125498,1,0,0:0:0:0:
428,152,125811,5,0,0:0:0:0:
352,128,125967,1,8,0:0:0:0:
316,200,126123,1,0,0:0:0:0:
240,176,126280,6,0,L|180:240,1,72.0000027465821,2|0,0:0|0:0,0:0:0:0:
92,100,126592,2,0,L|124:176,1,72.0000027465821
188,32,126905,2,0,L|180:104,1,72.0000027465821
264,72,127217,2,0,L|368:52,1,72.0000027465821,8|0,0:0|0:0,0:0:0:0:
348,144,127530,6,0,P|410:94|491:88,1,144.000005493164,2|0,0:0|0:0,0:0:0:0:
472,85,127998,1,0,0:0:0:0:
456,210,128311,1,0,0:0:0:0:
456,210,128467,1,8,0:0:0:0:
348,264,128780,6,0,L|312:261,3,36.0000013732911,2|2|2|2,0:0|0:0|0:0|0:0,0:0:0:0:
324,228,129092,2,0,P|249:250|180:224,1,144.000005493164
256,72,129717,1,8,0:0:0:0:
256,72,129873,2,0,L|256:164,1,72.0000027465821
256,192,130108,12,0,131280,0:0:0:0:
16,168,131905,5,0,0:0:0:0:
128,144,132217,1,0,0:0:0:0:
152,256,132530,2,0,P|201:234|244:151,1,144.000005493164,0|8,0:0|0:0,0:0:0:0:
240,84,132998,1,0,0:0:0:0:
312,100,133155,2,0,P|358:126|388:156,3,72.0000027465821,0|0|8|0,0:0|0:0|0:0|0:0,0:0:0:0:
420,196,133780,6,0,P|408:252|340:328,1,144.000005493164,0|8,0:0|0:0,0:0:0:0:
304,232,134248,1,0,0:0:0:0:
204,240,134405,2,0,L|160:300,1,72.0000027465821
100,224,134717,1,8,0:0:0:0:
72,224,134795,1,0,0:0:0:0:
44,208,134873,1,0,0:0:0:0:
32,184,134951,1,0,0:0:0:0:
39,161,135030,6,0,P|91:141|135:105,1,96,2|0,0:0|0:0,0:0:0:0:
208,0,135342,1,8,0:0:0:0:
280,144,135498,2,0,L|256:240,1,96,2|0,0:0|0:0,0:0:0:0:
224,353,135811,1,2,0:0:0:0:
348,268,135967,1,8,0:0:0:0:
428,372,136123,2,0,L|476:172,1,192
473,185,136592,1,8,0:0:0:0:
312,16,136905,5,0,0:0:0:0:
280,32,136983,1,0,0:0:0:0:
248,32,137061,1,0,0:0:0:0:
216,48,137139,1,0,0:0:0:0:
184,48,137217,1,8,0:0:0:0:
144,64,137295,1,0,0:0:0:0:
112,64,137373,2,0,L|14:92,1,96
112,64,137686,5,0,0:0:0:0:
224,152,137842,2,0,P|232:176|320:216,1,96,8|0,0:0|0:0,0:0:0:0:
112,200,138155,2,0,P|80:240|80:304,1,96
287,217,138467,2,0,P|322:181|336:138,1,96,8|0,0:0|0:0,0:0:0:0:
168,176,138780,5,0,0:0:0:0:
240,312,138936,1,0,0:0:0:0:
400,272,139092,1,8,0:0:0:0:
338,136,139248,2,0,P|372:94|386:40,1,96
240,48,139561,1,0,0:0:0:0:
120,104,139717,1,8,0:0:0:0:
144,240,139873,6,0,P|272:280|192:160,1,360.000013732911
256,192,140733,12,4,142530,0:0:0:0:
256,192,142686,5,2,0:0:0:0:
330,114,142998,2,0,P|363:181|346:251,1,144.000005493164,2|0,0:0|0:0,0:0:0:0:
280,296,143467,6,0,L|224:272,1,48,8|0,0:0|0:0,0:0:0:0:
224,288,143623,2,0,L|176:294,1,48
168,280,143780,2,0,L|128:248,1,48
120,256,143936,2,0,L|120:200,1,48
96,192,144092,5,8,0:0:0:0:
72,160,144170,1,0,0:0:0:0:
64,120,144248,1,0,0:0:0:0:
80,88,144326,1,0,0:0:0:0:
112,64,144405,6,0,L|170:87,1,48
224,24,144561,2,0,L|260:67,1,48
352,56,144717,2,0,P|368:112|360:152,1,96,8|0,0:0|0:0,0:0:0:0:
472,88,145030,6,0,L|264:112,1,192,4|8,0:0|0:0,0:0:0:0:
192,208,145498,2,0,L|392:184,1,192,2|2,0:0|0:0,0:0:0:0:
480,176,145967,1,8,0:0:0:0:
440,264,146123,1,0,0:0:0:0:
360,320,146280,1,2,0:0:0:0:
264,344,146436,2,0,P|213:345|160:320,1,96,0|8,0:0|0:0,0:0:0:0:
88,384,146748,2,0,L|56:184,1,192,2|2,0:0|0:0,0:0:0:0:
40,96,147217,1,8,0:0:0:0:
411,166,147530,6,0,P|328:136|285:39,1,192,2|8,0:0|0:0,0:0:0:0:
392,64,147998,2,0,P|360:112|216:144,1,192,2|2,0:0|0:0,0:0:0:0:
144,120,148467,1,8,0:0:0:0:
232,168,148623,1,0,0:0:0:0:
296,240,148780,1,2,0:0:0:0:
336,328,148936,2,0,L|392:240,1,96,0|8,0:0|0:0,0:0:0:0:
464,304,149248,2,0,P|488:216|448:112,1,192,2|2,0:0|0:0,0:0:0:0:
376,64,149717,1,8,0:0:0:0:
80,56,150030,6,0,P|170:70|270:69,1,192,2|8,0:0|0:0,0:0:0:0:
376,64,150498,1,2,0:0:0:0:
48,216,150811,1,2,0:0:0:0:
48,216,150967,1,8,0:0:0:0:
424,288,151280,6,0,P|360:200|344:112,1,192,2|8,0:0|0:0,0:0:0:0:
336,232,151748,2,0,P|288:216|216:232,1,96,2|0,0:0|0:0,0:0:0:0:
136,320,152061,1,2,0:0:0:0:
136,320,152217,1,8,0:0:0:0:
392,80,152530,6,0,L|408:184,1,96,2|0,0:0|0:0,0:0:0:0:
424,288,152842,1,8,0:0:0:0:
240,240,152998,2,0,L|256:128,1,96,2|0,0:0|0:0,0:0:0:0:
272,32,153311,1,2,0:0:0:0:
120,88,153467,1,8,0:0:0:0:
112,112,153545,1,0,0:0:0:0:
104,136,153623,2,0,P|168:88|296:112,1,192,0|2,0:0|0:0,0:0:0:0:
376,184,154092,1,8,0:0:0:0:
256,224,154248,1,8,0:0:0:0:
275,96,154405,5,0,0:0:0:0:
296,88,154483,1,0,0:0:0:0:
320,80,154561,1,0,0:0:0:0:
344,72,154639,1,0,0:0:0:0:
368,64,154717,2,0,P|432:40|456:24,1,96,8|0,0:0|0:0,0:0:0:0:
208,152,155030,6,0,P|304:216|312:320,1,192,2|8,0:0|0:0,0:0:0:0:
208,152,155498,1,0,0:0:0:0:
72,152,155655,2,0,L|144:80,1,96,0|0,0:0|0:0,0:0:0:0:
232,0,155967,1,8,0:0:0:0:
336,64,156123,1,0,0:0:0:0:
336,64,156201,1,0,0:0:0:0:
336,64,156280,2,0,L|464:80,1,96,0|0,0:0|0:0,0:0:0:0:
288,192,156592,1,8,0:0:0:0:
419,178,156748,6,0,P|403:258|314:324,1,192,0|0,0:0|0:0,0:0:0:0:
200,248,157217,1,8,0:0:0:0:
200,248,157373,1,0,0:0:0:0:
208,136,157530,2,0,P|168:88|120:64,1,96,2|0,0:0|0:0,0:0:0:0:
0,72,157842,1,8,0:0:0:0:
80,240,157998,2,0,P|104:280|176:320,1,96,2|0,0:0|0:0,0:0:0:0:
280,352,158311,1,2,0:0:0:0:
248,216,158467,1,8,0:0:0:0:
376,336,158623,1,0,0:0:0:0:
424,256,158780,6,0,P|448:208|448:160,1,96,8|0,0:0|0:0,0:0:0:0:
147,179,159092,2,0,P|151:114|183:74,1,96,8|0,0:0|0:0,0:0:0:0:
344,184,159405,2,0,L|240:152,1,96,8|0,0:0|0:0,0:0:0:0:
146,131,159717,1,8,0:0:0:0:
272,48,159873,1,0,0:0:0:0:
252,156,160030,6,0,P|236:205|239:265,1,96,0|0,0:0|0:0,0:0:0:0:
344,184,160342,1,8,0:0:0:0:
252,156,160498,2,0,P|158:188|123:273,1,192,0|0,0:0|0:0,0:0:0:0:
240,272,160967,1,8,0:0:0:0:
244,280,161045,1,0,0:0:0:0:
248,288,161123,1,0,0:0:0:0:
252,296,161201,1,0,0:0:0:0:
256,304,161280,6,0,B|290:288|304:288|304:288|357:307|427:271,1,144.000005493164,6|4,0:0|0:0,0:0:0:0:
512,208,161748,5,0,2:0:0:0:
512,208,162061,1,0,2:0:0:0:
416,96,162217,1,0,2:0:0:0:
320,200,162373,1,0,2:0:0:0:
192,152,162530,6,0,B|173:177|168:208|168:208|208:256|184:296,2,144
256,192,163545,12,0,165655,0:0:0:0:
320,88,170030,6,0,L|336:200,1,96,4|0,0:0|0:0,0:0:0:0:
352,296,170342,1,2,0:0:0:0:
192,216,170498,2,0,L|224:116,1,96,4|0,0:0|0:0,0:0:0:0:
256,20,170810,1,2,0:0:0:0:
128,56,170967,5,4,0:0:0:0:
32,192,171123,1,0,0:0:0:0:
136,328,171280,1,2,0:0:0:0:
224,288,171436,5,4,0:0:0:0:
144,192,171592,1,0,0:0:0:0:
224,96,171748,1,2,0:0:0:0:
312,128,171905,5,4,0:0:0:0:
272,192,172061,1,0,0:0:0:0:
312,256,172217,1,6,0:0:0:0:
352,192,172373,1,0,0:0:0:0:
464,280,172530,6,0,B|510:191|510:191|456:88,1,192,4|0,0:0|0:0,0:0:0:0:
467,110,172998,1,0,0:0:0:0:
192,64,173311,1,0,0:0:0:0:
280,136,173467,1,0,0:0:0:0:
308,32,173623,1,0,0:0:0:0:
192,64,173780,6,0,L|156:160,1,96
124,100,174092,6,0,L|120:192,1,76.8
72,160,174405,6,0,L|96:240,1,57.5999982421876
204,292,174717,5,0,0:0:0:0:
256,192,174873,2,0,P|305:168|368:176,1,96
324,268,175186,1,0,0:0:0:0:
444,192,175342,2,0,L|468:88,1,96
388,4,175655,1,0,0:0:0:0:
280,72,175811,5,0,0:0:0:0:
260,80,175967,5,0,0:0:0:0:
240,88,176123,5,0,0:0:0:0:
152,40,176280,5,0,0:0:0:0:
152,40,176358,1,0,0:0:0:0:
152,40,176436,1,0,0:0:0:0:
160,140,176592,1,0,0:0:0:0:
27,148,176748,2,0,P|40:200|89:249,1,96
188,248,177061,1,0,0:0:0:0:
268,344,177217,2,0,L|336:248,1,96
400,152,177530,5,0,0:0:0:0:
400,152,177608,1,0,0:0:0:0:
400,152,177686,1,0,0:0:0:0:
336,56,177842,1,0,0:0:0:0:
232,12,177998,2,0,P|244:60|224:124,1,96
176,192,178311,1,0,0:0:0:0:
96,120,178467,1,0,0:0:0:0:
72,224,178623,1,0,0:0:0:0:
16,320,178780,5,0,0:0:0:0:
56,332,178858,1,0,0:0:0:0:
100,328,178936,1,0,0:0:0:0:
200,288,179092,1,0,0:0:0:0:
288,344,179248,2,0,L|328:232,1,96
352,152,179561,1,0,0:0:0:0:
408,60,179717,1,0,0:0:0:0:
432,80,179795,1,0,0:0:0:0:
448,108,179873,1,0,0:0:0:0:
456,136,179951,1,0,0:0:0:0:
456,168,180030,6,0,L|424:268,1,96
336,176,180342,1,0,0:0:0:0:
240,120,180498,6,0,L|204:220,1,96
192,308,180811,1,0,0:0:0:0:
156,296,180889,1,0,0:0:0:0:
128,268,180967,1,0,0:0:0:0:
116,236,181045,1,0,0:0:0:0:
116,200,181123,1,0,0:0:0:0:
128,168,181201,1,0,0:0:0:0:
152,136,181280,5,0,0:0:0:0:
235,91,181436,1,0,0:0:0:0:
272,200,181592,1,0,0:0:0:0:
368,136,181748,2,0,P|382:178|381:242,1,96
152,136,182061,2,0,P|198:120|234:91,1,96
256,224,182373,1,0,0:0:0:0:
352,128,182530,6,0,P|395:222|371:302,1,192,0|8,0:0|0:0,0:0:0:0:
264,368,182998,1,0,0:0:0:0:
168,272,183155,1,0,0:0:0:0:
156,300,183233,1,0,0:0:0:0:
144,328,183311,1,0,0:0:0:0:
48,264,183467,1,8,0:0:0:0:
104,168,183623,1,0,0:0:0:0:
8,144,183780,6,0,P|104:144|192:96,1,192,0|8,0:0|0:0,0:0:0:0:
264,32,184248,1,0,0:0:0:0:
360,72,184405,1,0,0:0:0:0:
360,72,184483,1,0,0:0:0:0:
360,72,184561,1,0,0:0:0:0:
280,152,184717,1,8,0:0:0:0:
280,152,184873,1,0,0:0:0:0:
456,184,185030,6,0,L|288:304,1,192,0|8,0:0|0:0,0:0:0:0:
184,320,185498,2,0,L|352:200,1,192
340,208,185967,1,8,0:0:0:0:
376,96,186123,2,0,P|288:72|176:104,1,192
192,95,186592,1,8,0:0:0:0:
16,56,186905,5,0,0:0:0:0:
24,72,186983,1,0,0:0:0:0:
32,88,187061,1,0,0:0:0:0:
40,104,187139,1,0,0:0:0:0:
48,120,187217,1,8,0:0:0:0:
56,136,187295,1,0,0:0:0:0:
56,160,187373,6,0,L|104:248,1,96
192,336,187686,1,0,0:0:0:0:
208,200,187842,2,0,P|194:156|216:88,1,96,8|0,0:0|0:0,0:0:0:0:
344,32,188155,2,0,L|304:128,1,96
480,120,188467,2,0,L|520:232,1,96,8|0,0:0|0:0,0:0:0:0:
480,120,188780,1,0,0:0:0:0:
384,240,188936,2,0,L|416:352,1,96,0|8,0:0|0:0,0:0:0:0:
300,121,189248,2,0,P|231:193|136:200,1,192
300,121,189717,1,8,0:0:0:0:
143,202,189873,1,0,0:0:0:0:
72,296,190030,6,0,P|24:192|56:120,1,192,0|8,0:0|0:0,0:0:0:0:
160,48,190498,1,0,0:0:0:0:
264,144,190655,1,4,0:0:0:0:
160,200,190811,1,0,0:0:0:0:
288,40,190967,1,8,0:0:0:0:
344,232,191123,1,0,0:0:0:0:
264,144,191280,6,0,P|312:120|368:120,1,96,4|0,0:0|0:0,0:0:0:0:
248,312,191592,2,0,P|203:331|152:336,1,96,8|0,0:0|0:0,0:0:0:0:
344,232,191905,2,0,P|368:280|368:336,1,96,4|0,0:0|0:0,0:0:0:0:
160,216,192217,2,0,P|140:171|136:120,1,96,8|0,0:0|0:0,0:0:0:0:
370,322,192530,5,4,0:0:0:0:
370,322,192686,1,2,0:0:0:0:
136,125,192998,1,2,0:0:0:0:
416,32,193311,2,0,L|416:80,1,48
408,48,193467,2,0,L|320:120,1,96
208,56,193780,5,0,0:0:0:0:
192,64,193858,1,0,0:0:0:0:
176,72,193936,1,0,0:0:0:0:
160,80,194014,1,0,0:0:0:0:
128,80,194092,1,8,0:0:0:0:
144,112,194170,1,0,0:0:0:0:
160,144,194248,1,0,0:0:0:0:
176,176,194326,1,0,0:0:0:0:
160,208,194405,1,0,0:0:0:0:
200,208,194483,1,0,0:0:0:0:
248,200,194561,1,0,0:0:0:0:
288,168,194639,1,0,0:0:0:0:
304,128,194717,1,8,0:0:0:0:
416,120,194873,1,0,0:0:0:0:
424,232,195030,6,0,P|400:288|280:360,1,192,4|8,0:0|0:0,0:0:0:0:
96,384,195498,2,0,P|120:328|240:256,1,192,2|2,0:0|0:0,0:0:0:0:
336,224,195967,1,8,0:0:0:0:
184,168,196123,1,0,0:0:0:0:
226,258,196280,1,2,0:0:0:0:
336,224,196436,2,0,L|289:121,1,96,0|8,0:0|0:0,0:0:0:0:
400,136,196748,2,0,P|378:90|258:26,1,192,2|2,0:0|0:0,0:0:0:0:
168,48,197217,1,8,0:0:0:0:
64,264,197530,5,2,0:0:0:0:
224,192,197686,1,0,0:0:0:0:
120,112,197842,1,8,0:0:0:0:
192,280,197998,2,0,P|248:280|296:256,1,96,2|0,0:0|0:0,0:0:0:0:
328,160,198311,1,2,0:0:0:0:
192,280,198467,1,8,0:0:0:0:
328,336,198623,1,0,0:0:0:0:
216,176,198780,6,0,L|248:80,1,96,2|0,0:0|0:0,0:0:0:0:
72,128,199092,1,8,0:0:0:0:
115,263,199248,2,0,P|227:251|305:328,1,192,2|2,0:0|0:0,0:0:0:0:
349,371,199717,1,8,0:0:0:0:
182,384,200030,6,0,L|254:176,1,192,2|8,0:0|0:0,0:0:0:0:
298,48,200498,1,2,0:0:0:0:
440,72,200655,2,0,P|397:83|353:110,3,96,0|2|8|0,0:0|0:0|0:0|0:0,0:0:0:0:
200,216,201280,5,2,0:0:0:0:
176,192,201358,1,0,0:0:0:0:
168,152,201436,2,0,L|144:248,1,96,0|8,0:0|0:0,0:0:0:0:
80,80,201748,1,2,0:0:0:0:
272,120,201905,5,2,0:0:0:0:
168,152,202061,1,0,0:0:0:0:
304,24,202217,1,8,0:0:0:0:
272,120,202373,1,0,0:0:0:0:
336,216,202530,6,0,L|384:312,1,96,6|0,0:0|0:0,0:0:0:0:
336,216,202842,1,8,0:0:0:0:
504,120,202998,2,0,L|464:216,1,96,6|8,0:0|0:0,0:0:0:0:
504,120,203311,1,0,0:0:0:0:
392,32,203467,1,8,0:0:0:0:
272,112,203623,1,0,0:0:0:0:
144,32,203780,1,0,0:0:0:0:
128,56,203858,1,0,0:0:0:0:
112,80,203936,1,0,0:0:0:0:
96,104,204014,1,0,0:0:0:0:
80,128,204092,1,8,0:0:0:0:
64,152,204170,1,0,0:0:0:0:
72,176,204248,6,0,P|48:238|86:354,1,192
176,256,204717,1,8,0:0:0:0:
208,352,204873,1,0,0:0:0:0:
300,243,205030,2,0,L|340:331,1,96
419,233,205342,2,0,P|475:257|507:289,1,96,8|0,0:0|0:0,0:0:0:0:
354,129,205655,2,0,P|406:115|453:121,1,96
360,8,205967,1,8,0:0:0:0:
238,68,206123,1,0,0:0:0:0:
220,44,206201,1,0,0:0:0:0:
200,14,206280,6,0,L|176:206,1,192,0|8,0:0|0:0,0:0:0:0:
216,320,206748,2,0,P|136:272|40:272,1,192,0|0,0:0|0:0,0:0:0:0:
216,320,207217,1,8,0:0:0:0:
40,272,207373,1,0,0:0:0:0:
224,184,207530,2,0,P|168:160|144:112,1,96,6|0,0:0|0:0,0:0:0:0:
360,48,207842,1,8,0:0:0:0:
432,240,207998,2,0,L|397:329,1,96,6|8,0:0|0:0,0:0:0:0:
232,288,208311,1,0,0:0:0:0:
312,152,208467,1,8,0:0:0:0:
448,168,208623,2,0,P|398:269|323:293,1,192,4|0,0:0|0:0,0:0:0:0:
192,216,209092,6,0,P|187:165|208:120,1,96,8|0,0:0|0:0,0:0:0:0:
448,168,209405,2,0,P|424:112|392:88,1,96
280,40,209717,1,8,0:0:0:0:
328,200,209873,1,0,0:0:0:0:
160,144,210030,2,0,P|85:180|57:294,1,192,0|8,0:0|0:0,0:0:0:0:
224,360,210498,2,0,L|176:264,1,96
320,264,210811,2,0,P|360:280|424:288,2,96,0|8|0,0:0|0:0|0:0,0:0:0:0:
208,168,211280,5,6,0:0:0:0:
392,176,211436,1,4,0:0:0:0:
304,56,211748,5,0,0:0:0:0:
304,56,212061,1,0,0:0:0:0:
328,168,212217,1,0,0:0:0:0:
432,144,212373,1,0,0:0:0:0:
408,40,212530,6,0,P|296:59|216:136,1,192
208,240,212998,1,0,0:0:0:0:
256,192,213076,12,4,216280,0:0:0:0:
96,352,217530,6,0,P|61:260|96:152,1,192,4|8,0:0|0:0,0:0:0:0:
192,40,217998,2,0,P|226:131|192:240,1,192,2|2,0:0|0:0,0:0:0:0:
205,221,218467,1,8,0:0:0:0:
128,128,218780,6,0,L|320:96,1,192,2|8,0:0|0:0,0:0:0:0:
205,221,219248,2,0,L|397:189,1,192,2|2,0:0|0:0,0:0:0:0:
512,184,219717,1,8,0:0:0:0:
496,208,219795,1,0,0:0:0:0:
480,232,219873,1,0,0:0:0:0:
464,256,219951,1,0,0:0:0:0:
472,288,220030,6,0,L|280:320,1,192,4|8,0:0|0:0,0:0:0:0:
160,376,220498,2,0,P|137:336|144:272,1,96,2|0,0:0|0:0,0:0:0:0:
240,129,220811,1,2,0:0:0:0:
240,232,220967,1,8,0:0:0:0:
408,88,221280,5,2,0:0:0:0:
456,184,221436,1,2,0:0:0:0:
352,176,221592,1,8,0:0:0:0:
48,184,221905,1,2,0:0:0:0:
144,160,222061,1,2,0:0:0:0:
120,248,222217,1,8,0:0:0:0:
400,32,222530,6,0,P|345:50|296:48,1,96,4|0,0:0|0:0,0:0:0:0:
184,32,222842,1,8,0:0:0:0:
64,120,222998,2,0,P|117:117|253:141,1,192,2|2,0:0|0:0,0:0:0:0:
352,192,223467,1,8,0:0:0:0:
456,288,223780,6,0,P|423:305|344:296,1,96,2|0,0:0|0:0,0:0:0:0:
256,281,224092,1,8,0:0:0:0:
160,368,224248,2,0,P|128:296|136:168,1,192,2|2,0:0|0:0,0:0:0:0:
168,72,224717,1,8,0:0:0:0:
312,56,225030,5,0,0:0:0:0:
400,80,225186,1,0,0:0:0:0:
416,256,225342,5,8,0:0:0:0:
336,200,225498,1,0,0:0:0:0:
192,216,225655,5,0,0:0:0:0:
208,312,225811,1,0,0:0:0:0:
56,216,225967,5,8,0:0:0:0:
56,112,226123,1,0,0:0:0:0:
143,26,226280,6,0,P|182:60|232:64,1,96,2|2,0:0|0:0,0:0:0:0:
344,32,226592,2,0,P|394:15|472:32,1,96,8|0,0:0|0:0,0:0:0:0:
384,160,226905,2,0,L|421:248,1,96,2|2,0:0|0:0,0:0:0:0:
264,192,227217,2,0,P|224:160|180:157,1,96,8|0,0:0|0:0,0:0:0:0:
110,54,227530,6,0,P|67:123|97:253,1,192,4|8,0:0|0:0,0:0:0:0:
121,337,227998,1,2,0:0:0:0:
272,216,228155,2,0,P|261:243|218:293,1,96,0|2,0:0|0:0,0:0:0:0:
384,224,228467,2,0,L|352:120,1,96,8|0,0:0|0:0,0:0:0:0:
472,112,228780,6,0,P|376:112|280:56,1,192,2|8,0:0|0:0,0:0:0:0:
192,8,229248,2,0,P|136:40|88:160,1,192,2|2,0:0|0:0,0:0:0:0:
96,264,229717,1,8,0:0:0:0:
104,272,229795,1,0,0:0:0:0:
112,280,229873,1,0,0:0:0:0:
120,288,229951,1,0,0:0:0:0:
128,296,230030,6,0,P|176:318|226:309,1,96
296,232,230342,1,8,0:0:0:0:
208,152,230498,2,0,P|288:120|400:168,1,192,2|2,0:0|0:0,0:0:0:0:
464,240,230967,1,8,0:0:0:0:
99,134,231280,6,0,P|79:192|86:244,1,96,2|2,0:0|0:0,0:0:0:0:
208,208,231592,2,0,P|216:256|216:320,1,96,8|0,0:0|0:0,0:0:0:0:
312,64,231905,2,0,L|296:176,1,96,2|2,0:0|0:0,0:0:0:0:
432,128,232217,2,0,P|432:176|456:232,1,96,8|0,0:0|0:0,0:0:0:0:
256,192,232530,12,0,235186,0:0:0:0:
