osu file format v12

[General]
AudioFilename: Princess blood.mp3
AudioLeadIn: 0
PreviewTime: 11260
Countdown: 0
SampleSet: Normal
StackLeniency: 0.5
Mode: 0
LetterboxInBreaks: 1
WidescreenStoryboard: 0

[Editor]
Bookmarks: 87197,103135,182197
DistanceSpacing: 1
BeatDivisor: 4
GridSize: 8

[Metadata]
Title:Princess Blood
TitleUnicode:Princess Blood
Artist:Rita
ArtistUnicode:Rita
Creator:Zweib
Version:Hard
Source:Kuro No Utahime
Tags:opening magnetism
BeatmapID:253527
BeatmapSetID:94112

[Difficulty]
HPDrainRate:5
CircleSize:4
OverallDifficulty:5
ApproachRate:8
SliderMultiplier:1.40000000596046
SliderTickRate:1

[Events]
//Background and Video events
0,0,"Sengoku.jpg",0,0
//Break Periods
2,93980,102405
2,165855,169280
//Storyboard Layer 0 (Background)
//Storyboard Layer 1 (Fail)
//Storyboard Layer 2 (Pass)
//Storyboard Layer 3 (Foreground)
//Storyboard Sound Samples
//Background Colour Transformations
3,100,163,162,255

[TimingPoints]
1145,405.405405405405,4,1,1,50,1,0
11280,312.5,4,1,1,50,1,0
11592,-100,4,1,5,50,0,0
11748,-100,4,1,1,50,0,0
12842,-100,4,1,5,50,0,0
12998,-100,4,1,1,50,0,0
14092,-100,4,1,5,50,0,0
14248,-100,4,1,1,50,0,0
16436,-100,4,1,3,50,0,0
16592,-100,4,1,1,50,0,0
17686,-100,4,1,3,50,0,0
17842,-100,4,1,1,50,0,0
18467,-100,4,1,4,45,0,0
18780,-100,4,1,1,50,0,0
28467,-100,4,1,4,45,0,0
28780,-100,4,1,1,50,0,0
33155,-100,4,1,4,50,0,0
47061,-100,4,1,1,35,0,0
47373,-100,4,1,4,35,0,0
47530,-100,4,1,1,45,0,0
47998,-100,4,1,4,50,0,0
48155,-100,4,1,1,50,0,0
48623,-100,4,1,4,50,0,0
48936,-100,4,1,1,50,0,0
49248,-100,4,1,4,50,0,0
49405,-100,4,1,1,50,0,0
52217,-133.333333333333,4,2,2,50,0,0
60967,-133.333333333333,4,1,5,50,0,0
61123,-133.333333333333,4,2,2,50,0,0
65030,-100,4,1,4,50,0,0
69092,-100,4,1,5,50,0,0
69248,-100,4,1,4,50,0,0
70030,-100,4,2,1,25,0,0
70342,-100,4,2,1,40,0,0
74405,-100,4,1,1,50,0,0
75030,-100,4,1,1,50,0,1
91280,-83.3333333333333,4,1,1,50,0,1
91748,-100,4,2,1,50,0,1
92530,-100,4,1,1,50,0,0
103155,-100,4,1,4,50,0,0
117061,-100,4,1,1,35,0,0
117373,-100,4,1,4,35,0,0
117686,-100,4,1,1,45,0,0
117998,-100,4,1,4,45,0,0
118311,-100,4,1,1,50,0,0
118623,-100,4,1,4,50,0,0
118936,-100,4,1,1,50,0,0
119248,-100,4,1,4,50,0,0
119405,-100,4,1,1,50,0,0
122217,-133.333333333333,4,2,2,50,0,0
130967,-133.333333333333,4,1,5,50,0,0
131280,-133.333333333333,4,2,2,50,0,0
135030,-100,4,1,4,50,0,0
139092,-100,4,1,5,50,0,0
139248,-100,4,1,4,50,0,0
140030,-100,4,2,1,25,0,0
140342,-100,4,2,1,40,0,0
145030,-100,4,1,1,50,0,1
161280,-83.3333333333333,4,1,1,50,0,1
161748,-100,4,2,1,50,0,1
162530,-100,4,2,1,50,0,0
162998,-100,4,1,3,5,0,0
170030,-100,4,2,1,50,0,0
172842,-100,4,1,5,50,0,0
172998,-100,4,1,4,50,0,0
189092,-100,4,1,5,50,0,0
189248,-100,4,1,4,50,0,0
190030,-100,4,2,1,25,0,0
190342,-100,4,2,1,40,0,0
193780,-100,4,1,2,40,0,0
195030,-100,4,1,1,60,0,1
210967,-100,4,1,2,55,0,1
211280,-83.3333333333333,4,1,1,60,0,1
212530,-100,4,1,1,50,0,0

[Colours]
Combo1 : 213,214,221
Combo2 : 53,220,255
Combo3 : 129,255,68
Combo4 : 250,71,71

[HitObjects]
64,272,11280,2,0,P|170:242|148:219,1,210.000000894069,4|2,0:0|0:0,0:0:0:0:
64,136,12061,1,2,0:0:0:0:
64,136,12217,1,8,0:0:0:0:
200,88,12530,6,0,P|297:47|296:108,1,210.000000894069,0|2,0:0|0:0,0:0:0:0:
224,224,13311,1,2,0:0:0:0:
224,224,13467,1,8,0:0:0:0:
360,264,13780,6,0,P|306:186|386:170,1,210.000000894069,0|2,0:0|0:0,0:0:0:0:
496,256,14561,1,2,0:0:0:0:
496,256,14717,1,8,0:0:0:0:
480,120,15030,5,0,0:0:0:0:
360,40,15342,1,8,0:0:0:0:
352,176,15655,1,0,0:0:0:0:
232,104,15967,1,8,0:0:0:0:
80,96,16280,6,0,P|56:120|48:168,2,70.000000298023,0|0|8,0:0|0:0|0:0,0:0:0:0:
128,160,16748,2,0,P|117:216|152:296,1,140.000000596046,2|2,0:0|0:0,0:0:0:0:
216,328,17217,1,8,0:0:0:0:
368,304,17530,6,0,P|392:280|401:245,2,70.000000298023,0|0|8,0:0|0:0|0:0,0:0:0:0:
320,240,17998,2,0,P|330:183|300:108,1,140.000000596046
224,96,18467,2,0,L|219:57,3,35.0000001490115,8|0|0|0,0:0|0:0|0:0|0:0,0:0:0:0:
192,96,18780,6,0,P|123:130|58:87,1,140.000000596046,4|8,0:0|0:0,0:0:0:0:
128,56,19248,2,0,L|144:224,1,140.000000596046,2|2,0:0|0:0,0:0:0:0:
152,272,19717,1,8,0:0:0:0:
288,200,20030,6,0,P|257:192|224:168,2,70.000000298023,2|2|8,0:0|0:0|0:0,0:0:0:0:
440,168,20655,2,0,P|472:136|488:96,2,70.000000298023,2|2|8,0:0|0:0|0:0,0:0:0:0:
408,320,21280,6,0,P|332:284|276:304,1,140.000000596046,0|8,0:0|0:0,0:0:0:0:
220,344,21748,1,2,0:0:0:0:
108,236,22061,2,0,P|105:272|124:316,2,70.000000298023,2|8|0,0:0|0:0|0:0,0:0:0:0:
172,192,22530,6,0,P|124:136|150:59,1,140.000000596046,0|8,0:0|0:0,0:0:0:0:
200,120,22998,1,2,0:0:0:0:
352,96,23311,2,0,L|338:17,2,70.000000298023,2|8|0,0:0|0:0|0:0,0:0:0:0:
424,64,23780,6,0,L|456:224,1,140.000000596046,0|8,0:0|0:0,0:0:0:0:
464,280,24248,1,2,0:0:0:0:
328,208,24561,2,0,L|400:248,2,70.000000298023,2|8|0,0:0|0:0|0:0,0:0:0:0:
224,256,25030,6,0,L|284:292,1,70.000000298023
176,184,25342,2,0,L|256:160,1,70.000000298023,8|0,0:0|0:0,0:0:0:0:
96,160,25655,2,0,L|132:99,1,70.000000298023
16,192,25967,2,0,L|8:112,1,70.000000298023,8|0,0:0|0:0,0:0:0:0:
0,44,26280,5,2,0:0:0:0:
152,80,26592,2,0,L|248:104,1,70.000000298023,8|2,0:0|0:0,0:0:0:0:
368,144,27061,2,0,L|288:192,1,70.000000298023,2|8,0:0|0:0,0:0:0:0:
216,304,27530,6,0,P|288:312|352:280,1,140.000000596046,2|8,0:0|0:0,0:0:0:0:
347,353,27998,2,0,P|355:257|395:201,1,140.000000596046,2|2,0:0|0:0,0:0:0:0:
440,192,28467,2,0,L|445:157,3,35.0000001490115,8|0|0|0,0:0|0:0|0:0|0:0,0:0:0:0:
480,136,28780,6,0,P|448:64|400:8,1,140.000000596046,2|8,0:0|0:0,0:0:0:0:
409,16,29248,1,2,0:0:0:0:
264,56,29561,2,0,L|360:32,1,70.000000298023,2|8,0:0|0:0,0:0:0:0:
336,192,30030,5,0,0:0:0:0:
272,328,30342,1,8,0:0:0:0:
136,256,30655,1,0,0:0:0:0:
200,120,30967,1,8,0:0:0:0:
256,192,31045,12,4,32530,0:0:0:0:
88,56,33155,5,0,0:0:0:0:
160,72,33311,1,0,0:0:0:0:
112,128,33467,1,0,0:0:0:0:
184,144,33623,1,0,0:0:0:0:
136,200,33780,2,0,P|200:216|256:160,1,140.000000596046,0|8,0:0|0:0,0:0:0:0:
285,102,34248,1,2,0:0:0:0:
424,160,34561,1,2,0:0:0:0:
400,232,34717,2,0,L|376:320,2,70.000000298023,8|0|0,0:0|0:0|0:0,0:0:0:0:
232,264,35342,1,8,0:0:0:0:
232,264,35498,1,2,0:0:0:0:
120,368,35811,5,2,0:0:0:0:
120,368,35967,2,0,L|72:288,1,70.000000298023,8|0,0:0|0:0,0:0:0:0:
128,248,36280,2,0,L|160:152,1,70.000000298023
96,128,36592,2,0,L|64:32,1,70.000000298023,8|2,0:0|0:0,0:0:0:0:
136,16,36905,2,0,L|208:64,1,70.000000298023,0|2,0:0|0:0,0:0:0:0:
272,32,37217,2,0,L|352:8,1,70.000000298023,8|0,0:0|0:0,0:0:0:0:
352,88,37530,6,0,L|496:40,2,140.000000596046,4|8|2,0:0|0:0|0:0,0:0:0:0:
288,128,38311,1,2,0:0:0:0:
248,192,38467,1,8,0:0:0:0:
264,264,38623,1,0,0:0:0:0:
328,304,38780,6,0,P|397:346|464:326,1,140.000000596046,0|8,0:0|0:0,0:0:0:0:
404,253,39248,1,2,0:0:0:0:
310,152,39561,1,2,0:0:0:0:
310,152,39717,2,0,L|374:95,2,70.000000298023,8|0|0,0:0|0:0|0:0,0:0:0:0:
199,237,40342,1,8,0:0:0:0:
199,237,40498,1,2,0:0:0:0:
53,217,40811,1,2,0:0:0:0:
53,217,40967,1,8,0:0:0:0:
192,160,41280,6,0,B|151:104|151:104|157:24,1,140.000000596046,2|8,0:0|0:0,0:0:0:0:
256,8,41748,2,0,B|296:63|296:63|290:143,1,140.000000596046,2|2,0:0|0:0,0:0:0:0:
272,256,42217,2,0,L|264:304,3,35.0000001490115,8|0|0|0,0:0|0:0|0:0|0:0,0:0:0:0:
296,264,42530,6,0,L|392:280,1,70.000000298023,4|0,0:0|0:0,0:0:0:0:
471,216,42842,2,0,L|402:205,1,70.000000298023,8|2,0:0|0:0,0:0:0:0:
322,114,43155,2,0,L|418:130,1,70.000000298023,0|2,0:0|0:0,0:0:0:0:
282,184,43467,2,0,L|213:173,1,70.000000298023,8|0,0:0|0:0,0:0:0:0:
187,257,43780,6,0,P|125:180|144:120,1,140.000000596046,0|8,0:0|0:0,0:0:0:0:
152,72,44248,1,2,0:0:0:0:
304,56,44561,2,0,P|262:64|220:91,2,70.000000298023,2|8|0,0:0|0:0|0:0,0:0:0:0:
408,80,45030,6,0,L|472:120,1,70.000000298023
380,212,45342,2,0,L|344:152,1,70.000000298023,8|0,0:0|0:0,0:0:0:0:
256,176,45655,2,0,L|264:264,1,70.000000298023
148,223,45967,2,0,L|172:151,1,70.000000298023,8|0,0:0|0:0,0:0:0:0:
192,80,46280,5,0,0:0:0:0:
264,96,46436,1,0,0:0:0:0:
328,48,46592,1,8,0:0:0:0:
400,64,46748,1,0,0:0:0:0:
504,176,47061,6,0,L|481:246,1,70.000000298023,0|8,0:0|0:0,0:0:0:0:
409,223,47373,2,0,B|385:295|385:295|329:343,1,140.000000596046,4|0,0:0|0:0,0:0:0:0:
260,344,47842,1,8,0:0:0:0:
179,349,47998,2,0,B|203:277|203:277|259:229,1,140.000000596046,4|0,0:0|0:0,0:0:0:0:
330,229,48467,1,8,0:0:0:0:
330,229,48623,1,4,0:0:0:0:
168,181,48936,5,0,0:0:0:0:
168,181,49092,1,8,0:0:0:0:
168,181,49248,2,0,B|152:109|152:109|168:41,1,140.000000596046,4|0,0:0|0:0,0:0:0:0:
167,44,49717,1,8,0:0:0:0:
228,96,49873,6,0,L|300:24,1,70.000000298023,2|0,0:0|0:0,0:0:0:0:
316,112,50186,2,0,L|420:72,1,70.000000298023,2|0,0:0|0:0,0:0:0:0:
396,160,50498,2,0,L|492:168,1,70.000000298023,2|0,0:0|0:0,0:0:0:0:
444,240,50811,2,0,L|512:272,2,70.000000298023,2|0|2,0:0|0:0|0:0,0:0:0:0:
364,248,51280,5,4,0:0:0:0:
284,256,51436,1,2,0:0:0:0:
204,264,51592,1,2,0:0:0:0:
124,272,51748,1,2,0:0:0:0:
157,41,52217,5,0,0:0:0:0:
89,121,52530,2,0,P|140:146|219:126,1,105.000004452467,2|0,0:0|0:0,0:0:0:0:
256,120,52998,1,2,0:0:0:0:
256,120,53311,2,0,P|288:112|312:88,1,52.5000022262334,2|8,0:0|0:0,0:0:0:0:
396,142,53780,6,0,L|453:30,2,105.000004452467,0|0|0,0:0|0:0|0:0,0:0:0:0:
344,232,54717,1,8,0:0:0:0:
344,232,55030,2,0,P|256:285|193:245,2,157.5000066787,0|2|8,0:0|0:0|0:0,0:0:0:0:
447,204,56280,6,0,L|502:306,2,105.000004452467
397,115,57217,1,8,0:0:0:0:
295,88,57530,2,0,P|198:89|145:153,2,157.5000066787,0|2|8,0:0|0:0|0:0,0:0:0:0:
246,181,58780,5,0,0:0:0:0:
156,235,59092,1,0,0:0:0:0:
63,184,59405,1,0,0:0:0:0:
64,288,59717,1,8,0:0:0:0:
102,323,59873,1,0,0:0:0:0:
151,342,60030,6,0,P|243:348|274:324,1,105.000004452467
352,367,60655,2,0,P|348:284|405:225,1,157.5000066787
445,239,61280,2,0,P|389:226|321:133,1,157.5000066787
323,99,61905,1,0,0:0:0:0:
231,47,62217,5,8,0:0:0:0:
173,134,62530,2,0,P|146:174|36:172,1,157.5000066787
44,178,63155,1,0,0:0:0:0:
173,134,63467,1,8,0:0:0:0:
265,184,63780,2,0,P|285:252|226:339,1,157.5000066787,2|0,0:0|0:0,0:0:0:0:
247,325,64405,1,0,0:0:0:0:
265,184,64717,1,8,0:0:0:0:
104,232,65030,6,0,L|142:172,1,70.000000298023,2|0,0:0|0:0,0:0:0:0:
88,88,65342,1,0,0:0:0:0:
184,168,65498,2,0,L|192:96,1,70.000000298023,2|0,0:0|0:0,0:0:0:0:
248,16,65811,1,0,0:0:0:0:
296,80,65967,1,0,0:0:0:0:
368,120,66123,2,0,P|427:143|507:129,2,140.000000596046,2|2|2,0:0|0:0|0:0,0:0:0:0:
433,242,67061,5,0,0:0:0:0:
360,280,67217,1,0,0:0:0:0:
288,320,67373,1,4,0:0:0:0:
120,312,67686,5,0,0:0:0:0:
120,312,67842,1,8,0:0:0:0:
72,240,68155,5,0,0:0:0:0:
24,168,68467,5,8,0:0:0:0:
112,160,68780,5,0,0:0:0:0:
112,160,68936,2,0,P|192:120|216:56,1,140.000000596046,2|0,0:0|0:0,0:0:0:0:
248,0,69405,1,0,0:0:0:0:
304,64,69561,2,0,P|338:41|385:46,2,70.000000298023,2|8|0,0:0|0:0|0:0,0:0:0:0:
319,179,70030,6,0,L|360:122,1,70.000000298023
469,98,70342,2,0,L|429:155,1,70.000000298023,8|0,0:0|0:0,0:0:0:0:
490,202,70655,2,0,L|448:258,1,70.000000298023
341,280,70967,2,0,L|381:223,1,70.000000298023,8|0,0:0|0:0,0:0:0:0:
360,122,71280,6,0,L|319:179,1,70.000000298023
209,197,71592,2,0,L|251:141,1,70.000000298023,8|0,0:0|0:0,0:0:0:0:
208,66,71905,2,0,L|186:94,3,35.0000001490115
160,120,72217,2,0,L|110:185,1,70.000000298023,8|0,0:0|0:0,0:0:0:0:
64,240,72530,5,4,0:0:0:0:
200,320,72686,1,2,0:0:0:0:
200,320,72998,5,2,0:0:0:0:
256,192,73076,12,0,74717,0:0:0:0:
176,320,75030,6,0,L|328:288,1,140.000000596046,4|8,0:0|0:0,0:0:0:0:
400,272,75498,1,2,0:0:0:0:
400,272,75811,2,0,P|434:297|473:308,2,70.000000298023,2|8|0,0:0|0:0|0:0,0:0:0:0:
367,186,76280,6,0,L|293:195,1,70.000000298023
208,213,76592,1,8,0:0:0:0:
112,343,76748,2,0,L|161:276,1,70.000000298023,2|0,0:0|0:0,0:0:0:0:
208,213,77061,1,2,0:0:0:0:
191,115,77217,1,8,0:0:0:0:
8,40,77530,6,0,P|83:46|130:118,1,140.000000596046,2|8,0:0|0:0,0:0:0:0:
40,129,77998,1,2,0:0:0:0:
30,311,78311,1,2,0:0:0:0:
109,267,78467,1,8,0:0:0:0:
199,267,78623,1,0,0:0:0:0:
275,317,78780,6,0,L|337:378,1,70.000000298023
283,231,79092,1,8,0:0:0:0:
373,198,79248,2,0,L|374:287,1,70.000000298023,2|0,0:0|0:0,0:0:0:0:
283,231,79561,1,2,0:0:0:0:
215,171,79717,1,8,0:0:0:0:
44,114,80030,6,0,L|124:82,1,70.000000298023
191,50,80342,1,8,0:0:0:0:
276,80,80498,2,0,P|312:65|364:60,2,70.000000298023,2|0|2,0:0|0:0|0:0,0:0:0:0:
207,140,80967,1,8,0:0:0:0:
85,275,81280,6,0,L|26:347,1,70.000000298023,0|0,0:0|0:0,0:0:0:0:
176,288,81592,1,8,0:0:0:0:
272,264,81748,2,0,L|237:185,2,70.000000298023,2|0|2,0:0|0:0|0:0,0:0:0:0:
312,344,82217,1,8,0:0:0:0:
136,176,82530,6,0,L|170:115,1,70.000000298023
240,72,82842,1,8,0:0:0:0:
312,200,82998,2,0,L|299:131,1,70.000000298023,2|0,0:0|0:0,0:0:0:0:
336,56,83311,1,2,0:0:0:0:
477,119,83467,2,0,L|418:80,1,70.000000298023,8|0,0:0|0:0,0:0:0:0:
464,216,83780,6,0,P|433:248|392:264,1,70.000000298023,2|0,0:0|0:0,0:0:0:0:
312,272,84092,2,0,P|272:272|224:248,1,70.000000298023,8|2,0:0|0:0,0:0:0:0:
168,192,84405,2,0,P|147:226|144:272,2,70.000000298023,0|0|8,0:0|0:0|0:0,0:0:0:0:
311,86,85030,5,0,0:0:0:0:
478,156,85342,1,8,0:0:0:0:
478,156,85498,1,2,0:0:0:0:
329,261,85811,1,2,0:0:0:0:
403,209,85967,1,8,0:0:0:0:
458,280,86123,1,0,0:0:0:0:
383,332,86280,2,0,P|295:341|245:297,1,140.000000596046,0|8,0:0|0:0,0:0:0:0:
218,230,86748,1,2,0:0:0:0:
70,337,87061,5,2,0:0:0:0:
46,249,87217,2,0,L|26:164,1,70.000000298023,8|0,0:0|0:0,0:0:0:0:
7,92,87530,2,0,L|95:92,1,70.000000298023,4|0,0:0|0:0,0:0:0:0:
169,96,87842,1,8,0:0:0:0:
136,248,87998,2,0,L|152:168,1,70.000000298023,2|0,0:0|0:0,0:0:0:0:
169,96,88311,1,2,0:0:0:0:
240,40,88467,5,8,0:0:0:0:
240,40,88623,2,0,P|306:63|379:55,1,140.000000596046,2|2,0:0|0:0,0:0:0:0:
343,142,89092,2,0,L|290:194,1,70.000000298023,8|2,0:0|0:0,0:0:0:0:
376,228,89405,2,0,L|376:324,1,70.000000298023,8|2,0:0|0:0,0:0:0:0:
303,352,89717,5,8,0:0:0:0:
220,314,89873,1,0,0:0:0:0:
145,367,90030,2,0,P|128:313|170:235,1,140.000000596046,2|8,0:0|0:0,0:0:0:0:
226,177,90498,1,2,0:0:0:0:
404,138,90811,1,2,0:0:0:0:
360,56,90967,1,8,0:0:0:0:
344,56,91045,1,0,0:0:0:0:
328,56,91123,1,0,0:0:0:0:
312,56,91201,1,0,0:0:0:0:
296,56,91280,6,0,L|190:57,1,83.9999977941511,6|4,0:0|0:0,0:0:0:0:
99,216,91748,1,0,2:0:0:0:
273,267,92061,2,0,P|241:265|205:252,2,70.000000298023,0|0|0,2:0|2:0|2:0,0:0:0:0:
339,204,92530,2,0,P|362:268|318:346,1,140.000000596046
418,369,92998,2,0,P|448:282|421:162,1,210.000000894069
256,152,93780,1,4,0:0:0:0:
413,289,103155,5,0,0:0:0:0:
413,289,103311,1,0,0:0:0:0:
413,289,103467,1,0,0:0:0:0:
413,289,103623,1,0,0:0:0:0:
413,289,103780,2,0,P|388:185|353:148,1,140.000000596046,0|8,0:0|0:0,0:0:0:0:
309,112,104248,1,2,0:0:0:0:
180,264,104561,5,2,0:0:0:0:
122,213,104717,2,0,P|117:170|128:134,2,70.000000298023,8|0|0,0:0|0:0|0:0,0:0:0:0:
38,342,105342,1,8,0:0:0:0:
38,342,105498,1,2,0:0:0:0:
18,189,105811,5,2,0:0:0:0:
18,189,105967,2,0,L|2:93,1,70.000000298023,8|0,0:0|0:0,0:0:0:0:
83,124,106280,2,0,L|115:28,1,70.000000298023
177,83,106592,2,0,L|262:31,1,70.000000298023,8|0,0:0|0:0,0:0:0:0:
288,104,106905,2,0,L|368:89,1,70.000000298023
377,165,107217,2,0,L|463:193,1,70.000000298023,8|0,0:0|0:0,0:0:0:0:
406,254,107530,6,0,P|426:335|390:377,1,140.000000596046,4|8,0:0|0:0,0:0:0:0:
272,304,108155,2,0,L|204:321,1,70.000000298023,0|0,0:0|0:0,0:0:0:0:
101,273,108467,2,0,L|169:256,1,70.000000298023,8|0,0:0|0:0,0:0:0:0:
243,235,108780,2,0,P|294:189|301:114,1,140.000000596046,0|8,0:0|0:0,0:0:0:0:
213,143,109248,1,2,0:0:0:0:
105,32,109561,5,2,0:0:0:0:
105,32,109717,2,0,L|11:17,2,70.000000298023,8|0|0,0:0|0:0|0:0,0:0:0:0:
257,9,110342,1,8,0:0:0:0:
257,9,110498,1,2,0:0:0:0:
401,64,110811,1,2,0:0:0:0:
401,64,110967,1,8,0:0:0:0:
504,200,111280,6,0,P|441:148|376:160,1,140.000000596046,0|8,0:0|0:0,0:0:0:0:
424,232,111748,2,0,L|360:356,1,140.000000596046,2|2,0:0|0:0,0:0:0:0:
296,304,112217,2,0,L|315:271,3,35.0000001490115,8|0|0|0,0:0|0:0|0:0|0:0,0:0:0:0:
336,240,112530,6,0,P|329:202|304:168,1,70.000000298023,4|0,0:0|0:0,0:0:0:0:
240,216,112842,2,0,P|219:183|221:129,1,70.000000298023,8|0,0:0|0:0,0:0:0:0:
272,96,113155,2,0,P|265:58|240:24,1,70.000000298023
184,80,113467,2,0,P|155:90|128:118,1,70.000000298023,8|0,0:0|0:0,0:0:0:0:
56,80,113780,2,0,P|44:124|112:196,1,140.000000596046,0|8,0:0|0:0,0:0:0:0:
184,208,114248,1,2,0:0:0:0:
119,348,114561,6,0,L|50:361,2,70.000000298023,2|8|0,0:0|0:0|0:0,0:0:0:0:
225,346,115030,2,0,L|291:302,1,70.000000298023
303,173,115342,2,0,L|311:242,1,70.000000298023,8|0,0:0|0:0,0:0:0:0:
416,331,115655,2,0,L|354:298,2,70.000000298023,0|0|8,0:0|0:0|0:0,0:0:0:0:
464,184,116280,5,0,0:0:0:0:
486,111,116436,1,0,0:0:0:0:
410,94,116592,1,8,0:0:0:0:
431,20,116748,1,2,0:0:0:0:
277,88,117061,6,0,L|294:7,2,70.000000298023,2|8|4,0:0|0:0|0:0,0:0:0:0:
136,85,117686,2,0,L|73:117,2,70.000000298023,0|8|4,0:0|0:0|0:0,0:0:0:0:
196,211,118311,2,0,L|245:282,2,70.000000298023,0|8|4,0:0|0:0|0:0,0:0:0:0:
363,230,118936,5,0,0:0:0:0:
383,307,119092,1,8,0:0:0:0:
446,251,119248,2,0,P|468:185|446:111,1,140.000000596046,4|0,0:0|0:0,0:0:0:0:
391,59,119717,1,8,0:0:0:0:
307,48,119873,6,0,L|224:62,1,70.000000298023,2|0,0:0|0:0,0:0:0:0:
182,123,120186,2,0,L|90:138,1,70.000000298023,2|0,0:0|0:0,0:0:0:0:
96,216,120498,2,0,L|184:201,1,70.000000298023,2|0,0:0|0:0,0:0:0:0:
223,265,120811,2,0,L|296:253,2,70.000000298023,2|0|2,0:0|0:0|0:0,0:0:0:0:
152,304,121280,5,4,0:0:0:0:
232,336,121436,1,2,0:0:0:0:
312,360,121592,1,2,0:0:0:0:
392,384,121748,1,2,0:0:0:0:
488,152,122217,5,0,0:0:0:0:
488,152,122530,2,0,L|390:84,1,105.000004452467
393,154,122998,2,0,L|337:51,1,105.000004452467
342,61,123467,1,8,0:0:0:0:
222,98,123780,6,0,P|191:45|139:31,2,105.000004452467,0|0|0,0:0|0:0|0:0,0:0:0:0:
198,200,124717,1,8,0:0:0:0:
120,126,125030,2,0,B|91:196|91:196|119:275,2,157.5000066787,0|0|8,0:0|0:0|0:0,0:0:0:0:
221,99,126280,6,0,P|269:124|299:174,1,105.000004452467
372,93,126905,2,0,P|392:128|409:213,1,105.000004452467,0|8,0:0|0:0,0:0:0:0:
382,296,127530,2,0,B|459:272|459:272|511:201,2,157.5000066787,0|0|8,0:0|0:0|0:0,0:0:0:0:
296,234,128780,5,0,0:0:0:0:
256,328,129092,1,0,0:0:0:0:
160,296,129405,1,0,0:0:0:0:
200,200,129717,1,8,0:0:0:0:
200,200,129873,1,0,0:0:0:0:
200,200,130030,2,0,P|135:162|117:117,1,105.000004452467
218,96,130655,6,0,P|296:155|280:266,2,210.000008904934
313,52,132217,1,8,0:0:0:0:
417,59,132530,6,0,P|454:83|465:102,3,52.5000022262334
508,71,133155,2,0,L|509:195,1,105.000004452467,0|8,0:0|0:0,0:0:0:0:
446,260,133780,6,0,L|380:250,3,52.5000022262334
379,293,134405,2,0,L|303:206,1,105.000004452467,0|8,0:0|0:0,0:0:0:0:
96,208,135030,6,0,L|96:136,1,70.000000298023
192,224,135342,1,0,0:0:0:0:
168,144,135498,2,0,L|200:80,1,70.000000298023
280,184,135811,1,0,0:0:0:0:
288,96,135967,1,0,0:0:0:0:
368,48,136123,2,0,P|427:71|507:57,2,140.000000596046
165,34,137061,5,0,0:0:0:0:
92,76,137217,1,0,0:0:0:0:
70,159,137373,2,0,P|122:184|151:259,1,140.000000596046,4|0,0:0|0:0,0:0:0:0:
222,212,137842,2,0,L|230:355,1,140.000000596046,8|0,0:0|0:0,0:0:0:0:
229,351,138467,1,8,0:0:0:0:
376,264,138780,5,0,0:0:0:0:
376,264,138936,2,0,P|424:207|436:115,1,140.000000596046
382,80,139405,1,0,0:0:0:0:
298,77,139561,2,0,P|256:88|237:117,2,70.000000298023,0|8|0,0:0|0:0|0:0,0:0:0:0:
313,159,140030,6,0,L|266:237,1,70.000000298023
126,182,140342,2,0,L|162:121,1,70.000000298023,8|0,0:0|0:0,0:0:0:0:
208,192,140655,2,0,L|161:270,1,70.000000298023
21,215,140967,2,0,L|57:154,1,70.000000298023,8|0,0:0|0:0,0:0:0:0:
94,260,141280,6,0,L|93:337,1,70.000000298023,0|0,0:0|0:0,0:0:0:0:
204,281,141592,2,0,L|159:357,1,70.000000298023,8|0,0:0|0:0,0:0:0:0:
248,364,141905,2,0,L|283:351,3,35.0000001490115
319,336,142217,2,0,P|341:306|352:274,1,70.000000298023,8|0,0:0|0:0,0:0:0:0:
340,192,142530,5,4,0:0:0:0:
240,104,142686,1,2,0:0:0:0:
240,104,142998,5,2,0:0:0:0:
256,192,143076,12,0,144717,0:0:0:0:
234,173,145030,6,0,L|162:54,1,140.000000596046,4|8,0:0|0:0,0:0:0:0:
161,53,145498,1,2,0:0:0:0:
322,103,145811,1,2,0:0:0:0:
395,62,145967,1,8,0:0:0:0:
442,131,146123,1,0,0:0:0:0:
368,176,146280,6,0,L|448:224,1,70.000000298023
328,238,146592,1,0,0:0:0:0:
253,232,146748,2,0,L|261:320,1,70.000000298023,2|0,0:0|0:0,0:0:0:0:
181,253,147061,1,0,0:0:0:0:
181,253,147217,1,8,0:0:0:0:
0,318,147530,6,0,L|19:176,1,140.000000596046,0|8,0:0|0:0,0:0:0:0:
33,96,147998,1,2,0:0:0:0:
184,48,148311,1,2,0:0:0:0:
248,88,148467,1,8,0:0:0:0:
320,56,148623,1,0,0:0:0:0:
389,93,148780,6,0,L|376:166,1,70.000000298023
350,241,149092,1,8,0:0:0:0:
268,220,149248,2,0,L|276:308,1,70.000000298023,2|0,0:0|0:0,0:0:0:0:
283,373,149561,1,2,0:0:0:0:
283,373,149717,1,8,0:0:0:0:
484,374,150030,6,0,L|404:342,1,70.000000298023
464,277,150342,1,8,0:0:0:0:
409,212,150498,2,0,L|475:188,2,70.000000298023,2|0|2,0:0|0:0|0:0,0:0:0:0:
363,283,150967,1,8,0:0:0:0:
325,96,151280,6,0,P|312:136|269:168,1,70.000000298023
240,82,151592,1,8,0:0:0:0:
155,106,151748,2,0,P|168:136|206:160,2,70.000000298023,2|0|2,0:0|0:0|0:0,0:0:0:0:
99,169,152217,1,8,0:0:0:0:
140,331,152530,6,0,L|210:291,1,70.000000298023
232,208,152842,1,8,0:0:0:0:
230,340,152998,2,0,L|283:279,1,70.000000298023,0|8,0:0|0:0,0:0:0:0:
232,208,153311,1,0,0:0:0:0:
314,312,153467,2,0,L|335:237,1,70.000000298023,8|0,0:0|0:0,0:0:0:0:
352,160,153780,5,8,0:0:0:0:
304,96,153936,1,0,0:0:0:0:
224,104,154092,1,8,0:0:0:0:
272,168,154248,1,0,0:0:0:0:
352,160,154405,2,0,P|376:128|378:77,2,70.000000298023,8|0|8,0:0|0:0|0:0,0:0:0:0:
240,32,155030,5,0,0:0:0:0:
104,136,155342,1,8,0:0:0:0:
104,136,155498,1,2,0:0:0:0:
48,282,155811,1,2,0:0:0:0:
109,224,155967,1,8,0:0:0:0:
186,192,156123,1,0,0:0:0:0:
269,201,156280,2,0,P|310:235|405:257,1,140.000000596046,0|8,0:0|0:0,0:0:0:0:
470,226,156748,1,2,0:0:0:0:
392,376,157061,5,2,0:0:0:0:
320,368,157217,2,0,L|329:286,1,70.000000298023,8|0,0:0|0:0,0:0:0:0:
400,304,157530,2,0,L|408:222,1,70.000000298023,2|0,0:0|0:0,0:0:0:0:
416,160,157842,1,8,0:0:0:0:
416,160,157998,2,0,L|424:80,1,70.000000298023,2|0,0:0|0:0,0:0:0:0:
344,104,158311,1,2,0:0:0:0:
272,72,158467,1,8,0:0:0:0:
196,70,158623,2,0,P|127:101|112:184,1,140.000000596046
192,154,159092,2,0,L|180:235,2,70.000000298023,8|0|0,0:0|0:0|0:0,0:0:0:0:
45,237,159717,5,8,0:0:0:0:
17,316,159873,1,0,0:0:0:0:
99,300,160030,2,0,P|155:283|244:313,1,140.000000596046,0|8,0:0|0:0,0:0:0:0:
305,344,160498,1,2,0:0:0:0:
445,359,160811,5,2,0:0:0:0:
504,288,160967,1,8,0:0:0:0:
496,264,161045,1,2,0:0:0:0:
488,240,161123,1,2,0:0:0:0:
480,216,161201,1,2,0:0:0:0:
472,192,161280,2,0,L|448:112,1,83.9999977941511,6|4,0:0|0:0,0:0:0:0:
256,120,161748,5,0,0:0:0:0:
336,240,162061,1,0,0:0:0:0:
270,264,162217,1,0,0:0:0:0:
200,248,162374,1,0,0:0:0:0:
144,208,162530,2,0,P|117:97|176:16,1,210.000000894069
256,192,163076,12,0,165655,0:0:0:0:
136,296,170030,6,0,L|72:264,2,70.000000298023,4|0|8,0:0|0:0|0:0,0:0:0:0:
208,256,170498,2,0,L|272:288,2,70.000000298023,4|0|0,0:0|0:0|0:0,0:0:0:0:
160,192,170967,2,0,L|96:160,2,70.000000298023,12|0|0,0:0|0:0|0:0,0:0:0:0:
232,152,171435,2,0,L|296:184,2,70.000000298023,4|8|0,0:0|0:0|0:0,0:0:0:0:
224,72,171905,1,4,0:0:0:0:
288,24,172061,1,0,0:0:0:0:
360,56,172217,1,12,0:0:0:0:
368,136,172373,1,0,0:0:0:0:
304,184,172530,6,0,B|318:207|349:217|349:217|360:218|360:218|362:228|362:228|383:228|383:228|442:265|433:344,1,210.000000894069
312,328,173311,1,0,0:0:0:0:
232,351,173467,1,8,0:0:0:0:
156,313,173623,1,0,0:0:0:0:
80,350,173780,2,0,L|64:282,1,70.000000298023
170,235,174092,2,0,L|154:155,1,70.000000298023,8|0,0:0|0:0,0:0:0:0:
22,64,174561,5,0,0:0:0:0:
102,87,174717,2,0,P|150:68|166:55,1,70.000000298023,8|0,0:0|0:0,0:0:0:0:
232,7,175030,1,0,0:0:0:0:
250,88,175186,1,0,0:0:0:0:
327,119,175342,1,8,0:0:0:0:
392,66,175498,1,0,0:0:0:0:
464,104,175655,1,0,0:0:0:0:
486,186,175811,6,0,L|505:274,2,70.000000298023,0|8|0,0:0|0:0|0:0,0:0:0:0:
464,104,176280,1,0,0:0:0:0:
401,159,176436,2,0,L|335:209,1,70.000000298023,0|8,0:0|0:0,0:0:0:0:
264,178,176748,1,0,0:0:0:0:
96,168,177061,5,0,0:0:0:0:
24,200,177217,1,8,0:0:0:0:
56,272,177373,1,0,0:0:0:0:
128,240,177530,2,0,L|200:240,1,70.000000298023
296,240,177842,1,8,0:0:0:0:
296,120,177998,1,0,0:0:0:0:
296,121,178311,5,0,0:0:0:0:
351,184,178467,1,8,0:0:0:0:
416,132,178623,1,0,0:0:0:0:
470,196,178780,2,0,L|460:278,1,70.000000298023
448,352,179092,1,8,0:0:0:0:
316,329,179248,1,0,0:0:0:0:
316,329,179561,5,0,0:0:0:0:
232,322,179717,2,0,L|245:369,2,35.0000001490115,8|0|0,0:0|0:0|0:0,0:0:0:0:
151,297,180030,2,0,L|117:206,1,70.000000298023
209,220,180342,1,8,0:0:0:0:
273,151,180498,2,0,L|189:132,1,70.000000298023
350,104,180811,2,0,L|382:80,2,35.0000001490115,0|0|8,0:0|0:0|0:0,0:0:0:0:
347,187,181123,5,0,0:0:0:0:
421,147,181280,1,0,0:0:0:0:
482,206,181436,1,0,0:0:0:0:
444,278,181592,2,0,L|476:358,1,70.000000298023,8|0,0:0|0:0,0:0:0:0:
366,267,181904,2,0,L|356:342,1,70.000000298023
282,270,182217,2,0,L|245:329,1,70.000000298023,8|0,0:0|0:0,0:0:0:0:
217,216,182530,6,0,P|189:130|286:107,1,210.000000894069,0|2,0:0|0:0,0:0:0:0:
151,55,183311,1,2,0:0:0:0:
151,55,183467,1,8,0:0:0:0:
34,133,183780,2,0,B|0:232|0:232|48:336,1,210.000000894069,0|2,0:0|0:0,0:0:0:0:
144,216,184561,1,2,0:0:0:0:
144,216,184717,2,0,L|203:264,1,70.000000298023,8|0,0:0|0:0,0:0:0:0:
266,225,185030,6,0,L|362:193,1,70.000000298023,2|0,0:0|0:0,0:0:0:0:
404,181,185342,1,0,0:0:0:0:
386,37,185498,2,0,L|397:128,1,70.000000298023,2|0,0:0|0:0,0:0:0:0:
404,181,185811,1,2,0:0:0:0:
470,221,185967,1,0,0:0:0:0:
501,296,186123,2,0,P|423:286|357:321,1,140.000000596046,2|2,0:0|0:0,0:0:0:0:
304,352,186592,1,0,0:0:0:0:
152,323,186905,6,0,L|143:366,2,35.0000001490115
103,263,187217,1,0,0:0:0:0:
28,281,187373,2,0,P|37:219|109:185,1,140.000000596046,4|0,0:0|0:0,0:0:0:0:
170,215,187842,2,0,L|201:55,1,140.000000596046,8|0,0:0|0:0,0:0:0:0:
196,77,188467,1,8,0:0:0:0:
277,209,188780,5,0,0:0:0:0:
296,136,188936,2,0,P|342:171|335:258,1,140.000000596046
296,136,189405,1,0,0:0:0:0:
358,91,189561,2,0,L|314:21,2,70.000000298023,0|8|0,0:0|0:0|0:0,0:0:0:0:
435,94,190030,6,0,L|449:162,1,70.000000298023
412,230,190342,2,0,L|468:279,1,70.000000298023,8|0,0:0|0:0,0:0:0:0:
293,310,190655,2,0,L|375:294,1,70.000000298023,4|0,0:0|0:0,0:0:0:0:
192,319,190967,2,0,L|224:257,1,70.000000298023,8|0,0:0|0:0,0:0:0:0:
114,379,191280,2,0,L|109:285,1,70.000000298023,4|0,0:0|0:0,0:0:0:0:
67,221,191592,2,0,L|27:309,1,70.000000298023,8|0,0:0|0:0,0:0:0:0:
154,189,191905,2,0,L|186:173,3,35.0000001490115,12|0|0|0,0:0|0:0|0:0|0:0,0:0:0:0:
218,192,192217,2,0,L|296:149,1,70.000000298023,8|0,0:0|0:0,0:0:0:0:
352,112,192530,5,4,0:0:0:0:
464,48,192686,1,2,0:0:0:0:
464,48,192998,5,4,0:0:0:0:
400,200,193311,5,0,0:0:0:0:
376,224,193389,1,0,0:0:0:0:
353,250,193467,2,0,L|353:330,1,70.000000298023,8|0,0:0|0:0,0:0:0:0:
275,314,193780,2,0,L|240:328,3,35.0000001490115
222,294,194092,2,0,L|188:273,3,35.0000001490115,8|0|0|0,0:0|0:0|0:0|0:0,0:0:0:0:
171,242,194405,2,0,L|117:257,3,35.0000001490115
110,223,194717,2,0,P|105:172|114:142,1,70.000000298023,8|0,0:0|0:0,0:0:0:0:
32,188,195030,6,0,P|44:124|105:46,1,140.000000596046,4|8,0:0|0:0,0:0:0:0:
152,26,195498,1,2,0:0:0:0:
177,162,195811,1,2,0:0:0:0:
174,242,195967,1,8,0:0:0:0:
108,200,196123,1,0,0:0:0:0:
177,162,196280,2,0,B|248:148|248:148|337:170,1,140.000000596046,0|8,0:0|0:0,0:0:0:0:
389,198,196748,1,2,0:0:0:0:
352,48,197061,1,2,0:0:0:0:
352,48,197217,1,8,0:0:0:0:
497,103,197530,6,0,B|510:171|510:171|490:272,1,140.000000596046,0|8,0:0|0:0,0:0:0:0:
475,314,197998,1,2,0:0:0:0:
284,357,198311,1,2,0:0:0:0:
253,286,198467,1,8,0:0:0:0:
174,266,198623,1,0,0:0:0:0:
106,304,198780,2,0,L|73:227,1,70.000000298023
77,163,199092,1,8,0:0:0:0:
217,197,199248,2,0,L|143:169,1,70.000000298023,2|0,0:0|0:0,0:0:0:0:
77,163,199561,1,2,0:0:0:0:
11,200,199717,1,8,0:0:0:0:
0,44,200030,6,0,L|69:56,1,70.000000298023
145,66,200342,1,8,0:0:0:0:
221,77,200498,2,0,L|318:42,2,70.000000298023,2|0|0,0:0|0:0|0:0,0:0:0:0:
174,138,200967,1,8,0:0:0:0:
375,182,201280,6,0,L|311:208,1,70.000000298023
239,234,201592,1,8,0:0:0:0:
165,258,201748,2,0,L|78:235,2,70.000000298023,2|0|2,0:0|0:0|0:0,0:0:0:0:
225,306,202217,1,8,0:0:0:0:
378,321,202530,6,0,L|396:236,1,70.000000298023,2|0,0:0|0:0,0:0:0:0:
466,222,202842,1,8,0:0:0:0:
332,201,202998,2,0,L|370:137,1,70.000000298023,2|0,0:0|0:0,0:0:0:0:
444,146,203311,1,2,0:0:0:0:
329,73,203467,2,0,L|399:30,1,70.000000298023,8|2,0:0|0:0,0:0:0:0:
252,37,203780,5,0,0:0:0:0:
184,86,203936,1,0,0:0:0:0:
219,162,204092,1,8,0:0:0:0:
302,155,204248,1,2,0:0:0:0:
326,235,204405,2,0,L|358:299,1,70.000000298023,8|2,0:0|0:0,0:0:0:0:
274,310,204717,6,0,P|218:314|146:274,1,140.000000596046,10|0,0:0|0:0,0:0:0:0:
0,312,205342,1,8,0:0:0:0:
0,312,205498,1,2,0:0:0:0:
32,160,205811,1,2,0:0:0:0:
56,80,205967,1,8,0:0:0:0:
136,104,206123,1,0,0:0:0:0:
112,184,206280,2,0,P|163:207|216:282,1,140.000000596046,0|8,0:0|0:0,0:0:0:0:
208,352,206748,1,2,0:0:0:0:
368,328,207061,5,2,0:0:0:0:
368,328,207217,2,0,L|344:245,1,70.000000298023,8|0,0:0|0:0,0:0:0:0:
259,151,207530,2,0,L|275:220,1,70.000000298023,6|0,0:0|0:0,0:0:0:0:
342,163,207842,1,8,0:0:0:0:
414,210,207998,2,0,L|422:130,1,70.000000298023,2|0,0:0|0:0,0:0:0:0:
430,56,208311,1,2,0:0:0:0:
349,80,208467,1,8,0:0:0:0:
267,62,208623,2,0,P|220:20|129:44,1,140.000000596046,4|0,0:0|0:0,0:0:0:0:
191,99,209092,2,0,L|171:193,2,70.000000298023,8|0|0,0:0|0:0|0:0,0:0:0:0:
54,197,209717,5,8,0:0:0:0:
100,258,209873,1,0,0:0:0:0:
177,264,210030,2,0,P|244:253|305:192,1,140.000000596046,0|8,0:0|0:0,0:0:0:0:
314,131,210498,1,2,0:0:0:0:
384,296,210811,1,2,0:0:0:0:
472,272,210967,1,8,0:0:0:0:
473,254,211045,1,0,0:0:0:0:
475,236,211123,1,0,0:0:0:0:
477,218,211201,1,0,0:0:0:0:
478,200,211280,6,0,L|485:107,1,83.9999977941511,6|4,0:0|0:0,0:0:0:0:
328,56,211748,1,0,0:0:0:0:
328,56,212061,1,0,0:0:0:0:
268,115,212217,1,8,0:0:0:0:
185,99,212374,1,0,0:0:0:0:
147,24,212530,2,0,P|105:74|122:151,1,140.000000596046,4|8,0:0|0:0,0:0:0:0:
161,206,212998,1,0,0:0:0:0:
256,192,213076,12,4,216280,0:0:0:0:
