osu file format v9

[General]
AudioFilename: Negai no Hana.mp3
AudioLeadIn: 2000
PreviewTime: 71505
Countdown: 0
SampleSet: Soft
StackLeniency: 0.3
Mode: 0
LetterboxInBreaks: 1

[Editor]
DistanceSpacing: 0.7
BeatDivisor: 4
GridSize: 4

[Metadata]
Title:Negai no Hana
Artist:Rita
Creator:NatsumeRin
Version:Hana
Source:Nemureru Hana ha Haru o Matsu -spring come-
Tags:130cm

[Difficulty]
HPDrainRate:3
CircleSize:3
OverallDifficulty:3
ApproachRate:4
SliderMultiplier:1.08
SliderTickRate:1

[Events]
//Background and Video events
Video,0,"OP.flv"
0,0,"BG.jpg"
//Break Periods
//Storyboard Layer 0 (Background)
//Storyboard Layer 1 (Fail)
//Storyboard Layer 2 (Pass)
//Storyboard Layer 3 (Foreground)
//Storyboard Sound Samples
//Background Colour Transformations
3,100,163,162,255

[TimingPoints]
1333,631.578947368421,4,2,1,40,1,0
8911,-100,4,2,1,30,0,0
9227,-100,4,2,1,20,0,0
10806,-100,4,2,1,40,0,0
16490,-133.333333333333,4,2,1,40,0,0
19017,-100,4,2,1,50,0,0
20482,491.803278688525,4,2,1,60,1,0
20973,491.803278688525,4,2,1,60,1,0
29825,-100,4,2,1,45,0,0
30317,-100,4,2,1,60,0,0
30809,-100,4,2,1,70,0,0
37694,-100,4,2,2,60,0,0
38677,-100,4,2,2,40,0,0
51464,-100,4,1,2,45,0,0
51956,-100,4,1,2,55,0,0
55399,-100,4,1,2,45,0,0
56382,-100,4,1,1,60,0,0
60317,-100,4,2,1,60,0,0
60563,-100,4,1,1,60,0,0
62284,-100,4,2,1,65,0,0
63759,-100,4,1,2,45,0,0
64251,-100,4,1,1,60,0,0
65481,-100,4,1,1,5,0,0
65727,-100,4,1,1,60,0,0
67325,-100,4,1,1,50,0,0
68186,-100,4,1,1,60,0,0
70153,-100,4,1,2,45,0,0
71628,-100,4,2,1,70,0,0
72120,-100,4,2,1,85,0,1
75317,-100,4,2,1,70,0,1
75563,-100,4,2,1,85,0,1
78268,-100,4,2,1,70,0,1
79005,-100,4,2,1,65,0,1
79497,-100,4,2,1,85,0,1
85891,-100,4,1,2,50,0,1
86751,-100,4,1,2,40,0,1
87366,-100,4,2,1,85,0,1
87735,-100,4,2,1,85,0,0
87840,491.803278688525,4,2,1,85,1,1
87840,-100,4,2,1,85,0,1
93987,-100,4,2,1,75,0,1
94725,-100,4,2,1,70,0,1
95217,-100,4,2,1,85,0,1
101610,-100,4,2,2,65,0,0
102102,-100,4,2,1,85,0,0
105556,491.803278688525,4,1,2,55,1,0
106293,-100,4,1,2,50,0,0
106785,-100,4,1,1,75,0,0
107523,-100,4,1,1,70,0,0
114285,-100,4,2,1,45,0,0
114900,-100,4,1,1,65,0,0
115146,-100,4,1,1,70,0,0
115392,-100,4,2,1,75,0,0
115760,-100,4,1,1,70,0,0
122277,-100,4,2,2,70,0,0
123260,-100,4,1,1,20,0,0
127195,-100,4,1,1,40,0,0

[Colours]
Combo1 : 0,128,255
Combo2 : 0,0,255

[HitObjects]
24,160,701,2,0,B|36:188|96:196|128:176,1,108,0|4
184,104,1964,2,0,B|168:76|112:68|80:88,1,108,0|4
124,180,3227,2,0,B|124:304,1,108,0|2
204,352,4490,2,0,B|260:352,2,54,0|2|4
232,256,5754,1,0
328,280,6385,6,0,B|388:296|440:260,1,108,2|0
472,168,7648,2,0,B|412:152|360:188,1,108,2|0
328,280,8911,2,0,B|264:304|152:260|140:184,1,216,4|0
156,104,10806,5,0
248,64,11438,1,4
236,160,12069,1,0
328,120,12701,1,2
420,80,13333,2,0,B|444:136|404:184,2,108,0|2|0
328,120,15227,1,4
312,216,15859,1,0
376,296,16490,6,0,B|336:332|252:324|228:276,1,161.999995172024
231,281,19017,1,12
231,281,20482,5,0
132,284,20973,2,0,B|8:284,1,108
72,192,21956,2,0,B|192:192,1,108,8|8
276,140,22940,6,0,B|308:192|276:248,1,108,0|2
228,336,23923,1,0
336,336,24415,1,2
392,244,24907,1,0
352,140,25399,2,0,B|396:120|436:144,2,81,2|2|0
304,164,26382,1,2
220,232,26874,6,0,B|160:252|108:216,1,108,0|2
60,128,27858,2,0,B|-4:128,2,54,0|0|2
136,52,28841,2,0,B|208:52,2,54,0|2|2
160,156,29825,1,8
260,200,30317,2,0,B|324:212|364:168,1,108,0|4
400,72,31300,5,0
496,124,31792,2,0,B|496:248,1,108,2|0
436,324,32776,1,2
336,276,33268,2,0,B|312:232|344:184,2,81,2|2|0
312,324,34251,6,0,B|184:324,1,108,2|4
112,272,35235,2,0,B|16:272,2,81,2|4|0
152,236,36218,2,0,B|224:236,1,54,2|0
260,232,36710,6,0,B|288:176|252:120,1,108,2|0
168,68,37694,2,0,B|112:68,3,54,0|2|2|2
452,300,40645,6,0,B|328:300,1,108,0|8
248,336,41628,1,0
152,300,42120,1,8
56,336,42612,2,0,B|28:284|56:232,1,108,0|8
80,188,43350,2,0,B|104:132|76:80,1,108
52,40,44087,1,8
160,40,44579,5,0
184,140,45071,1,8
260,72,45563,2,0,B|328:72,2,54,0|0|8
284,172,46546,2,0,B|328:208|404:192,1,108,0|8
436,184,47284,1,0
368,100,47776,1,0
368,100,48022,1,8
284,172,48513,6,0,B|284:300,1,108,0|8
200,348,49497,1,0
96,328,49989,1,8
36,240,50481,2,0,B|36:176,3,54,0|0|8|0
144,208,51710,6,0,B|144:132,1,54,8|8
144,44,52448,2,0,B|204:40|236:92,1,108
272,164,53309,1,0
352,164,53677,2,0,B|424:164,1,54,0|8
380,268,54415,2,0,B|448:268,2,54,0|8|8
312,312,55276,1,0
244,356,55645,2,0,B|176:356,1,54,0|8
96,304,56382,5,0
64,200,56874,1,2
96,96,57366,2,0,B|208:96,1,108,0|2
288,24,58350,2,0,B|328:68|308:128,1,108,0|2
296,176,59087,2,0,B|276:216|300:260,1,81
356,312,59825,2,0,B|468:312,1,108,2|4
432,208,60809,5,0
496,116,61300,2,0,B|448:84|380:104,1,108,2|0
292,144,62284,5,8
172,36,63022,1,8
52,144,63759,1,8
148,196,64251,6,0,B|172:252|132:300,1,108,0|2
92,332,64989,2,0,B|276:332,1,162,0|2
364,332,66218,1,0
460,280,66710,1,2
460,280,66956,2,0,B|480:240|456:200,1,81,0|0
480,124,67694,2,0,B|348:124,1,108,2|4
264,124,68677,1,0
156,100,69169,2,0,B|140:132|164:164,2,54,2|0|2
236,28,70153,5,8
336,156,70891,1,8
284,308,71628,6,0,B|232:332|172:308,1,108,2|4
100,236,72612,2,0,B|64:264|68:312,2,81,2|4|0
144,204,73595,2,0,B|216:204,1,54,2|0
240,168,74087,2,0,B|288:128|268:56,1,108,0|2
340,24,74948,1,2
452,104,75563,6,0,B|492:144|476:208,1,108,2|0
424,300,76546,2,0,B|404:348|340:348,2,81,2|2|0
436,248,77530,2,0,B|336:180,1,108,2|4
244,156,78513,1,0
168,232,79005,1,0
196,336,79497,6,0,B|136:352|92:308,1,108,2|4
48,216,80481,2,0,B|48:128,1,81,2|4
48,52,81218,1,2
48,52,81464,2,0,B|104:24|160:56,1,108,0|2
244,112,82448,1,2
208,184,82817,1,4
240,316,83432,6,0,B|296:344|348:312,1,108,2|0
404,224,84415,1,2
368,152,84784,1,0
404,20,85399,1,2
296,20,85891,2,0,B|172:20,2,108,0|8|8
352,112,87366,6,0,B|340:172|284:188,1,108,2|4
184,220,88331,2,0,B|136:232|112:280,2,81,2|4|0
184,220,89315,1,2
212,324,89807,1,0
320,324,90299,2,0,B|412:324,1,81,2|2
480,212,91282,5,0
440,112,91774,1,2
368,32,92266,2,0,B|328:56|332:104,1,81,0|2
344,180,93003,1,2
344,180,93249,2,0,B|360:240|312:288,1,108,0|4
228,340,94233,1,0
120,320,94725,1,0
56,232,95217,6,0,B|44:172|88:128,1,108,2|4
188,104,96200,2,0,B|220:68|280:72,2,81,2|4|0
212,152,97184,2,0,B|280:188,1,54,2|0
296,216,97676,2,0,B|256:272|184:256,1,108,2|2
124,240,98536,1,2
216,344,99151,1,2
320,308,99643,5,0
424,344,100135,2,0,B|444:304|420:260,1,81,2|4
423,266,101610,1,4
423,266,103085,6,0,B|423:143,1,108,0|4
422,77,103946,1,0
422,77,105556,5,8
264,36,106293,1,8
152,152,107031,2,0,B|136:212|188:260,1,108,0|4
280,296,108015,5,2
368,232,108506,1,0
468,276,108998,1,2
456,168,109490,2,0,B|436:104|480:48,1,108,0|2
400,20,110351,1,2
372,96,110719,2,0,B|360:136|380:172,1,54,0|2
332,252,111457,6,0,B|272:268|216:224,1,108,0|2
120,244,112441,2,0,B|64:212|64:144,1,108,0|2
92,52,113424,2,0,B|20:52,2,54,0|2|2
200,52,114408,1,8
308,52,114900,2,0,B|380:52,1,54
408,52,115392,6,0,B|444:100|408:156,1,108,4|2
336,232,116375,2,0,B|336:304,2,54,0|0|2
260,156,117359,1,0
160,192,117851,2,0,B|120:216|64:204,1,81,2|2
100,72,118834,6,0,B|152:40|216:64,1,108,2|4
244,160,119818,2,0,B|204:180|156:156,2,81,2|4|0
292,136,120801,2,0,B|360:136,1,54,2|0
392,108,121293,5,2
464,188,121785,1,0
420,288,122277,2,0,B|420:360,3,54,0|2|2|2
256,192,123260,12,4,127195
