osu file format v12

[General]
AudioFilename: _short.mp3
AudioLeadIn: 2000
PreviewTime: 77537
Countdown: 0
SampleSet: Soft
StackLeniency: 0.7
Mode: 0
LetterboxInBreaks: 1

[Editor]
DistanceSpacing: 0.8
BeatDivisor: 4
GridSize: 4

[Metadata]
Title:Michi no Saki, Sora no Mukou (Short Ver.)
TitleUnicode:道の先、空の向こう (Short Ver.)
Artist:Rita
ArtistUnicode:Rita
Creator:Miracle Lotus
Version:Hard
Source:Yosuga no Sora
Tags:opening Sphere Haruka Sora Kasugano Nao Yorihime Akira Amatsume Kazuha Migiwa Motoka Nogisaka Visual Novel Eroge starry Mitsuneko RLC Sun Rainbow
BeatmapID:152940
BeatmapSetID:49635

[Difficulty]
HPDrainRate:6
CircleSize:4
OverallDifficulty:6
ApproachRate:7
SliderMultiplier:1.6
SliderTickRate:2

[Events]
//Background and Video events
0,0,"216001.jpg",0,0
Video,0,"Untitled.avi"
//Break Periods
2,115973,117393
//Storyboard Layer 0 (Background)
//Storyboard Layer 1 (Fail)
//Storyboard Layer 2 (Pass)
//Storyboard Layer 3 (Foreground)
//Storyboard Sound Samples
//Background Colour Transformations
3,100,163,162,255

[TimingPoints]
606,457.927876359473,4,2,1,40,1,0
77537,-100,4,2,1,40,0,1
110508,-100,4,2,1,40,0,0
119667,-100,4,2,1,30,0,0
121498,-100,4,2,1,20,0,0
122872,-100,4,2,1,10,0,0

[Colours]
Combo1 : 147,87,140
Combo2 : 40,205,31
Combo3 : 45,88,228
Combo4 : 200,38,38
Combo5 : 255,150,0
Combo6 : 72,175,187
Combo7 : 255,4,249
Combo8 : 235,253,15

[HitObjects]
104,56,606,1,2,0:0:0:0:
400,56,1063,1,2,0:0:0:0:
260,344,1979,2,0,B|260:264,1,80
184,208,2437,2,0,B|260:152|344:212,1,160,2|0,0:0|0:0,0:0:0:0:
344,132,3124,2,0,P|260:64|168:144,1,240
170,134,4040,1,0,0:0:0:0:
88,160,4269,6,0,B|24:160|24:212|28:256|104:256,2,160
152,208,5414,1,0,0:0:0:0:
232,172,5643,2,0,B|252:216|220:272,1,80,2|0,0:0|0:0,0:0:0:0:
316,256,6101,2,0,B|374:256|378:212|378:160|314:160,2,160
384,336,7245,6,0,B|480:336,1,80,0|2,0:0|0:0,0:0:0:0:
464,244,7703,1,0,0:0:0:0:
464,152,7932,1,2,0:0:0:0:
392,72,8161,6,0,B|480:72,2,80,0|2|0,0:0|0:0|0:0,0:0:0:0:
312,72,8848,2,0,B|224:72,1,80
256,196,9535,2,0,B|256:276,1,80,0|2,0:0|0:0,0:0:0:0:
96,276,10222,2,0,B|176:276,1,80
336,276,10909,2,0,B|452:276,2,80
336,200,11596,5,2,0:0:0:0:
196,200,12054,2,0,B|160:156|196:112,1,80,0|2,0:0|0:0,0:0:0:0:
252,52,12741,1,0,0:0:0:0:
256,192,12970,12,0,15259,0:0:0:0:
184,76,15488,6,0,B|288:76,1,80
348,80,15946,2,0,B|348:176,1,80
388,232,16404,2,0,B|344:252|288:224,1,80
224,228,16862,1,8,0:0:0:0:
136,260,17091,6,0,B|72:260|72:216|72:176|140:180,2,160
196,312,18236,2,0,B|288:312,1,80
352,312,18694,1,8,0:0:0:0:
412,260,18923,2,0,B|476:260|476:216|476:176|400:180,2,160
352,312,20067,5,8,0:0:0:0:
312,240,20296,2,0,B|232:240,1,80
192,176,20754,1,8,0:0:0:0:
228,100,20983,2,0,B|312:100,1,80
368,172,21441,2,0,B|456:172,2,80
364,252,22128,6,0,B|384:296|344:352,2,80
312,288,22815,1,2,0:0:0:0:
256,320,23044,1,2,0:0:0:0:
224,264,23273,1,2,0:0:0:0:
180,220,23502,2,0,B|132:240|140:292,2,80
228,180,24189,1,8,0:0:0:0:
144,84,24418,6,0,B|52:84,2,80
232,84,25105,2,0,B|316:84,2,80
208,172,25792,2,0,B|296:172,1,80
404,176,26249,6,0,B|376:220|468:288|392:344,1,160
324,328,26936,2,8,B|288:348|288:348|240:320,2,80
292,256,27623,2,8,B|252:234|216:260,1,80
256,192,27967,12,0,29913,0:0:0:0:
224,120,30371,2,0,B|264:96|304:120,1,80,0|0,0:0|0:0,0:0:0:0:
300,196,30829,2,0,B|260:224|220:192,2,80
380,200,31516,2,0,B|399:160|375:112,2,80
380,264,32203,2,0,B|380:364|264:336|140:360|140:264,1,320
44,104,33576,5,2,0:0:0:0:
192,56,34034,2,0,B|288:56,1,80
236,132,34492,2,0,B|324:132,1,80
384,96,34950,2,0,B|404:136|376:196,2,80
480,136,35637,1,0,0:0:0:0:
488,216,35866,2,0,B|444:216|392:236|356:288|356:288|312:236|244:216|192:216,1,320
144,176,37011,1,0,0:0:0:0:
212,132,37240,6,0,B|256:132|308:112|344:60|344:60|388:112|456:132|504:132,1,320
500,308,38614,1,2,0:0:0:0:
500,308,38842,2,0,B|412:348|312:292,1,160
260,308,39529,1,2,0:0:0:0:
176,308,39758,2,0,B|88:348|-12:292,2,160
256,192,40903,12,0,43422,0:0:0:0:
396,52,44109,6,2,B|460:52,2,40
320,52,44567,2,0,B|260:52|204:80|200:180,1,160
204,140,45253,1,8,0:0:0:0:
140,184,45482,2,0,B|164:232|232:216,2,80
84,248,46169,2,0,B|44:268|44:320,2,80
144,308,46856,2,0,B|256:264|384:308,1,240
379,306,47772,1,8,0:0:0:0:
436,72,48230,6,0,B|332:72,1,80
280,76,48688,2,0,B|280:168,2,80
280,76,49375,1,8,0:0:0:0:
192,76,49604,2,0,B|76:76,2,80
160,148,50291,1,8,0:0:0:0:
88,184,50520,2,0,B|16:216,2,80
224,204,51435,5,8,0:0:0:0:
304,240,51664,2,0,B|304:328|372:344|440:324|440:236,2,240
368,184,53267,6,0,B|368:80,1,80
304,52,53725,2,0,B|212:52,1,80
136,76,54183,1,8,0:0:0:0:
48,52,54412,2,0,B|32:96|48:136,1,80
108,192,54870,2,0,B|168:204|200:184,2,80
52,276,55557,5,8,0:0:0:0:
148,284,55786,2,0,B|140:324|100:356,1,80
196,364,56244,2,0,B|220:324|268:304,1,80
336,308,56702,2,0,B|370:321|394:361,1,80
424,276,57160,2,0,B|336:216|512:144|416:64,2,240
324,276,58762,6,0,B|324:192,1,80
268,164,59220,2,0,B|268:80,1,80
204,80,59678,1,2,0:0:0:0:
140,80,59907,2,0,B|140:160,1,80
152,224,60365,6,0,B|240:224,1,80
248,288,60823,2,0,B|168:288,2,80
312,284,61510,2,0,B|344:240|304:196,1,80
368,176,61968,2,0,B|324:88|388:12,1,160
252,48,62884,5,2,0:0:0:0:
252,48,63113,2,0,B|276:80|256:136,1,80,2|0,0:0|0:0,0:0:0:0:
336,204,63571,2,0,B|256:224|168:204,1,160
120,280,64257,1,2,0:0:0:0:
180,340,64486,2,0,B|260:320|348:340,2,160
120,280,65631,2,0,B|40:280|40:200|120:200,1,160
156,124,66318,6,8,B|204:124,2,40
256,124,66776,1,0,0:0:0:0:
256,44,67005,2,0,B|308:36|356:84|356:84|388:84|440:84,2,160
256,124,68150,2,0,B|256:216|384:208|384:208,1,160
436,208,68837,1,0,0:0:0:0:
436,208,69066,2,0,B|448:312|304:292,2,160
332,296,70211,1,0,0:0:0:0:
256,308,70440,6,0,B|176:308,1,80,0|2,0:0|0:0,0:0:0:0:
96,340,70897,2,0,B|108:300|92:252,1,80,0|2,0:0|0:0,0:0:0:0:
60,180,71355,2,0,B|100:196|168:172,1,80,0|2,0:0|0:0,0:0:0:0:
164,240,71813,2,0,B|140:284|172:328,1,80,0|2,0:0|0:0,0:0:0:0:
228,280,72271,2,0,B|252:248|228:200,1,80,0|2,0:0|0:0,0:0:0:0:
260,76,72729,1,0,0:0:0:0:
408,80,73187,1,2,0:0:0:0:
460,136,73416,1,2,0:0:0:0:
408,184,73645,1,0,0:0:0:0:
256,192,73874,12,0,76622,0:0:0:0:
124,296,77537,5,8,0:0:0:0:
360,292,77995,1,8,0:0:0:0:
252,40,78911,2,8,B|252:88,2,40
316,40,79369,2,0,B|356:60|348:108,1,80
304,152,79827,1,8,0:0:0:0:
240,152,80056,2,0,B|152:152,2,80
264,212,80743,1,8,0:0:0:0:
264,276,80972,5,8,0:0:0:0:
187,329,81201,2,0,B|259:357|351:325,2,160
93,266,82346,5,8,0:0:0:0:
100,196,82575,2,0,B|48:200|20:248,2,80
92,96,83261,2,0,B|44:88|12:60,2,80
168,140,83948,2,0,B|228:148|276:104|300:144,2,120
232,224,84864,2,0,B|232:344|320:368|400:348|400:216,1,320
444,148,86009,5,8,0:0:0:0:
444,148,86238,2,0,B|404:128|356:152,1,80
324,92,86696,2,0,B|248:120|152:84,2,160
384,44,87841,2,0,B|432:28|488:52,1,80
420,112,88299,2,0,B|440:152|420:200,1,80
352,156,88757,1,8,0:0:0:0:
204,192,89215,6,0,B|100:192,2,80
256,120,89901,1,8,0:0:0:0:
312,196,90130,5,4,0:0:0:0:
256,344,90588,1,4,0:0:0:0:
204,196,91046,1,4,0:0:0:0:
256,48,91504,1,4,0:0:0:0:
480,40,92191,86,0,B|400:112,1,80
352,140,92649,1,8,0:0:0:0:
408,256,93107,1,2,0:0:0:0:
480,348,93565,6,0,B|420:272,1,80
424,208,94023,2,0,B|372:204|360:252,1,80
360,336,94481,2,0,B|244:336,1,80
204,336,94939,2,0,B|104:336,1,80
120,244,95397,2,0,B|109:201|56:204,1,80
56,276,95854,6,0,B|16:348,2,80
120,244,96541,2,0,B|228:244,1,80
260,200,96999,6,0,B|352:200,2,80
256,124,97686,2,0,B|176:72|76:144,2,160
320,124,98831,2,0,B|384:96|440:132,2,120
276,172,99747,1,0,0:0:0:0:
276,172,99976,6,0,B|276:268,1,80
236,300,100434,2,0,B|332:300,2,80
184,336,101121,2,0,B|104:336,2,80
188,272,101808,2,0,B|276:272,2,80
156,216,102494,1,8,0:0:0:0:
188,160,102723,1,8,0:0:0:0:
240,124,102952,2,0,B|324:124,1,80
380,148,103410,5,2,0:0:0:0:
412,204,103639,1,0,0:0:0:0:
428,264,103868,1,2,0:0:0:0:
428,264,104097,2,0,B|524:264,2,80
396,320,104784,6,0,B|288:320,1,80
272,276,105242,1,2,0:0:0:0:
216,244,105471,2,0,B|108:244,2,80
220,180,106158,5,8,0:0:0:0:
220,180,106387,1,8,0:0:0:0:
256,192,106616,12,0,110508,0:0:0:0:
216,132,110737,6,0,B|256:116|328:140,1,80
364,184,111195,1,8,0:0:0:0:
300,232,111424,2,0,B|256:252|204:224,1,80
152,184,111882,1,2,0:0:0:0:
152,184,112111,1,2,0:0:0:0:
76,116,112340,6,0,B|0:184|88:272,2,160
76,116,113485,1,2,0:0:0:0:
128,44,113714,2,0,B|176:72|228:32,1,80
288,52,114172,1,8,0:0:0:0:
448,96,114630,6,0,B|448:184,1,80
452,240,115087,1,2,0:0:0:0:
408,288,115316,1,2,0:0:0:0:
344,304,115545,2,0,B|236:304,1,80,0|2,0:0|0:0,0:0:0:0:
256,192,118293,5,4,0:0:0:0:
256,192,118407,12,0,123330,0:0:0:0:
